<?xml version="1.0" standalone="no"?>
<!DOCTYPE svg PUBLIC "-//W3C//DTD SVG 1.1//EN" "http://www.w3.org/Graphics/SVG/1.1/DTD/svg11.dtd" >
<svg xmlns="http://www.w3.org/2000/svg" xmlns:xlink="http://www.w3.org/1999/xlink" version="1.1">
<metadata>
Created by FontForge 20170731 at Sun Dec  4 11:51:18 2016
 By Aleksey,,,
Copyright 2016 The Sansita Project Authors (omnibus.type@gmail.com)
</metadata>
<defs>
<font id="Sansita-Black" horiz-adv-x="642" >
  <font-face 
    font-family="Sansita Black"
    font-weight="900"
    font-stretch="normal"
    units-per-em="1000"
    panose-1="3 6 10 2 3 9 2 2 5 6"
    ascent="800"
    descent="-200"
    x-height="510"
    cap-height="660"
    bbox="-85 -261 1079 933"
    underline-thickness="50"
    underline-position="-150"
    unicode-range="U+000D-2215"
  />
<missing-glyph horiz-adv-x="514" 
d="M6 0v700h500v-700h-500zM256 395l169 255h-340zM55 605v-510l171 255zM286 350l169 -255v510zM86 50h340l-171 255z" />
    <glyph glyph-name="f_f" unicode="ff" horiz-adv-x="718" 
d="M841 700.5q65 -19.5 65 -74.5q0 -38 -40 -55.5t-91 -17.5q-46 0 -60 8l2 52q0 58 -35 58q-28 0 -34.5 -26.5t-6.5 -74.5v-60h78v-45h-79v-465l-240 -17v482h-96v-465l-240 -17v482h-65v45h65l3 36q6 72 48 107.5t102.5 46t147.5 10.5q109 0 144 -34q50 20 93.5 32
t87.5 12q86 0 151 -19.5zM304 560v-50h96q3 14 7 51.5t4 52.5q0 23 -14.5 35t-40.5 12q-52 0 -52 -101z" />
    <glyph glyph-name="fi" unicode="fi" horiz-adv-x="681" 
d="M392.5 657q-10.5 14 -35.5 14q-33 0 -43 -26.5t-10 -74.5v-60h332v-376q0 -35 7 -65t24 -59q-18 -12 -49.5 -18.5t-57.5 -6.5q-79 0 -121.5 36t-42.5 110v334h-92v-465l-240 -17v482h-65v45h65l3 31q6 102 87 140.5t211 38.5q109 0 195 -13.5t86 -63.5q0 -49 -45 -68.5
t-111 -19.5q-20 0 -47 2.5t-43 7.5q3 17 3 51q0 27 -10.5 41z" />
    <glyph glyph-name="fl" unicode="fl" horiz-adv-x="677" 
d="M634 134q0 -35 7 -65t24 -59q-18 -12 -49 -18.5t-58 -6.5q-78 0 -121 36t-43 110v496q0 13 -13 21t-29 8q-28 0 -38 -26t-10 -75v-45h78v-45h-78v-465l-240 -17v482h-65v45h65l3 31q9 105 85.5 142t203.5 37q69 0 108 -13l170 17v-590z" />
    <glyph glyph-name=".notdef" horiz-adv-x="514" 
d="M6 0v700h500v-700h-500zM256 395l169 255h-340zM55 605v-510l171 255zM286 350l169 -255v510zM86 50h340l-171 255z" />
    <glyph glyph-name=".null" horiz-adv-x="0" 
 />
    <glyph glyph-name="nonmarkingreturn" unicode="&#xd;" horiz-adv-x="175" 
 />
    <glyph glyph-name="NULL" horiz-adv-x="0" 
 />
    <glyph glyph-name="NULL" horiz-adv-x="0" 
 />
    <glyph glyph-name="space" unicode=" " horiz-adv-x="175" 
 />
    <glyph glyph-name="exclam" unicode="!" horiz-adv-x="256" 
d="M197.5 649.5q27.5 -32.5 27.5 -90.5q0 -40 -11 -139l-22 -237q-18 -14 -55 -14q-34 0 -51 12.5t-23.5 34t-10.5 62.5l-39 366q16 18 44 28t57 10q56 0 83.5 -32.5zM217 128q32 -23 32 -63t-33.5 -62t-87.5 -22q-53 0 -86 21.5t-33 60.5q0 40 35 64t89 24q52 0 84 -23z
" />
    <glyph glyph-name="quotedbl" unicode="&#x22;" horiz-adv-x="421" 
d="M16 565q0 92 -21 170q40 6 63 6q122 0 122 -113q0 -42 -19 -96.5t-48 -86.5h-112q15 42 15 120zM243 565q0 92 -21 170q40 6 63 6q122 0 122 -113q0 -42 -19 -96.5t-48 -86.5h-112q15 42 15 120z" />
    <glyph glyph-name="numbersign" unicode="#" 
d="M511 645v-148h72q12 -21 12 -49q0 -44 -19 -65.5t-51 -21.5h-14v-91h72q12 -22 12 -49q0 -44 -19 -66t-51 -22h-14v-56q0 -34 -21 -55.5t-63 -21.5q-18 0 -54 13v120h-89v-56q0 -34 -21 -55.5t-63 -21.5q-18 0 -54 13v120h-87q-13 24 -13 49q0 44 19 66t51 22h30v91h-87
q-13 22 -13 48q0 44 19 66t51 22h30v85q0 34 21 55t63 21q24 0 54 -13v-148h89v85q0 34 21 55t63 21q24 0 54 -13zM373 361h-89v-91h89v91z" />
    <glyph glyph-name="dollar" unicode="$" 
d="M539.5 51q-62.5 -56 -177.5 -69v-36q0 -28 -16 -46.5t-45 -18.5q-13 0 -27 5.5t-20 7.5v85q-99 4 -161.5 35t-62.5 93t43 96t106 34q18 0 52 -2q-5 -38 -5 -57q0 -58 15.5 -90t60.5 -32q34 0 52.5 17.5t18.5 50.5q0 36 -19.5 60t-49 38.5t-79.5 31.5q-60 22 -97 41
t-62.5 54t-25.5 91q0 83 63.5 140t166.5 73v39q0 28 16 46.5t45 18.5q17 0 31 -6t16 -7v-86q86 -5 145.5 -34t59.5 -81q0 -60 -42 -87.5t-108 -27.5q-16 0 -52 2q5 33 5 73q0 79 -60 79q-26 0 -41.5 -17t-15.5 -44q0 -35 20 -59.5t50 -40t81 -34.5q60 -24 96 -43.5t61 -53
t25 -85.5q0 -98 -62.5 -154z" />
    <glyph glyph-name="percent" unicode="%" horiz-adv-x="1073" 
d="M870 646l-486 -612q-19 -24 -37 -38t-39 -14q-57 0 -80 65l486 612q19 25 36.5 39t39.5 14q57 0 80 -66zM367.5 633.5q54.5 -49.5 54.5 -142.5q0 -60 -26 -106t-72 -71.5t-104 -25.5q-57 0 -103 24t-72 68.5t-26 102.5q0 93 54.5 146.5t146.5 53.5q93 0 147.5 -49.5z
M197 599.5q-6 -29.5 -6 -111.5q0 -80 7 -113.5t22 -33.5q17 0 24 33t7 114q0 57 -3 86.5t-9.5 42t-18.5 12.5q-17 0 -23 -29.5zM1000 322q54 -50 54 -143q0 -59 -26 -105.5t-72 -72t-104 -25.5q-57 0 -103 24.5t-72 69t-26 102.5q0 93 54.5 146.5t146.5 53.5q94 0 148 -50z
M828.5 288.5q-6.5 -29.5 -6.5 -111.5q0 -80 7 -114t23 -34t23 33.5t7 114.5q0 83 -6.5 112t-23.5 29t-23.5 -29.5z" />
    <glyph glyph-name="ampersand" unicode="&#x26;" horiz-adv-x="735" 
d="M752 53q0 -37 -29 -55t-80 -18q-80 0 -159 46q-93 -45 -200 -45q-122 0 -198.5 45t-76.5 170q0 58 35.5 99.5t98.5 57.5q-47 79 -47 138q0 101 69 144t169 45q52 0 103 -13t85.5 -41.5t34.5 -71.5q0 -51 -41 -77.5t-96 -26.5q-15 0 -47 2q1 7 7 26t6 49q0 32 -9 58.5
t-36 26.5q-21 0 -31.5 -15t-10.5 -41q0 -97 48 -200t129 -167q9 35 9 63q0 59 -57 110q16 13 47.5 25.5t64.5 12.5q32 0 63.5 -14.5t52 -43.5t20.5 -70q0 -38 -16 -76t-45 -72q22 -5 53 -5q22 0 41.5 5t20.5 9q22 -44 22 -80zM229.5 111q46.5 -42 130.5 -42q24 0 42 9
q-54 39 -110 93t-101 111q-8 -28 -8 -48q0 -81 46.5 -123z" />
    <glyph glyph-name="quotesingle" unicode="'" horiz-adv-x="194" 
d="M16 565q0 92 -21 170q40 6 63 6q122 0 122 -113q0 -42 -19 -96.5t-48 -86.5h-112q15 42 15 120z" />
    <glyph glyph-name="parenleft" unicode="(" horiz-adv-x="302" 
d="M354 781q-89 -63 -127.5 -192.5t-38.5 -288.5t38.5 -288.5t127.5 -192.5q-22 -19 -57 -19q-77 0 -139 61.5t-97.5 174.5t-35.5 264t35.5 264t97.5 174.5t139 61.5q35 0 57 -19z" />
    <glyph glyph-name="parenright" unicode=")" horiz-adv-x="303" 
d="M139 738.5q63 -61.5 100.5 -175.5t37.5 -263q0 -150 -37.5 -264t-100.5 -175.5t-137 -61.5q-35 0 -54 20q89 62 127.5 192t38.5 289t-38.5 288.5t-127.5 192.5q19 19 54 19q74 0 137 -61.5z" />
    <glyph glyph-name="asterisk" unicode="*" horiz-adv-x="470" 
d="M402 569q7 -22 7 -40q0 -26 -14 -40t-37 -22q-8 -3 -30 -7l63 -66q-14 -27 -43 -49q-32 -23 -56 -23q-17 0 -30 9t-24 25q-19 28 -26 52l-54 -99q-33 6 -59 26q-42 31 -42 63q0 22 18 45q14 18 25 28l-84 15q-1 6 -1 17q0 21 7 47q20 62 65 62q13 0 30 -5q15 -4 40 -19
l-13 95q30 14 63 14q49 0 66 -20t17 -53q0 -21 -4 -40l83 40q20 -20 33 -55z" />
    <glyph glyph-name="plus" unicode="+" 
d="M536 245q0 -29 -19 -43.5t-51 -14.5h-83v-103q0 -34 -16.5 -55t-49.5 -21q-30 0 -53 10v169h-146q-12 22 -12 49q0 29 19 43.5t51 14.5h88v92q0 34 16 55t48 21t55 -10v-158h141q12 -26 12 -49z" />
    <glyph glyph-name="comma" unicode="," horiz-adv-x="276" 
d="M258 37q0 -49 -26.5 -90.5t-70.5 -65.5t-94 -24q-26 0 -49 6q26 36 39 71.5t13 76.5q0 71 -30 128q10 9 36 15.5t49 6.5q133 0 133 -124z" />
    <glyph glyph-name="hyphen" unicode="-" horiz-adv-x="352" 
d="M19 212q0 77 78 80l232 14q5 -12 5 -35q0 -40 -20 -59t-60 -21l-232 -14q-3 14 -3 35z" />
    <glyph glyph-name="period" unicode="." horiz-adv-x="258" 
d="M217 128q32 -23 32 -63t-33.5 -62t-87.5 -22q-53 0 -86 21.5t-33 60.5q0 40 35 64t89 24q52 0 84 -23z" />
    <glyph glyph-name="slash" unicode="/" horiz-adv-x="346" 
d="M299 784q27 -19 27 -59q0 -21 -6 -51l-157 -872q-15 -2 -41 -2q-47 0 -74 18.5t-27 57.5q0 23 6 52l156 872q22 3 42 3q47 0 74 -19z" />
    <glyph glyph-name="zero" unicode="0" 
d="M547.5 596.5q73.5 -83.5 73.5 -257.5q0 -173 -76 -267t-224 -94q-144 0 -222 90t-78 257q0 355 300 355q153 0 226.5 -83.5zM376 127q15 73 15 207q0 136 -15 203t-55 67t-55 -67t-15 -203q0 -134 15 -207t55 -73t55 73z" />
    <glyph glyph-name="one" unicode="1" 
d="M632 99v-99h-567v99h167v365q-18 -24 -40.5 -34.5t-55.5 -10.5q-55 0 -80 26t-25 82q115 32 213.5 69.5t188.5 85.5l63 -30v-553h136z" />
    <glyph glyph-name="two" unicode="2" 
d="M507.5 628.5q77.5 -51.5 77.5 -159.5q0 -78 -44.5 -139.5t-107.5 -100.5q-47 -28 -81 -45.5t-69 -27.5l290 15l3 -171h-529l-7 73q32 27 84 71t66 57l22 21q36 33 59 57.5t39 57t16 71.5q0 58 -31 85t-93 27q-42 0 -72 -18t-55 -52q-49 29 -49 79q0 79 81 115t192 36
q131 0 208.5 -51.5z" />
    <glyph glyph-name="three" unicode="3" 
d="M489.5 643.5q79.5 -37.5 79.5 -122.5q0 -56 -36.5 -95.5t-98.5 -56.5q82 -11 125 -58t43 -112q0 -108 -87 -164.5t-244 -56.5q-56 0 -109 16.5t-87.5 51.5t-34.5 89q0 40 27 67q14 -35 55 -54.5t88 -19.5t80 25.5t33 67.5q0 76 -93 76l-50 -1v83h31q62 0 99.5 14t37.5 55
q0 40 -37.5 61t-88.5 21q-46 0 -82.5 -22.5t-58.5 -62.5q-39 33 -39 79q0 81 69 119t162 38q137 0 216.5 -37.5z" />
    <glyph glyph-name="four" unicode="4" 
d="M569 267h55l-10 -158h-43v-109h-280v109h-272q-15 27 -15 65q0 46 31 90l269 396h265v-393zM301 509l-155 -242h155v242z" />
    <glyph glyph-name="five" unicode="5" 
d="M555 492h-339l-10 -66q66 6 143 6q124 0 188.5 -49t64.5 -160q0 -123 -78 -184t-250 -61q-241 0 -241 157q0 39 26 67q42 -64 127 -64q68 0 107.5 15.5t39.5 61.5q0 41 -24.5 60.5t-63 24.5t-101.5 5q-61 0 -75 1l42 354h432z" />
    <glyph glyph-name="six" unicode="6" 
d="M469 668q55 -12 93 -38t38 -67q0 -46 -24 -70q-28 16 -75.5 26.5t-85.5 10.5q-49 0 -77 -11.5t-40 -41t-11 -83.5q38 22 75.5 30t82.5 8q189 0 189 -202q0 -124 -78.5 -188t-210.5 -64q-150 0 -235.5 80t-85.5 241q0 125 46 211t123.5 128t170.5 42q50 0 105 -12z
M292.5 302q-11.5 -41 -11.5 -104q0 -65 11.5 -104.5t51.5 -39.5t51.5 40t11.5 104q0 66 -11.5 105.5t-51.5 39.5t-51.5 -41z" />
    <glyph glyph-name="seven" unicode="7" 
d="M624 660l7 -73l-244 -611l-315 26l296 502l-336 -26l-4 182h596z" />
    <glyph glyph-name="eight" unicode="8" 
d="M550 441.5q-35 -36.5 -85 -57.5q60 -39 91 -63.5t51 -59t20 -81.5q0 -71 -44 -116t-113.5 -65.5t-149.5 -20.5q-124 0 -209.5 47t-85.5 148q0 54 42 97t107 51q-53 31 -84 77t-31 101q0 99 78.5 140t202.5 41q101 0 173 -39t72 -118q0 -45 -35 -81.5zM304.5 495
q23.5 -23 69.5 -52q24 34 24 80q0 81 -58 81q-59 0 -59 -66q0 -20 23.5 -43zM363.5 171q-14.5 20 -37 36.5t-66.5 44.5q-20 -38 -20 -90q0 -45 20.5 -76.5t59.5 -31.5q30 0 44 19.5t14 53.5q0 24 -14.5 44z" />
    <glyph glyph-name="nine" unicode="9" 
d="M469 643.5q75 -36.5 117 -109t42 -175.5q0 -125 -49 -210.5t-129 -128t-172 -42.5q-50 0 -105 12t-93.5 38t-38.5 67q0 45 25 70q28 -16 75 -26.5t85 -10.5q56 0 83 11.5t37 39.5t9 85q-38 -22 -75.5 -30t-83.5 -8q-188 0 -188 202q0 124 78.5 188t210.5 64
q97 0 172 -36.5zM246.5 564.5q-11.5 -39.5 -11.5 -104.5q0 -67 11.5 -106t51.5 -39t51.5 41t11.5 104q0 65 -11.5 104.5t-51.5 39.5t-51.5 -39.5z" />
    <glyph glyph-name="colon" unicode=":" horiz-adv-x="276" 
d="M18 0zM226 507q32 -23 32 -63t-33.5 -62t-87.5 -22q-53 0 -86 21.5t-33 60.5q0 40 35 64t89 24q52 0 84 -23zM226 128q32 -23 32 -63t-33.5 -62t-87.5 -22q-53 0 -86 21.5t-33 60.5q0 40 35 64t89 24q52 0 84 -23z" />
    <glyph glyph-name="semicolon" unicode=";" horiz-adv-x="286" 
d="M28 0zM236 507q32 -23 32 -63t-33.5 -62t-87.5 -22q-53 0 -86 21.5t-33 60.5q0 40 35 64t89 24q52 0 84 -23zM277 37q0 -49 -26.5 -90.5t-70.5 -65.5t-94 -24q-26 0 -49 6q26 36 39 71.5t13 76.5q0 71 -30 128q10 9 36 15.5t49 6.5q133 0 133 -124z" />
    <glyph glyph-name="less" unicode="&#x3c;" 
d="M516.5 115q8.5 -16 8.5 -33q0 -43 -24 -69t-63 -26l-339 232l259 210q5 4 25 20.5t38.5 25t37.5 8.5q34 0 56.5 -19.5t39.5 -61.5l-202 -168l142 -94q13 -9 21.5 -25z" />
    <glyph glyph-name="equal" unicode="=" 
d="M106 313q0 29 19 43.5t51 14.5h348q12 -26 12 -49q0 -30 -19 -44t-51 -14h-348q-12 22 -12 49zM106 129q0 29 19 43t51 14h348q12 -24 12 -48q0 -30 -19 -44t-51 -14h-348q-12 21 -12 49z" />
    <glyph glyph-name="greater" unicode="&#x3e;" 
d="M543 251l-253 -211q-30 -25 -54.5 -39t-51.5 -14q-34 0 -57 19t-39 61l199 168l-139 94q-14 10 -22 25t-8 33q0 43 24 69.5t62 26.5z" />
    <glyph glyph-name="question" unicode="?" horiz-adv-x="556" 
d="M459 644q76 -36 76 -135q0 -39 -19.5 -70.5t-47 -54.5t-71.5 -52q-55 -37 -81.5 -63.5t-26.5 -61.5q-6 -4 -19.5 -6.5t-26.5 -2.5q-36 0 -58 25t-22 63q0 32 16.5 58t50.5 63q36 40 53.5 68t17.5 65q0 38 -10.5 59t-38.5 21q-33 0 -42 -28t-9 -78q0 -43 4 -79
q-25 -4 -57 -4q-64 0 -105 29.5t-41 88.5q0 70 71.5 100.5t181.5 30.5q128 0 204 -36zM323 128q32 -23 32 -63t-33.5 -62t-87.5 -22q-53 0 -86 21.5t-33 60.5q0 40 35 64t89 24q52 0 84 -23z" />
    <glyph glyph-name="at" unicode="@" horiz-adv-x="781" 
d="M581.5 565.5q83.5 -35.5 131.5 -106.5t48 -173q0 -77 -13.5 -125t-50 -74t-105.5 -26q-55 0 -88 16.5t-48 60.5q-7 -29 -37.5 -48.5t-80.5 -19.5q-66 0 -112 25.5t-46 80.5q0 69 64 91t172 22v68q0 27 -7 41t-27 14q-25 0 -33.5 -15.5t-8.5 -51.5q0 -28 -1 -39
q-6 -4 -40 -4q-40 0 -66.5 14.5t-26.5 47.5q0 53 56 72t128 19q98 0 149 -26.5t51 -105.5v-147q0 -33 4.5 -50.5t22.5 -17.5q23 0 29.5 28t6.5 91v34q0 143 -61 206.5t-202 63.5q-261 0 -261 -283q0 -137 64.5 -204t199.5 -67q116 0 180 48q17 -11 17 -34q0 -27 -32 -47.5
t-81 -31t-98 -10.5q-110 0 -191 41t-125 118.5t-44 186.5q0 103 45 183t129 125t197 45q108 0 191.5 -35.5zM364 232.5q-16 -16.5 -16 -52.5q0 -52 35 -52q18 0 25.5 18t7.5 43v60q-36 0 -52 -16.5z" />
    <glyph glyph-name="A" unicode="A" horiz-adv-x="635" 
d="M468 660l165 -660h-271l-35 153h-163l-34 -153h-141l179 660h300zM184 242h122l-62 272z" />
    <glyph glyph-name="B" unicode="B" horiz-adv-x="667" 
d="M570 421.5q-34 -35.5 -89 -46.5q179 -30 179 -182q0 -108 -95.5 -155.5t-233.5 -47.5q-137 0 -286 13v648q152 15 290 15q124 0 196.5 -32.5t72.5 -125.5q0 -51 -34 -86.5zM324 384q42 0 60 31.5t18 82.5q0 44 -13.5 67.5t-49.5 23.5q-15 0 -30 -6v-196q8 -3 15 -3z
M337 66q41 0 55 34t14 90q0 60 -16.5 94t-62.5 34l-18 -1v-245q11 -6 28 -6z" />
    <glyph glyph-name="C" unicode="C" horiz-adv-x="628" 
d="M307.5 539q-11.5 -65 -11.5 -152q0 -115 37.5 -174t120.5 -59q42 0 74 17t59 53q18 -15 28.5 -35.5t10.5 -43.5q0 -55 -37.5 -92.5t-95.5 -56t-120 -18.5q-119 0 -200.5 45.5t-121 124t-39.5 177.5q0 177 93.5 266t272.5 89q99 0 169 -28.5t70 -100.5q0 -62 -43 -96
t-106 -34q-18 0 -52 2q4 31 4 57q0 58 -10.5 91t-48.5 33q-42 0 -53.5 -65z" />
    <glyph glyph-name="D" unicode="D" horiz-adv-x="716" 
d="M339 666q184 0 274 -78t90 -253q0 -172 -96.5 -258.5t-275.5 -86.5q-137 0 -286 13v648q152 15 294 15zM403 147q14 81 14 187q0 115 -14 185t-60 70q-8 0 -13.5 -1t-10.5 -3.5t-10 -4.5v-506q19 -8 43 -8q37 0 51 81z" />
    <glyph glyph-name="E" unicode="E" horiz-adv-x="466" 
d="M465 660v-89h-156v-187h126v-90h-126v-205h171l-8 -89h-427v660h420z" />
    <glyph glyph-name="F" unicode="F" horiz-adv-x="454" 
d="M465 660v-89h-156v-201h126v-90h-126v-280h-264v660h420z" />
    <glyph glyph-name="G" unicode="G" horiz-adv-x="644" 
d="M296 381q0 -77 8.5 -130t35 -87.5t79.5 -34.5q20 0 33 5l-9 169l181 14v-298q-63 -23 -123.5 -32t-134.5 -9q-117 0 -196.5 46t-118.5 124.5t-39 176.5q0 179 95.5 267t279.5 88q110 0 181 -26t71 -103q0 -62 -43 -96t-107 -34q-16 0 -52 2q5 29 5 57q0 55 -15 89.5
t-56 34.5q-75 0 -75 -223z" />
    <glyph glyph-name="H" unicode="H" horiz-adv-x="723" 
d="M679 660v-660h-264v289h-106v-289h-264v660h264v-281h106v281h264z" />
    <glyph glyph-name="I" unicode="I" horiz-adv-x="353" 
d="M309 660v-660h-264v660h264z" />
    <glyph glyph-name="J" unicode="J" horiz-adv-x="353" 
d="M264.5 -132.5q-44.5 -73.5 -153.5 -73.5q-114 0 -152 59q42 7 60.5 35t22 62t3.5 98v612h264v-590q0 -129 -44.5 -202.5z" />
    <glyph glyph-name="K" unicode="K" horiz-adv-x="721" 
d="M309 0h-264v660h264v-660zM459 660h258l-139 -307l153 -353h-265l-138 334z" />
    <glyph glyph-name="L" unicode="L" horiz-adv-x="475" 
d="M45 660h264v-561h161l-12 -99h-413v660z" />
    <glyph glyph-name="M" unicode="M" horiz-adv-x="938" 
d="M894 660v-660h-264v491l-163 -491h-136l-163 490v-490h-123v660h327l96 -313l96 313h330z" />
    <glyph glyph-name="N" unicode="N" horiz-adv-x="720" 
d="M341 0l-173 507v-507h-123v660h333l174 -507v507h123v-660h-334z" />
    <glyph glyph-name="O" unicode="O" horiz-adv-x="716" 
d="M615.5 594q87.5 -86 87.5 -255q0 -109 -41 -190.5t-118.5 -126t-185.5 -44.5q-104 0 -182.5 43.5t-121 122t-42.5 181.5q0 171 88.5 263t257.5 92q170 0 257.5 -86zM408 133.5q11 79.5 11 200.5q0 123 -10.5 196.5t-50.5 73.5t-51 -74.5t-11 -195.5q0 -120 11.5 -200
t50.5 -80t50 79.5z" />
    <glyph glyph-name="P" unicode="P" horiz-adv-x="680" 
d="M637.5 352q-26.5 -47 -74 -72.5t-108.5 -25.5q-125 0 -125 89q34 0 51 13.5t22 37t5 64.5q0 61 -13 96t-56 35q-16 0 -30 -6v-583h-264v648q159 18 290 18q150 0 239.5 -44.5t89.5 -161.5q0 -61 -26.5 -108z" />
    <glyph glyph-name="Q" unicode="Q" horiz-adv-x="716" 
d="M615.5 594q87.5 -86 87.5 -255q0 -104 -51 -186t-130.5 -127.5t-162.5 -47.5q120 -31 192 -31q34 0 58.5 7.5t47.5 30.5q15 -29 22 -49t7 -46q0 -54 -28.5 -78.5t-76.5 -24.5q-41 0 -80.5 12t-101.5 36q-63 25 -107.5 37.5t-89.5 12.5q-65 0 -93 -14q-25 27 -25 60
q0 45 30.5 59.5t90.5 16.5q-89 42 -141 124.5t-52 193.5q0 171 88.5 263t257.5 92q170 0 257.5 -86zM307 529.5q-11 -74.5 -11 -195.5q0 -120 11.5 -200t50.5 -80t50 79.5t11 200.5q0 123 -10.5 196.5t-50.5 73.5t-51 -74.5z" />
    <glyph glyph-name="R" unicode="R" horiz-adv-x="669" 
d="M620.5 342.5q-28.5 -48.5 -80.5 -73.5l151 -269h-266l-85 288q-4 12 -7 25t-3 25q31 0 44.5 16.5t16 39.5t2.5 73q0 58 -9.5 90t-44.5 32q-16 0 -30 -6v-583h-264v648q159 18 290 18q98 0 166 -16.5t108 -62t40 -130.5q0 -66 -28.5 -114.5z" />
    <glyph glyph-name="S" unicode="S" horiz-adv-x="597" 
d="M488 652.5q75 -27.5 75 -89.5q0 -60 -41.5 -87.5t-107.5 -27.5q-16 0 -52 2q5 43 5 73q0 79 -61 79q-26 0 -41 -17t-15 -44q0 -37 19.5 -62t48.5 -40t79 -35q60 -23 97 -44.5t63 -59t26 -95.5q0 -120 -87.5 -173.5t-229.5 -53.5q-103 0 -179 28.5t-76 100.5q0 62 43 96
t106 34q18 0 52 -2q-5 -38 -5 -57q0 -58 15.5 -90t60.5 -32q34 0 52.5 17.5t18.5 50.5q0 37 -19.5 62t-48.5 40t-79 35q-60 23 -97 44.5t-63 59t-26 95.5q0 70 43.5 120t112.5 75t146 25q90 0 165 -27.5z" />
    <glyph glyph-name="T" unicode="T" horiz-adv-x="560" 
d="M542 660l-8 -89h-122v-571h-264v571h-129v89h523z" />
    <glyph glyph-name="U" unicode="U" horiz-adv-x="643" 
d="M544 51q-64 -73 -208 -73q-148 0 -224.5 62.5t-76.5 200.5v419h264v-408q0 -70 5.5 -108.5t19.5 -56t40 -17.5q27 0 41 17.5t20 58.5t6 117v397h177v-386q0 -150 -64 -223z" />
    <glyph glyph-name="V" unicode="V" horiz-adv-x="638" 
d="M657 660l-187 -660h-309l-154 660h271l101 -514l96 514h182z" />
    <glyph glyph-name="W" unicode="W" horiz-adv-x="1052" 
d="M1071 660l-195 -660h-309l-48 254l-41 -254h-309l-162 660h271l108 -514l104 514h187l108 -514l103 514h183z" />
    <glyph glyph-name="X" unicode="X" horiz-adv-x="536" 
d="M562 660l-154 -328l149 -332h-266l-84 211l-52 -211h-177l156 342l-142 318h266l77 -201l50 201h177z" />
    <glyph glyph-name="Y" unicode="Y" horiz-adv-x="579" 
d="M411 296v-296h-264v288l-146 372h266l73 -256l50 256h177z" />
    <glyph glyph-name="Z" unicode="Z" horiz-adv-x="510" 
d="M496 660l7 -78l-212 -483h226l-12 -99h-489l-7 78l211 483h-190l-4 99h470z" />
    <glyph glyph-name="bracketleft" unicode="[" horiz-adv-x="360" 
d="M350 762q0 -18 -11 -28t-30 -10h-63v-846h63q19 0 30 -10t11 -28q0 -16 -7 -30h-268v982h268q7 -14 7 -30z" />
    <glyph glyph-name="backslash" unicode="\" horiz-adv-x="346" 
d="M163 800l157 -872q6 -29 6 -52q0 -39 -27 -57.5t-74 -18.5q-27 0 -42 2l-156 872q-6 30 -6 51q0 40 27 59t74 19q19 0 41 -3z" />
    <glyph glyph-name="bracketright" unicode="]" horiz-adv-x="360" 
d="M17 -190q-8 16 -8 30q0 18 11 28t30 10h63v846h-63q-19 0 -30 10t-11 28q0 14 8 30h267v-982h-267z" />
    <glyph glyph-name="asciicircum" unicode="^" horiz-adv-x="559" 
d="M440.5 452.5q44.5 -82.5 111.5 -133.5q-19 -52 -97 -52q-49 0 -84.5 26t-63.5 82.5t-55 152.5q-50 -139 -92.5 -200t-86.5 -61q-50 0 -66 52q71 41 123 132t82 209h156q28 -125 72.5 -207.5z" />
    <glyph glyph-name="underscore" unicode="_" horiz-adv-x="506" 
d="M7 -116q0 39 22 60t62 21h405q3 -10 3 -29q0 -39 -22.5 -60t-62.5 -21h-406q-1 10 -1 29z" />
    <glyph glyph-name="grave" unicode="`" horiz-adv-x="323" 
d="M136 610q-7 2 -46.5 11.5t-59.5 27.5t-20 45q0 23 17.5 46.5t40.5 36.5l245 -148l-21 -54z" />
    <glyph glyph-name="a" unicode="a" horiz-adv-x="622" 
d="M309 -6.5q-35 -15.5 -81 -15.5q-95 0 -159 36t-64 115q0 99 95.5 130.5t243.5 31.5v87q0 43 -9 68t-39 25q-39 0 -52.5 -26.5t-13.5 -74.5q0 -19 2 -53q-8 -4 -27.5 -6t-32.5 -2q-54 0 -92.5 22t-38.5 67q0 77 82.5 104.5t179.5 27.5q133 0 207 -40.5t74 -147.5v-208
q0 -35 7 -65t24 -59q-18 -12 -50.5 -18.5t-58.5 -6.5q-110 0 -147 59q-15 -35 -50 -50.5zM332.5 79.5q11.5 28.5 11.5 68.5v93q-57 0 -81 -25.5t-24 -82.5q0 -35 12.5 -58.5t40.5 -23.5q29 0 40.5 28.5z" />
    <glyph glyph-name="b" unicode="b" horiz-adv-x="640" 
d="M285 601q0 -84 -8 -116q25 27 58.5 36t79.5 9q199 0 199 -268q0 -142 -80 -213t-227 -71q-60 0 -134.5 16t-127.5 42v664l240 24v-123zM315 38q38 0 48.5 58.5t10.5 160.5q0 96 -8.5 147t-42.5 51q-26 0 -32.5 -24t-6 -49t0.5 -32v-300q11 -12 30 -12z" />
    <glyph glyph-name="c" unicode="c" horiz-adv-x="536" 
d="M278 411q-9 -58 -9 -141q0 -73 23.5 -110.5t86.5 -37.5q70 0 109 71q18 -3 29.5 -21t11.5 -39q0 -77 -58.5 -116t-146.5 -39q-140 0 -219 75.5t-79 214.5q0 134 79.5 198t222.5 64q93 0 154 -29.5t61 -102.5q0 -45 -38.5 -67t-92.5 -22q-46 0 -60 8q2 40 2 64q0 40 -7 64
t-32 24q-28 0 -37 -58z" />
    <glyph glyph-name="d" unicode="d" horiz-adv-x="639" 
d="M602 69q7 -30 24 -59q-18 -12 -50.5 -18.5t-59.5 -6.5q-109 0 -147 59q-26 -36 -61.5 -51t-84.5 -15q-104 0 -150.5 77.5t-46.5 202.5q0 138 76.5 205t220.5 67h32v170l240 24v-590q0 -35 7 -65zM326 470q-36 0 -47.5 -58t-11.5 -149v-31q0 -82 8 -127.5t37 -45.5
q43 0 43 97v303q-11 11 -29 11z" />
    <glyph glyph-name="e" unicode="e" horiz-adv-x="580" 
d="M541 161q8 -17 8 -37q0 -50 -33 -82.5t-84.5 -48t-107.5 -15.5q-140 0 -219 75.5t-79 214.5q0 262 314 262q96 0 164.5 -34t68.5 -110q0 -92 -67 -124.5t-187 -32.5q-33 0 -49 4q5 -55 29.5 -83t79.5 -28q44 0 82 15.5t57 48.5q15 -8 23 -25zM279 408q-11 -60 -10 -132
q54 4 77.5 29.5t23.5 83.5q0 79 -43 79q-37 0 -48 -60z" />
    <glyph glyph-name="f" unicode="f" horiz-adv-x="381" 
d="M64 -17v482h-65v45h65l3 46q6 94 84.5 129t201.5 35q87 0 151.5 -19.5t64.5 -74.5q0 -38 -39.5 -55.5t-91.5 -17.5q-46 0 -60 8q2 16 2 52q0 25 -7.5 41.5t-26.5 16.5q-28 0 -35 -26.5t-7 -74.5v-60h78v-45h-78v-465z" />
    <glyph glyph-name="g" unicode="g" horiz-adv-x="637" 
d="M341.5 -119q13.5 25 16.5 68t3 128v38q-47 -50 -148 -50q-95 0 -142 59t-47 162q0 124 73 184t205 60q78 0 132 -21l155 25v-433q0 -113 -28 -178t-92 -94t-177 -29q-52 0 -107 13.5t-93 43t-38 72.5q0 45 38 67t92 22q14 0 33.5 -2t26.5 -6q0 -18 -1 -27l-1 -26
q0 -46 11.5 -73.5t44.5 -27.5q30 0 43.5 25zM332 470h-12q-33 0 -43.5 -35.5t-10.5 -95.5v-46q0 -67 6 -107t34 -40t35.5 29t7.5 74v217q-7 4 -17 4z" />
    <glyph glyph-name="h" unicode="h" horiz-adv-x="636" 
d="M285 601q0 -84 -8 -116q44 45 137 45q94 0 139 -46.5t45 -141.5v-208q0 -35 7 -65t24 -59q-18 -12 -49.5 -18.5t-57.5 -6.5q-78 0 -121 36t-43 110v215q0 36 -1.5 55.5t-9.5 36.5t-26 17q-22 0 -29 -20t-7 -54v-30v-351h-240v700l240 24v-123z" />
    <glyph glyph-name="i" unicode="i" horiz-adv-x="323" 
d="M248 732q32 -23 32 -63t-33.5 -62t-87.5 -22q-53 0 -86 21.5t-33 60.5q0 40 35 64t89 24q52 0 84 -23zM278 134q0 -35 7 -65t24 -59q-18 -12 -49.5 -18.5t-57.5 -6.5q-79 0 -121.5 36t-42.5 110v379h240v-376z" />
    <glyph glyph-name="j" unicode="j" horiz-adv-x="332" 
d="M252 732q32 -23 32 -63t-33.5 -62t-87.5 -22q-53 0 -86 21.5t-33 60.5q0 40 35 64t89 24q52 0 84 -23zM247 -133q-38 -67 -136 -67q-44 0 -82 12t-56 41q46 9 59 45t13 99v32v481h240v-458q0 -118 -38 -185z" />
    <glyph glyph-name="k" unicode="k" horiz-adv-x="621" 
d="M45 0v700l240 24v-724h-240zM428 510h193l-122 -194l130 -316h-254l-76 282z" />
    <glyph glyph-name="l" unicode="l" horiz-adv-x="319" 
d="M276 724v-590q0 -35 7 -65t24 -59q-18 -12 -49.5 -18.5t-58.5 -6.5q-78 0 -120.5 36t-42.5 110v569z" />
    <glyph glyph-name="m" unicode="m" horiz-adv-x="931" 
d="M37 510l192 12l10 -90q21 54 63 76t107 22q111 0 156 -71q41 71 154 71q174 0 174 -188v-208q0 -35 7 -65t24 -59q-18 -12 -49 -18.5t-58 -6.5q-78 0 -121 36t-43 110v215q0 6 0.5 38t-7.5 51.5t-24 19.5q-17 0 -24 -16.5t-8 -33.5t-1 -54v-351h-240v346v37t-9 52t-28 20
q-21 0 -28 -19t-7 -51v-34v-351h-240v510z" />
    <glyph glyph-name="n" unicode="n" horiz-adv-x="627" 
d="M37 510l192 12l10 -90q21 54 63 76t107 22q92 0 136 -47t44 -141v-208q0 -35 7 -65t24 -59q-18 -12 -49 -18.5t-58 -6.5q-78 0 -121 36t-43 110v215v37t-9 52t-28 20q-21 0 -28 -19t-7 -51v-34v-351h-240v510z" />
    <glyph glyph-name="o" unicode="o" horiz-adv-x="625" 
d="M525 463q74 -67 74 -201q0 -86 -35.5 -150t-100.5 -99t-150 -35q-83 0 -148.5 34t-102 96t-36.5 144q0 135 75 206.5t212 71.5q138 0 212 -67zM351 98q8 60 8 159v31q0 85 -8.5 133.5t-37.5 48.5t-37.5 -46.5t-8.5 -127.5v-50q0 -94 8 -151t38 -57t38 60z" />
    <glyph glyph-name="p" unicode="p" horiz-adv-x="641" 
d="M615 262q0 -142 -80 -213t-228 -71h-22v-157l-240 -14v703l193 12l10 -90q20 53 62.5 75.5t107.5 22.5q197 0 197 -268zM292 435.5q-8 -19.5 -8 -53.5l1 -57v-276q11 -11 30 -11q38 0 48.5 58.5t10.5 160.5q0 92 -9 145t-42 53q-23 0 -31 -19.5z" />
    <glyph glyph-name="q" unicode="q" horiz-adv-x="629" 
d="M355 -93q0 100 8 128q-28 -31 -63.5 -44t-81.5 -13q-104 0 -148 70.5t-44 192.5q0 136 73.5 212.5t207.5 76.5q79 0 133 -21l155 25v-714l-240 -24v111zM326 470q-39 0 -49 -60t-10 -164v-39q0 -72 8 -110t36 -38q27 0 36 22.5t9 61.5l-1 62v255q-10 10 -29 10z" />
    <glyph glyph-name="r" unicode="r" horiz-adv-x="536" 
d="M281.5 421q-4.5 -18 -4.5 -68v-353h-240v510l192 12l10 -90q18 48 57.5 73t92.5 25q71 0 112.5 -38.5t41.5 -108.5q0 -61 -34.5 -95t-96.5 -34q-13 0 -34 2.5t-29 7.5q5 23 5 66q0 49 -8.5 79t-38.5 30q-21 0 -25.5 -18z" />
    <glyph glyph-name="s" unicode="s" horiz-adv-x="503" 
d="M239.5 458q-10.5 -13 -10.5 -32q0 -37 29.5 -62t91.5 -58q47 -24 75 -42.5t47.5 -45.5t19.5 -62q0 -96 -72 -137t-188 -41q-87 0 -156.5 25.5t-69.5 85.5q0 45 38.5 67t91.5 22q14 0 33.5 -2t27.5 -6q-2 -34 -2 -53q0 -40 7 -60t34 -20q21 0 33.5 16.5t12.5 39.5
q0 38 -30.5 63t-91.5 56q-47 24 -75 42.5t-47.5 45.5t-19.5 62q0 90 71.5 129t181.5 39q78 0 149.5 -21t71.5 -71q0 -39 -41 -62t-89 -23q-47 0 -60 7l2 53q0 25 -8.5 41.5t-27.5 16.5q-18 0 -28.5 -13z" />
    <glyph glyph-name="t" unicode="t" horiz-adv-x="366" 
d="M5 465l1 32q52 17 119 54t109 73h68v-114h91v-45h-90v-341q0 -32 12.5 -51t42.5 -27q-21 -33 -59 -47t-83 -14q-72 0 -112 36t-40 105v339h-59z" />
    <glyph glyph-name="u" unicode="u" 
d="M597 134q0 -35 7 -65t24 -59q-18 -12 -51 -18.5t-59 -6.5q-110 0 -147 59q-27 -36 -62.5 -51t-84.5 -15q-76 0 -116.5 30.5t-55 86t-14.5 141.5v274h246v-269q0 -104 4.5 -143t24.5 -39q29 0 36.5 27.5t7.5 75.5v348h240v-376z" />
    <glyph glyph-name="v" unicode="v" horiz-adv-x="615" 
d="M629 510l-170 -510h-307l-137 510h252l76 -426l76 426h210z" />
    <glyph glyph-name="w" unicode="w" horiz-adv-x="875" 
d="M889 510l-154 -510h-262l-39 169l-36 -169h-262l-121 510h252l60 -426l60 426h187l60 -426l60 426h195z" />
    <glyph glyph-name="x" unicode="x" horiz-adv-x="506" 
d="M202 156l-22 -156h-193l136 276l-121 234h255l51 -131l7 131h193l-127 -258l134 -252h-255z" />
    <glyph glyph-name="y" unicode="y" horiz-adv-x="588" 
d="M596 510l-259 -703l-240 13l127 245h-87l-126 445h252l69 -361l75 361h189z" />
    <glyph glyph-name="z" unicode="z" horiz-adv-x="459" 
d="M440 510l5 -59l-172 -358l172 17l-12 -110h-431l-6 58l172 358l-147 -13l11 107h408z" />
    <glyph glyph-name="braceleft" unicode="{" horiz-adv-x="416" 
d="M426 791v-65h-34q-44 0 -66.5 -18t-22.5 -58l1 -238q0 -46 -26 -66t-88 -27q47 -9 70 -19t34.5 -32t11.5 -64v-208q0 -55 19 -88t69 -33h33l2 -66q-66 -9 -118 -9q-81 0 -129.5 21t-48.5 86v263q0 47 -31 74t-73 28l-1 81q57 0 83 20.5t26 68.5v247q0 61 43 86t132 25
q61 0 114 -9z" />
    <glyph glyph-name="bar" unicode="|" horiz-adv-x="341" 
d="M255 800h-169v-1000h169v1000z" />
    <glyph glyph-name="braceright" unicode="}" horiz-adv-x="388" 
d="M138 346q26 -20 88 -27q-47 -9 -70 -19t-34.5 -32t-11.5 -64v-208q0 -55 -19 -88t-69 -33h-33l-2 -66q66 -9 118 -9q81 0 129.5 21t48.5 86v263q0 47 31 74t73 28l1 81q-57 0 -83 20.5t-26 68.5v247q0 61 -43 86t-132 25q-62 0 -113 -9v-65h33q44 0 67 -18t23 -58
l-2 -238q0 -46 26 -66z" />
    <glyph glyph-name="asciitilde" unicode="~" 
d="M387 271q-28 5 -55 11q-45 10 -73.5 14.5t-57.5 4.5q-48 0 -77.5 -12.5t-29.5 -51.5q0 -19 11 -38.5t27 -31.5q10 19 29.5 24.5t45.5 5.5q20 0 48 -5t55 -11q45 -10 73.5 -14.5t56.5 -4.5q48 0 78 12.5t30 51.5q0 19 -11 39t-27 32q-10 -19 -30 -25t-45 -6q-20 0 -48 5z
" />
    <glyph glyph-name="uni00A0" unicode="&#xa0;" horiz-adv-x="175" 
 />
    <glyph glyph-name="exclamdown" unicode="&#xa1;" horiz-adv-x="256" 
d="M214 506q32 -23 32 -63t-33.5 -62t-87.5 -22q-53 0 -86 21.5t-33 60.5q0 40 35 64t89 24q52 0 84 -23zM169.5 327q17.5 -12 24 -34t9.5 -62l40 -366q-17 -18 -45 -28t-56 -10q-56 0 -83.5 32t-27.5 90q0 27 10 140l23 237q18 13 54 13q34 0 51.5 -12z" />
    <glyph glyph-name="cent" unicode="&#xa2;" 
d="M576 235.5q11 -17.5 11 -38.5q0 -73 -52.5 -112.5t-142.5 -42.5v-26q0 -29 -16 -47t-45 -18q-13 0 -27.5 5t-19.5 7v88q-115 22 -172 98t-57 183q0 100 56.5 165.5t170.5 86.5v40q0 28 16 46.5t45 18.5q15 0 29.5 -6t17.5 -7v-83q212 -2 212 -132q0 -45 -38.5 -67
t-92.5 -22q-13 0 -32.5 2t-27.5 6l1 35q1 11 1 29q0 41 -7.5 65t-32.5 24q-46 0 -61 -59t-15 -141q0 -72 30.5 -110t109.5 -38q70 0 109 71q19 -3 30 -20.5z" />
    <glyph glyph-name="sterling" unicode="&#xa3;" 
d="M302 219q-30 -39 -93 -59l405 18l-13 -178h-560l-13 120q32 15 46 41.5t16.5 59t2.5 100.5h-88l-2 21q0 29 16.5 44t44.5 15h29v80q0 99 82 139t210 40q90 0 165 -27.5t75 -89.5q0 -59 -39.5 -80t-109.5 -21q-16 0 -52 2q5 43 5 73q0 79 -46 79q-28 0 -36.5 -26.5
t-8.5 -74.5v-94h145q1 -7 1 -22q0 -29 -16 -43.5t-46 -14.5h-85q-5 -63 -35 -102z" />
    <glyph glyph-name="currency" unicode="&#xa4;" 
d="M528 107l-91 77q-52 -29 -127 -29q-58 0 -103 19l-75 -78l-65 66l67 63q-40 48 -40 116q0 64 36 110l-62 55l52 74l78 -78q47 23 111 23q45 0 89 -14l61 74l74 -63l-57 -57q49 -49 49 -124q0 -61 -28 -103l78 -60zM348 284q13 20 13 56t-13 56t-39 20t-38.5 -20
t-12.5 -56t13.5 -56t38.5 -20t38 20z" />
    <glyph glyph-name="brokenbar" unicode="&#xa6;" horiz-adv-x="343" 
d="M258 388v272h-168v-272h168zM253 0v272h-167v-272h167z" />
    <glyph glyph-name="section" unicode="&#xa7;" horiz-adv-x="399" 
d="M358.5 64.5q26.5 -34.5 26.5 -80.5q0 -54 -29.5 -91t-78 -55.5t-104.5 -18.5q-69 0 -113.5 22.5t-44.5 75.5q0 35 24 62t63 27q23 0 39 -11q-2 -20 -2 -38q0 -42 7.5 -63.5t35.5 -21.5q23 0 36.5 16.5t13.5 40.5q0 30 -21 48.5t-68 44.5q-44 23 -71.5 43t-47 54t-19.5 84
q0 47 32 93.5t77 72.5q-47 31 -74 65t-27 80q0 81 62 123.5t152 42.5q157 0 157 -97q0 -36 -24 -62.5t-63 -26.5q-25 0 -39 11q2 20 2 37q0 41 -8.5 63t-36.5 22q-22 0 -35 -16t-13 -40q0 -33 24 -55t73 -50q41 -23 67.5 -42.5t44.5 -49.5t18 -71q0 -42 -28.5 -88t-80.5 -84
q47 -32 73.5 -66.5zM158.5 216.5q24.5 -21.5 75.5 -52.5q17 16 24 35.5t7 34.5q0 27 -23.5 49t-70.5 51q-37 -25 -37 -69q0 -27 24.5 -48.5z" />
    <glyph glyph-name="dieresis" unicode="&#xa8;" horiz-adv-x="485" 
d="M0 585zM455 732q32 -23 32 -63t-33.5 -62t-87.5 -22q-53 0 -86 21.5t-33 60.5q0 40 35 64t89 24q52 0 84 -23zM205 732q32 -23 32 -63t-33.5 -62t-87.5 -22q-53 0 -86 21.5t-33 60.5q0 40 35 64t89 24q52 0 84 -23z" />
    <glyph glyph-name="copyright" unicode="&#xa9;" horiz-adv-x="726" 
d="M545.5 570q81.5 -45 127.5 -125.5t46 -181.5q0 -102 -45.5 -179.5t-126 -120t-184.5 -42.5t-184.5 42.5t-126 120t-45.5 179.5q0 101 46 181.5t127.5 125.5t182.5 45t182.5 -45zM230.5 501q-55.5 -35 -85 -97t-29.5 -141q0 -122 64.5 -192.5t182.5 -70.5t182.5 70.5
t64.5 192.5q0 79 -29.5 141t-85 97t-132.5 35t-132.5 -35zM532 376q0 -30 -25.5 -46t-62.5 -16q-9 0 -22.5 1.5t-16.5 3.5q-1 8 0 19.5t1 18.5q0 32 -6 52t-26 20q-24 0 -31 -41.5t-7 -104.5q0 -52 17.5 -79.5t61.5 -27.5q51 0 78 53q13 -2 21 -15t8 -27q0 -54 -41 -82.5
t-102 -28.5q-97 0 -151.5 54.5t-54.5 150.5q0 95 55 141t154 46q150 0 150 -92z" />
    <glyph glyph-name="ordfeminine" unicode="&#xaa;" horiz-adv-x="480" 
d="M342 664q44 -10 70 -40t26 -86v-143q0 -51 22 -91q-15 -9 -37.5 -14t-44.5 -5q-42 0 -67 11t-40 38q-7 -27 -33 -41.5t-58 -14.5q-69 0 -116 26.5t-47 82.5q0 71 66 93.5t177 22.5v70q0 28 -7.5 42.5t-28.5 14.5q-25 0 -34.5 -16.5t-9.5 -52.5q0 -8 1 -20.5t0 -19.5
q-8 -5 -42 -5q-41 0 -68.5 15.5t-27.5 48.5q0 55 58 74.5t131 19.5q66 0 110 -10zM206.5 445.5q-16.5 -16.5 -16.5 -53.5q0 -54 35 -54q19 0 27 18.5t8 43.5v62q-37 0 -53.5 -16.5zM424 200q0 -29 -13.5 -36.5t-48.5 -7.5h-298q-7 32 -7 38q0 29 14 36.5t49 7.5h297
q7 -31 7 -38z" />
    <glyph glyph-name="guillemotleft" unicode="&#xab;" horiz-adv-x="532" 
d="M127 511h134l-90 -194l84 -191h-129l-136 191zM372 511h132l-87 -194l84 -191h-129l-136 191z" />
    <glyph glyph-name="logicalnot" unicode="&#xac;" 
d="M549 8q-28 -13 -53 -13q-32 0 -47.5 21t-15.5 55v116h-343q-12 24 -12 49q0 29 19 43t51 14h401v-285z" />
    <glyph glyph-name="uni00AD" unicode="&#xad;" horiz-adv-x="352" 
d="M19 212q0 39 19.5 58t58.5 22l232 14q5 -12 5 -35q0 -40 -20 -59t-60 -21l-232 -14q-3 14 -3 35z" />
    <glyph glyph-name="registered" unicode="&#xae;" horiz-adv-x="726" 
d="M545.5 635q81.5 -45 127.5 -125.5t46 -181.5q0 -102 -45.5 -179.5t-126 -120t-184.5 -42.5t-184.5 42.5t-126 120t-45.5 179.5q0 101 46 181.5t127.5 125.5t182.5 45t182.5 -45zM230.5 566q-55.5 -35 -85 -97t-29.5 -141q0 -122 64.5 -192.5t182.5 -70.5t182.5 70.5
t64.5 192.5q0 79 -29.5 141t-85 97t-132.5 35t-132.5 -35zM480 506q45 -25 45 -93q0 -38 -16.5 -65.5t-45.5 -42.5l91 -153h-136l-59 166q-8 18 -8 28q27 0 34.5 16.5t7.5 50.5q0 35 -6.5 56.5t-28.5 21.5q-4 0 -22 -5v-334h-137v369q43 4 80 7t73 3q83 0 128 -25z" />
    <glyph glyph-name="macron" unicode="&#xaf;" horiz-adv-x="344" 
d="M334 678q0 -26 -16 -42t-40 -16h-258q-10 14 -10 41q0 25 16.5 40.5t43.5 15.5h255q9 -13 9 -39z" />
    <glyph glyph-name="degree" unicode="&#xb0;" horiz-adv-x="363" 
d="M96 390q-38 20 -60 56t-22 83q0 72 46.5 113.5t120.5 41.5q75 0 121.5 -41.5t46.5 -113.5q0 -71 -47.5 -115t-120.5 -44q-47 0 -85 20zM231 463.5q16 25.5 16 65.5q0 38 -16.5 62.5t-49.5 24.5t-49 -24.5t-16 -62.5q0 -40 15.5 -65.5t49.5 -25.5t50 25.5z" />
    <glyph glyph-name="plusminus" unicode="&#xb1;" 
d="M134 270q-12 26 -12 49q0 29 19 43.5t51 14.5h70v40q0 34 16 55.5t48 21.5q27 0 55 -10v-107h125q12 -26 12 -49q0 -29 -19 -43.5t-51 -14.5h-67v-46q0 -34 -16.5 -55.5t-49.5 -21.5q-25 0 -53 10v113h-128zM525 78.5q4 -14.5 4 -26.5q0 -29 -20 -44.5t-51 -15.5h-332
q-13 24 -13 51q0 29 19.5 44t51.5 15h332q5 -9 9 -23.5z" />
    <glyph glyph-name="uni00B2" unicode="&#xb2;" horiz-adv-x="357" 
d="M281 646q49 -29 49 -87q0 -42 -27.5 -76t-64.5 -59l-32 -22q-19 -14 -25 -18l141 9l2 -108h-299l-4 50q32 19 64 42q22 16 48 56.5t26 84.5q0 26 -17.5 40.5t-44.5 14.5q-42 0 -65 -24q-23 18 -23 42q0 42 48.5 63t104.5 21q70 0 119 -29z" />
    <glyph glyph-name="uni00B3" unicode="&#xb3;" horiz-adv-x="341" 
d="M252 652.5q39 -22.5 39 -68.5q0 -36 -21 -58t-66 -32q106 -9 106 -99q0 -59 -41.5 -92.5t-110.5 -33.5q-59 0 -103 22t-44 67q0 17 15 34q39 -22 73 -22q43 0 43 37q0 19 -10.5 30t-29.5 11q-21 0 -27 -1v57q35 0 57.5 7.5t22.5 30.5q0 22 -13 34t-35 12
q-23 0 -39.5 -10.5t-32.5 -31.5q-22 17 -22 40q0 45 43 67t100 22t96 -22.5z" />
    <glyph glyph-name="acute" unicode="&#xb4;" horiz-adv-x="323" 
d="M255 777q23 -13 40.5 -36.5t17.5 -46.5q0 -27 -17.5 -42.5t-39 -22.5t-69.5 -19l-157 -35l-20 54z" />
    <glyph glyph-name="uni00B5" unicode="&#xb5;" horiz-adv-x="650" 
d="M45 0zM611 69q7 -30 24 -59q-18 -12 -50.5 -18.5t-59.5 -6.5q-109 0 -147 59q-38 -48 -93 -60v-164l-240 -14v704l247 24v-293q0 -104 4.5 -143t24.5 -39q28 0 35.5 27.5t7.5 75.5v348h240v-376q0 -35 7 -65z" />
    <glyph glyph-name="paragraph" unicode="&#xb6;" horiz-adv-x="674" 
d="M228 -126q52 0 71.5 34.5t19.5 98.5v258q-38 -11 -76 -11q-94 0 -144.5 56t-50.5 153q0 112 68.5 159.5t195.5 47.5q62 0 111 -10v-625q0 -110 -40 -172.5t-135 -62.5q-50 0 -83.5 20t-33.5 52q0 10 4 18t11 12q32 -28 82 -28zM696.5 601.5q-16.5 -18.5 -55.5 -18.5
q-25 0 -42 5v-588l-98 -15v675h212q0 -40 -16.5 -58.5z" />
    <glyph glyph-name="periodcentered" unicode="&#xb7;" horiz-adv-x="258" 
d="M217 302q32 -23 32 -63t-33.5 -62t-87.5 -22q-53 0 -86 21.5t-33 60.5q0 40 35 64t89 24q52 0 84 -23z" />
    <glyph glyph-name="cedilla" unicode="&#xb8;" horiz-adv-x="286" 
d="M241.5 -78q34.5 -24 34.5 -76q0 -51 -46.5 -79t-106.5 -28q-42 0 -77.5 13.5t-35.5 50.5q0 33 13 51q11 -17 28 -25.5t46 -8.5q14 0 23.5 9t9.5 26q0 20 -16.5 28t-39.5 8q-13 0 -39 -2l44 122h95l-25 -64q58 -1 92.5 -25z" />
    <glyph glyph-name="uni00B9" unicode="&#xb9;" horiz-adv-x="353" 
d="M349 351v-66h-304v66h66v177q-22 -17 -50 -17t-36 20.5t-8 58.5q61 21 109 41.5t95 48.5l63 -18v-311h65z" />
    <glyph glyph-name="ordmasculine" unicode="&#xba;" horiz-adv-x="433" 
d="M373 625q55 -49 55 -142q0 -60 -26.5 -106t-73.5 -71.5t-107 -25.5q-58 0 -104.5 25t-73.5 69.5t-27 100.5q0 93 55 146t150 53q97 0 152 -49zM244.5 374q4.5 47 4.5 116q0 60 -5 98t-23 38q-19 0 -23.5 -39.5t-4.5 -106.5q0 -63 5 -108t23 -45q19 0 23.5 47zM34 194
q0 29 13.5 36.5t48.5 7.5h298q7 -31 7 -38q0 -29 -13.5 -36.5t-48.5 -7.5h-298q-7 32 -7 38z" />
    <glyph glyph-name="guillemotright" unicode="&#xbb;" horiz-adv-x="532" 
d="M160 511l136 -194l-138 -191h-129l86 191l-88 194h133zM404 511l137 -194l-137 -191h-129l86 191l-91 194h134z" />
    <glyph glyph-name="onequarter" unicode="&#xbc;" horiz-adv-x="857" 
d="M552 710q12 -10 12 -28q0 -8 -1 -14t-2 -10l-190 -742q-16 -7 -44 -7q-18 0 -30 10t-12 28q0 12 3 24l190 742q16 7 44 7q18 0 30 -10zM294 662v-311h55v-66h-293v66h65v177q-22 -17 -50 -17q-27 0 -35.5 20.5t-8.5 58.5q61 21 109 41.5t95 48.5zM783 138h46l-6 -93h-40
v-45h-179v45h-148q-11 20 -11 37q0 25 18 53l154 233h166v-230zM610 260l-71 -122h71v122z" />
    <glyph glyph-name="onehalf" unicode="&#xbd;" horiz-adv-x="857" 
d="M542 710q12 -10 12 -28q0 -8 -1 -14t-2 -10l-191 -742q-16 -7 -43 -7q-18 0 -30 10t-12 28q0 12 3 24l190 742q16 7 43 7q19 0 31 -10zM284 662v-311h45v-66h-284v66h66v177q-22 -17 -50 -17t-36 20.5t-8 58.5q61 21 109 41.5t95 48.5zM762.5 361q48.5 -29 48.5 -87
q0 -45 -34.5 -84.5t-71.5 -62.5q-16 -10 -42 -28l141 9l2 -108h-300l-4 50q19 10 33.5 20t30.5 23q23 18 49 57t26 83q0 26 -17.5 40.5t-44.5 14.5q-42 0 -66 -24q-23 19 -23 42q0 42 49 63t105 21q70 0 118.5 -29z" />
    <glyph glyph-name="threequarters" unicode="&#xbe;" horiz-adv-x="857" 
d="M552 710q12 -10 12 -28q0 -8 -1 -14t-2 -10l-190 -742q-16 -7 -44 -7q-18 0 -30 10t-12 28q0 12 3 24l190 742q16 7 44 7q18 0 30 -10zM277.5 652.5q39.5 -22.5 39.5 -68.5q0 -36 -21 -58t-66 -32q106 -9 106 -99q0 -59 -41.5 -92.5t-111.5 -33.5q-58 0 -102 22t-44 67
q0 19 15 34q17 -10 36.5 -16t36.5 -6q43 0 43 37q0 19 -10.5 30t-30.5 11t-27 -1v57q36 0 58.5 7.5t22.5 30.5q0 22 -13.5 34t-35.5 12q-23 0 -38.5 -10t-32.5 -32q-22 17 -22 40q0 45 42.5 67t99.5 22t96.5 -22.5zM773 138h46l-6 -93h-40v-45h-169v45h-148q-11 20 -11 37
q0 25 18 53l154 233h156v-230zM610 260l-71 -122h71v122z" />
    <glyph glyph-name="questiondown" unicode="&#xbf;" horiz-adv-x="556" 
d="M401 506q32 -23 32 -63t-33.5 -62t-87.5 -22q-53 0 -86 21.5t-33 60.5q0 40 35 64t89 24q52 0 84 -23zM380 286q22 -25 22 -63q0 -32 -16.5 -58t-50.5 -63q-36 -40 -53.5 -68t-17.5 -65q0 -38 10.5 -59t38.5 -21q33 0 42 28.5t9 77.5q0 43 -4 79q32 5 57 5
q63 0 104.5 -29.5t41.5 -89.5q0 -70 -71.5 -100.5t-181.5 -30.5q-127 0 -203.5 36.5t-76.5 134.5q0 39 19.5 70.5t47 54.5t71.5 52q55 37 81.5 63.5t26.5 61.5q6 4 20 6.5t26 2.5q36 0 58 -25z" />
    <glyph glyph-name="Agrave" unicode="&#xc0;" horiz-adv-x="635" 
d="M0 0zM468 660l165 -660h-271l-35 153h-163l-34 -153h-141l179 660h300zM184 242h122l-62 272zM268 751q-46 3 -70.5 7t-45 19t-20.5 45q0 22 12.5 45.5t30.5 39.5l265 -111l-13 -56z" />
    <glyph glyph-name="Aacute" unicode="&#xc1;" horiz-adv-x="635" 
d="M0 0zM468 660l165 -660h-271l-35 153h-163l-34 -153h-141l179 660h300zM184 242h122l-62 272zM462 905q19 -15 31.5 -39t12.5 -46q0 -30 -20.5 -45t-45 -19t-70.5 -7l-159 -11l-13 56z" />
    <glyph glyph-name="Acircumflex" unicode="&#xc2;" horiz-adv-x="635" 
d="M0 0zM468 660l165 -660h-271l-35 153h-163l-34 -153h-141l179 660h300zM184 242h122l-62 272zM176 693l-45 52l165 112h43l168 -112l-44 -52l-144 32z" />
    <glyph glyph-name="Atilde" unicode="&#xc3;" horiz-adv-x="635" 
d="M0 0zM468 660l165 -660h-271l-35 153h-163l-34 -153h-141l179 660h300zM184 242h122l-62 272zM544 809q0 -43 -31.5 -57.5t-88.5 -14.5q-38 0 -115 9q-13 1 -54 5t-67 4q-23 0 -40 -4.5t-30 -18.5q-21 36 -21 65q0 43 31.5 57.5t88.5 14.5q38 0 114 -9q13 -1 54 -5t68 -4
q23 0 40 4.5t30 18.5q21 -36 21 -65z" />
    <glyph glyph-name="Adieresis" unicode="&#xc4;" horiz-adv-x="635" 
d="M0 0zM468 660l165 -660h-271l-35 153h-163l-34 -153h-141l179 660h300zM184 242h122l-62 272zM538 854q32 -23 32 -63t-33.5 -62t-87.5 -22q-53 0 -86 21.5t-33 60.5q0 40 35 64t89 24q52 0 84 -23zM288 854q32 -23 32 -63t-33.5 -62t-87.5 -22q-53 0 -86 21.5t-33 60.5
q0 40 35 64t89 24q52 0 84 -23z" />
    <glyph glyph-name="Aring" unicode="&#xc5;" horiz-adv-x="635" 
d="M0 0zM468 660l165 -660h-271l-35 153h-163l-34 -153h-141l179 660h300zM184 242h122l-62 272zM230 756.5q-34 28.5 -34 75.5q0 48 33.5 74.5t89.5 26.5t89.5 -26.5t33.5 -74.5q0 -47 -34 -75.5t-89 -28.5t-89 28.5zM353.5 788.5q11.5 16.5 11.5 43.5q0 26 -11.5 42
t-34.5 16q-24 0 -35.5 -16t-11.5 -42q0 -27 11.5 -43.5t35.5 -16.5q23 0 34.5 16.5z" />
    <glyph glyph-name="AE" unicode="&#xc6;" horiz-adv-x="766" 
d="M766 660v-89h-133v-187h103v-90h-103v-205h148l-8 -89h-404v153h-149l-60 -153h-157l284 660h479zM369 544l-113 -302h113v302z" />
    <glyph glyph-name="Ccedilla" unicode="&#xc7;" horiz-adv-x="628" 
d="M591.5 56q-34.5 -37 -88 -56t-113.5 -22l-12 -31q58 -1 92.5 -25t34.5 -76q0 -51 -46.5 -79t-106.5 -28q-42 0 -77.5 13.5t-35.5 50.5q0 33 13 51q11 -17 28 -25.5t46 -8.5q14 0 23.5 9t9.5 26q0 20 -16.5 28t-39.5 8q-13 0 -39 -2l34 94q-141 21 -213.5 114t-72.5 228
q0 177 93.5 266t272.5 89q99 0 169 -28.5t70 -100.5q0 -62 -43 -96t-106 -34q-18 0 -52 2q4 31 4 57q0 58 -10.5 91t-48.5 33q-42 0 -53.5 -65t-11.5 -152q0 -115 37.5 -174t120.5 -59q42 0 74 17t59 53q18 -15 28.5 -35.5t10.5 -43.5q0 -52 -34.5 -89z" />
    <glyph glyph-name="Egrave" unicode="&#xc8;" horiz-adv-x="466" 
d="M45 0zM465 660v-89h-156v-187h126v-90h-126v-205h171l-8 -89h-427v660h420zM204 720q-46 3 -70.5 7t-45 19t-20.5 45q0 22 12.5 45.5t30.5 39.5l265 -111l-13 -56z" />
    <glyph glyph-name="Eacute" unicode="&#xc9;" horiz-adv-x="466" 
d="M45 0zM465 660v-89h-156v-187h126v-90h-126v-205h171l-8 -89h-427v660h420zM398 874q19 -15 31.5 -39t12.5 -46q0 -30 -20.5 -45t-45 -19t-70.5 -7l-159 -11l-13 56z" />
    <glyph glyph-name="Ecircumflex" unicode="&#xca;" horiz-adv-x="466" 
d="M45 0zM465 660v-89h-156v-187h126v-90h-126v-205h171l-8 -89h-427v660h420zM115 693l-45 52l165 112h43l168 -112l-44 -52l-144 32z" />
    <glyph glyph-name="Edieresis" unicode="&#xcb;" horiz-adv-x="466" 
d="M19 0zM465 660v-89h-156v-187h126v-90h-126v-205h171l-8 -89h-427v660h420zM477 854q32 -23 32 -63t-33.5 -62t-87.5 -22q-53 0 -86 21.5t-33 60.5q0 40 35 64t89 24q52 0 84 -23zM227 854q32 -23 32 -63t-33.5 -62t-87.5 -22q-53 0 -86 21.5t-33 60.5q0 40 35 64t89 24
q52 0 84 -23z" />
    <glyph glyph-name="Igrave" unicode="&#xcc;" horiz-adv-x="353" 
d="M0 0zM309 660v-660h-264v660h264zM126 720q-46 3 -70.5 7t-45 19t-20.5 45q0 22 12.5 45.5t30.5 39.5l265 -111l-13 -56z" />
    <glyph glyph-name="Iacute" unicode="&#xcd;" horiz-adv-x="353" 
d="M45 0zM309 660v-660h-264v660h264zM320 874q19 -15 31.5 -39t12.5 -46q0 -30 -20.5 -45t-45 -19t-70.5 -7l-159 -11l-13 56z" />
    <glyph glyph-name="Icircumflex" unicode="&#xce;" horiz-adv-x="353" 
d="M0 0zM309 660v-660h-264v660h264zM37 693l-45 52l165 112h43l168 -112l-44 -52l-144 32z" />
    <glyph glyph-name="Idieresis" unicode="&#xcf;" horiz-adv-x="353" 
d="M0 0zM309 660v-660h-264v660h264zM399 854q32 -23 32 -63t-33.5 -62t-87.5 -22q-53 0 -86 21.5t-33 60.5q0 40 35 64t89 24q52 0 84 -23zM149 854q32 -23 32 -63t-33.5 -62t-87.5 -22q-53 0 -86 21.5t-33 60.5q0 40 35 64t89 24q52 0 84 -23z" />
    <glyph glyph-name="Eth" unicode="&#xd0;" horiz-adv-x="710" 
d="M608 588q90 -78 90 -253q0 -172 -96.5 -258.5t-275.5 -86.5q-137 0 -286 13v283h-41q-2 9 -2 26q0 54 43 68v271q152 15 294 15q184 0 274 -78zM398 147q14 81 14 187q0 115 -14 185t-60 70q-8 0 -13.5 -1t-10.5 -3.5t-10 -4.5v-195h68q2 -9 2 -27q0 -33 -18.5 -51.5
t-51.5 -20.5v-212q19 -8 43 -8q37 0 51 81z" />
    <glyph glyph-name="Ntilde" unicode="&#xd1;" horiz-adv-x="720" 
d="M45 0zM341 0l-173 507v-507h-123v660h333l174 -507v507h123v-660h-334zM586 778q0 -43 -31.5 -57.5t-88.5 -14.5q-38 0 -115 9q-13 1 -54 5t-67 4q-23 0 -40 -4.5t-30 -18.5q-21 36 -21 65q0 43 31.5 57.5t88.5 14.5q38 0 114 -9q13 -1 54 -5t68 -4q23 0 40 4.5t30 18.5
q21 -36 21 -65z" />
    <glyph glyph-name="Ograve" unicode="&#xd2;" horiz-adv-x="716" 
d="M12 0zM615.5 594q87.5 -86 87.5 -255q0 -109 -41 -190.5t-118.5 -126t-185.5 -44.5q-104 0 -182.5 43.5t-121 122t-42.5 181.5q0 171 88.5 263t257.5 92q170 0 257.5 -86zM408 133.5q11 79.5 11 200.5q0 123 -10.5 196.5t-50.5 73.5t-51 -74.5t-11 -195.5
q0 -120 11.5 -200t50.5 -80t50 79.5zM307 720q-46 3 -70.5 7t-45 19t-20.5 45q0 22 12.5 45.5t30.5 39.5l265 -111l-13 -56z" />
    <glyph glyph-name="Oacute" unicode="&#xd3;" horiz-adv-x="716" 
d="M12 0zM615.5 594q87.5 -86 87.5 -255q0 -109 -41 -190.5t-118.5 -126t-185.5 -44.5q-104 0 -182.5 43.5t-121 122t-42.5 181.5q0 171 88.5 263t257.5 92q170 0 257.5 -86zM408 133.5q11 79.5 11 200.5q0 123 -10.5 196.5t-50.5 73.5t-51 -74.5t-11 -195.5
q0 -120 11.5 -200t50.5 -80t50 79.5zM501 874q19 -15 31.5 -39t12.5 -46q0 -30 -20.5 -45t-45 -19t-70.5 -7l-159 -11l-13 56z" />
    <glyph glyph-name="Ocircumflex" unicode="&#xd4;" horiz-adv-x="716" 
d="M12 0zM615.5 594q87.5 -86 87.5 -255q0 -109 -41 -190.5t-118.5 -126t-185.5 -44.5q-104 0 -182.5 43.5t-121 122t-42.5 181.5q0 171 88.5 263t257.5 92q170 0 257.5 -86zM408 133.5q11 79.5 11 200.5q0 123 -10.5 196.5t-50.5 73.5t-51 -74.5t-11 -195.5
q0 -120 11.5 -200t50.5 -80t50 79.5zM218 693l-45 52l165 112h43l168 -112l-44 -52l-144 32z" />
    <glyph glyph-name="Otilde" unicode="&#xd5;" horiz-adv-x="716" 
d="M12 0zM615.5 594q87.5 -86 87.5 -255q0 -109 -41 -190.5t-118.5 -126t-185.5 -44.5q-104 0 -182.5 43.5t-121 122t-42.5 181.5q0 171 88.5 263t257.5 92q170 0 257.5 -86zM408 133.5q11 79.5 11 200.5q0 123 -10.5 196.5t-50.5 73.5t-51 -74.5t-11 -195.5
q0 -120 11.5 -200t50.5 -80t50 79.5zM583 778q0 -43 -31.5 -57.5t-88.5 -14.5q-38 0 -115 9q-13 1 -54 5t-67 4q-23 0 -40 -4.5t-30 -18.5q-21 36 -21 65q0 43 31.5 57.5t88.5 14.5q38 0 114 -9q13 -1 54 -5t68 -4q23 0 40 4.5t30 18.5q21 -36 21 -65z" />
    <glyph glyph-name="Odieresis" unicode="&#xd6;" horiz-adv-x="716" 
d="M12 0zM615.5 594q87.5 -86 87.5 -255q0 -109 -41 -190.5t-118.5 -126t-185.5 -44.5q-104 0 -182.5 43.5t-121 122t-42.5 181.5q0 171 88.5 263t257.5 92q170 0 257.5 -86zM408 133.5q11 79.5 11 200.5q0 123 -10.5 196.5t-50.5 73.5t-51 -74.5t-11 -195.5
q0 -120 11.5 -200t50.5 -80t50 79.5zM580 854q32 -23 32 -63t-33.5 -62t-87.5 -22q-53 0 -86 21.5t-33 60.5q0 40 35 64t89 24q52 0 84 -23zM330 854q32 -23 32 -63t-33.5 -62t-87.5 -22q-53 0 -86 21.5t-33 60.5q0 40 35 64t89 24q52 0 84 -23z" />
    <glyph glyph-name="multiply" unicode="&#xd7;" 
d="M481 131q3 -6 11 -18q17 -25 17 -41q0 -34 -20.5 -54.5t-54.5 -20.5l-117 157l-86 -105q-31 -48 -78 -48q-44 0 -63 46l159 194l-86 103q-5 7 -13 17.5t-12.5 20t-4.5 20.5q0 34 21.5 54.5t55.5 20.5l111 -149l82 101q35 49 77 49q45 0 63 -46l-155 -191z" />
    <glyph glyph-name="Oslash" unicode="&#xd8;" horiz-adv-x="716" 
d="M703 339q0 -109 -41 -190.5t-118.5 -126t-185.5 -44.5q-99 0 -176 40l-49 -77q-34 -1 -55 10t-21 35q0 18 17 43l30 47q-45 46 -68.5 109.5t-23.5 139.5q0 171 88.5 263t257.5 92q67 0 119 -13l36 57q34 1 55 -10t21 -35q0 -17 -17 -43l-3 -6q134 -81 134 -291z
M309.5 542q-12.5 -62 -13.5 -161l107 169q-15 54 -45 54q-36 0 -48.5 -62zM408 133.5q11 79.5 11 200.5v59l-120 -188q11 -151 59 -151q39 0 50 79.5z" />
    <glyph glyph-name="Ugrave" unicode="&#xd9;" horiz-adv-x="643" 
d="M35 0zM544 51q-64 -73 -208 -73q-148 0 -224.5 62.5t-76.5 200.5v419h264v-408q0 -70 5.5 -108.5t19.5 -56t40 -17.5q27 0 41 17.5t20 58.5t6 117v397h177v-386q0 -150 -64 -223zM273 720q-46 3 -70.5 7t-45 19t-20.5 45q0 22 12.5 45.5t30.5 39.5l265 -111l-13 -56z" />
    <glyph glyph-name="Uacute" unicode="&#xda;" horiz-adv-x="643" 
d="M35 0zM544 51q-64 -73 -208 -73q-148 0 -224.5 62.5t-76.5 200.5v419h264v-408q0 -70 5.5 -108.5t19.5 -56t40 -17.5q27 0 41 17.5t20 58.5t6 117v397h177v-386q0 -150 -64 -223zM467 874q19 -15 31.5 -39t12.5 -46q0 -30 -20.5 -45t-45 -19t-70.5 -7l-159 -11l-13 56z
" />
    <glyph glyph-name="Ucircumflex" unicode="&#xdb;" horiz-adv-x="643" 
d="M35 0zM544 51q-64 -73 -208 -73q-148 0 -224.5 62.5t-76.5 200.5v419h264v-408q0 -70 5.5 -108.5t19.5 -56t40 -17.5q27 0 41 17.5t20 58.5t6 117v397h177v-386q0 -150 -64 -223zM185 693l-45 52l165 112h43l168 -112l-44 -52l-144 32z" />
    <glyph glyph-name="Udieresis" unicode="&#xdc;" horiz-adv-x="643" 
d="M35 0zM544 51q-64 -73 -208 -73q-148 0 -224.5 62.5t-76.5 200.5v419h264v-408q0 -70 5.5 -108.5t19.5 -56t40 -17.5q27 0 41 17.5t20 58.5t6 117v397h177v-386q0 -150 -64 -223zM547 854q32 -23 32 -63t-33.5 -62t-87.5 -22q-53 0 -86 21.5t-33 60.5q0 40 35 64t89 24
q52 0 84 -23zM297 854q32 -23 32 -63t-33.5 -62t-87.5 -22q-53 0 -86 21.5t-33 60.5q0 40 35 64t89 24q52 0 84 -23z" />
    <glyph glyph-name="Yacute" unicode="&#xdd;" horiz-adv-x="579" 
d="M1 0zM411 296v-296h-264v288l-146 372h266l73 -256l50 256h177zM423 874q19 -15 31.5 -39t12.5 -46q0 -30 -20.5 -45t-45 -19t-70.5 -7l-159 -11l-13 56z" />
    <glyph glyph-name="Thorn" unicode="&#xde;" horiz-adv-x="680" 
d="M309 536h74q93 0 153.5 -16.5t94 -61.5t33.5 -127q0 -61 -26.5 -108t-74 -72.5t-108.5 -25.5q-33 0 -62 13t-46 33.5t-17 42.5q38 0 58 30.5t20 84.5q0 61 -13 96t-56 35q-16 0 -30 -6v-454h-264v660h264v-124z" />
    <glyph glyph-name="germandbls" unicode="&#xdf;" horiz-adv-x="845" 
d="M145.5 675q100.5 45 249.5 45q55 0 124.5 -10.5t121.5 -35.5t52 -65q0 -29 -16 -51.5t-47 -50.5q-27 -24 -40.5 -42t-13.5 -39q0 -37 29.5 -62t91.5 -58q47 -24 75 -42.5t47.5 -45.5t19.5 -62q0 -96 -71.5 -137t-188.5 -41q-87 0 -156.5 25.5t-69.5 85.5q0 45 38.5 67
t92.5 22q13 0 32.5 -2t27.5 -6l-1 -27q-1 -9 -1 -26q0 -40 7.5 -60t34.5 -20q20 0 32.5 16.5t12.5 39.5q0 37 -30 62.5t-91 56.5q-47 24 -75 42.5t-47.5 45.5t-19.5 62q0 29 18 56.5t53 65.5q30 33 45 55t15 43q0 36 -33 55t-76 19q-55 0 -79 -21t-24 -72v-544
q0 -118 -38 -185t-136 -67q-44 0 -82 12t-56 41q46 9 59 45t13 99v32v522q0 112 100.5 157z" />
    <glyph glyph-name="agrave" unicode="&#xe0;" horiz-adv-x="622" 
d="M5 0zM309 -6.5q-35 -15.5 -81 -15.5q-95 0 -159 36t-64 115q0 99 95.5 130.5t243.5 31.5v87q0 43 -9 68t-39 25q-39 0 -52.5 -26.5t-13.5 -74.5q0 -19 2 -53q-8 -4 -27.5 -6t-32.5 -2q-54 0 -92.5 22t-38.5 67q0 77 82.5 104.5t179.5 27.5q133 0 207 -40.5t74 -147.5
v-208q0 -35 7 -65t24 -59q-18 -12 -50.5 -18.5t-58.5 -6.5q-110 0 -147 59q-15 -35 -50 -50.5zM332.5 79.5q11.5 28.5 11.5 68.5v93q-57 0 -81 -25.5t-24 -82.5q0 -35 12.5 -58.5t40.5 -23.5q29 0 40.5 28.5zM252 599q-7 2 -46.5 11.5t-59.5 27.5t-20 45q0 23 17.5 46.5
t40.5 36.5l245 -148l-21 -54z" />
    <glyph glyph-name="aacute" unicode="&#xe1;" horiz-adv-x="622" 
d="M5 0zM309 -6.5q-35 -15.5 -81 -15.5q-95 0 -159 36t-64 115q0 99 95.5 130.5t243.5 31.5v87q0 43 -9 68t-39 25q-39 0 -52.5 -26.5t-13.5 -74.5q0 -19 2 -53q-8 -4 -27.5 -6t-32.5 -2q-54 0 -92.5 22t-38.5 67q0 77 82.5 104.5t179.5 27.5q133 0 207 -40.5t74 -147.5
v-208q0 -35 7 -65t24 -59q-18 -12 -50.5 -18.5t-58.5 -6.5q-110 0 -147 59q-15 -35 -50 -50.5zM332.5 79.5q11.5 28.5 11.5 68.5v93q-57 0 -81 -25.5t-24 -82.5q0 -35 12.5 -58.5t40.5 -23.5q29 0 40.5 28.5zM437 766q23 -13 40.5 -36.5t17.5 -46.5q0 -27 -17.5 -42.5
t-39 -22.5t-69.5 -19l-157 -35l-20 54z" />
    <glyph glyph-name="acircumflex" unicode="&#xe2;" horiz-adv-x="622" 
d="M5 0zM309 -6.5q-35 -15.5 -81 -15.5q-95 0 -159 36t-64 115q0 99 95.5 130.5t243.5 31.5v87q0 43 -9 68t-39 25q-39 0 -52.5 -26.5t-13.5 -74.5q0 -19 2 -53q-8 -4 -27.5 -6t-32.5 -2q-54 0 -92.5 22t-38.5 67q0 77 82.5 104.5t179.5 27.5q133 0 207 -40.5t74 -147.5
v-208q0 -35 7 -65t24 -59q-18 -12 -50.5 -18.5t-58.5 -6.5q-110 0 -147 59q-15 -35 -50 -50.5zM332.5 79.5q11.5 28.5 11.5 68.5v93q-57 0 -81 -25.5t-24 -82.5q0 -35 12.5 -58.5t40.5 -23.5q29 0 40.5 28.5zM172 581l-45 52l165 112h43l168 -112l-44 -52l-144 32z" />
    <glyph glyph-name="atilde" unicode="&#xe3;" horiz-adv-x="622" 
d="M5 0zM309 -6.5q-35 -15.5 -81 -15.5q-95 0 -159 36t-64 115q0 99 95.5 130.5t243.5 31.5v87q0 43 -9 68t-39 25q-39 0 -52.5 -26.5t-13.5 -74.5q0 -19 2 -53q-8 -4 -27.5 -6t-32.5 -2q-54 0 -92.5 22t-38.5 67q0 77 82.5 104.5t179.5 27.5q133 0 207 -40.5t74 -147.5
v-208q0 -35 7 -65t24 -59q-18 -12 -50.5 -18.5t-58.5 -6.5q-110 0 -147 59q-15 -35 -50 -50.5zM332.5 79.5q11.5 28.5 11.5 68.5v93q-57 0 -81 -25.5t-24 -82.5q0 -35 12.5 -58.5t40.5 -23.5q29 0 40.5 28.5zM532 696.5q6 -18.5 6 -32.5q0 -43 -31.5 -57.5t-88.5 -14.5
q-38 0 -115 9q-13 1 -54 5t-67 4q-24 0 -40.5 -4.5t-29.5 -18.5q-21 36 -21 65q0 44 31 58t88 14q29 0 115 -8q79 -9 122 -9q23 0 40 4.5t30 17.5q9 -14 15 -32.5z" />
    <glyph glyph-name="adieresis" unicode="&#xe4;" horiz-adv-x="622" 
d="M5 0zM309 -6.5q-35 -15.5 -81 -15.5q-95 0 -159 36t-64 115q0 99 95.5 130.5t243.5 31.5v87q0 43 -9 68t-39 25q-39 0 -52.5 -26.5t-13.5 -74.5q0 -19 2 -53q-8 -4 -27.5 -6t-32.5 -2q-54 0 -92.5 22t-38.5 67q0 77 82.5 104.5t179.5 27.5q133 0 207 -40.5t74 -147.5
v-208q0 -35 7 -65t24 -59q-18 -12 -50.5 -18.5t-58.5 -6.5q-110 0 -147 59q-15 -35 -50 -50.5zM332.5 79.5q11.5 28.5 11.5 68.5v93q-57 0 -81 -25.5t-24 -82.5q0 -35 12.5 -58.5t40.5 -23.5q29 0 40.5 28.5zM532 732q32 -23 32 -63t-33.5 -62t-87.5 -22q-53 0 -86 21.5
t-33 60.5q0 40 35 64t89 24q52 0 84 -23zM282 732q32 -23 32 -63t-33.5 -62t-87.5 -22q-53 0 -86 21.5t-33 60.5q0 40 35 64t89 24q52 0 84 -23z" />
    <glyph glyph-name="aring" unicode="&#xe5;" horiz-adv-x="622" 
d="M5 0zM309 -6.5q-35 -15.5 -81 -15.5q-95 0 -159 36t-64 115q0 99 95.5 130.5t243.5 31.5v87q0 43 -9 68t-39 25q-39 0 -52.5 -26.5t-13.5 -74.5q0 -19 2 -53q-8 -4 -27.5 -6t-32.5 -2q-54 0 -92.5 22t-38.5 67q0 77 82.5 104.5t179.5 27.5q133 0 207 -40.5t74 -147.5
v-208q0 -35 7 -65t24 -59q-18 -12 -50.5 -18.5t-58.5 -6.5q-110 0 -147 59q-15 -35 -50 -50.5zM332.5 79.5q11.5 28.5 11.5 68.5v93q-57 0 -81 -25.5t-24 -82.5q0 -35 12.5 -58.5t40.5 -23.5q29 0 40.5 28.5zM228 583.5q-33 26.5 -33 70.5q0 45 32.5 69.5t86.5 24.5
t86.5 -24.5t32.5 -69.5q0 -44 -33 -70.5t-86 -26.5t-86 26.5zM345.5 615q10.5 15 10.5 39q0 22 -10.5 36t-31.5 14t-32 -14t-11 -36q0 -25 10.5 -39.5t32.5 -14.5q21 0 31.5 15z" />
    <glyph glyph-name="ae" unicode="&#xe6;" horiz-adv-x="896" 
d="M856.5 161q7.5 -17 7.5 -37q0 -50 -32.5 -82.5t-84 -48t-107.5 -15.5q-139 0 -216 71q-41 -38 -90 -54.5t-117 -16.5q-89 0 -150.5 38t-61.5 113q0 69 50 103.5t122 44.5t167 10v91q0 43 -9 68t-39 25q-39 0 -52.5 -26.5t-13.5 -74.5q0 -19 2 -53q-8 -4 -27.5 -6
t-32.5 -2q-54 0 -92.5 22t-38.5 67q0 77 82.5 104.5t179.5 27.5q120 0 183 -24q73 24 170 24q96 0 164.5 -34t68.5 -110q0 -64 -33.5 -97.5t-88 -44.5t-132.5 -11q-34 0 -49 4q5 -55 30 -85t78 -30q44 0 82.5 15.5t57.5 48.5q15 -8 22.5 -25zM584 280q55 3 78.5 27t23.5 82
q0 79 -43 79q-57 0 -59 -188zM344 237q-57 0 -81 -23.5t-24 -80.5q0 -35 12.5 -58.5t40.5 -23.5q29 0 40.5 28.5t11.5 68.5v89z" />
    <glyph glyph-name="ccedilla" unicode="&#xe7;" horiz-adv-x="536" 
d="M517.5 172q11.5 -18 11.5 -39q0 -71 -51.5 -110t-130.5 -44l-13 -32q58 -1 92.5 -25t34.5 -76q0 -51 -46.5 -79t-106.5 -28q-42 0 -77.5 13.5t-35.5 50.5q0 33 13 51q11 -17 28 -25.5t46 -8.5q14 0 23.5 9t9.5 26q0 20 -16.5 28t-39.5 8q-13 0 -39 -2l34 94
q-109 18 -168.5 91.5t-59.5 193.5q0 134 79.5 198t222.5 64q93 0 154 -29.5t61 -102.5q0 -45 -38.5 -67t-92.5 -22q-46 0 -60 8q2 40 2 64q0 40 -7 64t-32 24q-28 0 -37 -58t-9 -141q0 -73 23.5 -110.5t86.5 -37.5q70 0 109 71q18 -3 29.5 -21z" />
    <glyph glyph-name="egrave" unicode="&#xe8;" horiz-adv-x="580" 
d="M26 0zM541 161q8 -17 8 -37q0 -50 -33 -82.5t-84.5 -48t-107.5 -15.5q-140 0 -219 75.5t-79 214.5q0 262 314 262q96 0 164.5 -34t68.5 -110q0 -92 -67 -124.5t-187 -32.5q-33 0 -49 4q5 -55 29.5 -83t79.5 -28q44 0 82 15.5t57 48.5q15 -8 23 -25zM279 408
q-11 -60 -10 -132q54 4 77.5 29.5t23.5 83.5q0 79 -43 79q-37 0 -48 -60zM266 599q-7 2 -46.5 11.5t-59.5 27.5t-20 45q0 23 17.5 46.5t40.5 36.5l245 -148l-21 -54z" />
    <glyph glyph-name="eacute" unicode="&#xe9;" horiz-adv-x="580" 
d="M26 0zM541 161q8 -17 8 -37q0 -50 -33 -82.5t-84.5 -48t-107.5 -15.5q-140 0 -219 75.5t-79 214.5q0 262 314 262q96 0 164.5 -34t68.5 -110q0 -92 -67 -124.5t-187 -32.5q-33 0 -49 4q5 -55 29.5 -83t79.5 -28q44 0 82 15.5t57 48.5q15 -8 23 -25zM279 408
q-11 -60 -10 -132q54 4 77.5 29.5t23.5 83.5q0 79 -43 79q-37 0 -48 -60zM451 766q23 -13 40.5 -36.5t17.5 -46.5q0 -27 -17.5 -42.5t-39 -22.5t-69.5 -19l-157 -35l-20 54z" />
    <glyph glyph-name="ecircumflex" unicode="&#xea;" horiz-adv-x="580" 
d="M26 0zM541 161q8 -17 8 -37q0 -50 -33 -82.5t-84.5 -48t-107.5 -15.5q-140 0 -219 75.5t-79 214.5q0 262 314 262q96 0 164.5 -34t68.5 -110q0 -92 -67 -124.5t-187 -32.5q-33 0 -49 4q5 -55 29.5 -83t79.5 -28q44 0 82 15.5t57 48.5q15 -8 23 -25zM279 408
q-11 -60 -10 -132q54 4 77.5 29.5t23.5 83.5q0 79 -43 79q-37 0 -48 -60zM186 581l-45 52l165 112h43l168 -112l-44 -52l-144 32z" />
    <glyph glyph-name="edieresis" unicode="&#xeb;" horiz-adv-x="580" 
d="M26 0zM541 161q8 -17 8 -37q0 -50 -33 -82.5t-84.5 -48t-107.5 -15.5q-140 0 -219 75.5t-79 214.5q0 262 314 262q96 0 164.5 -34t68.5 -110q0 -92 -67 -124.5t-187 -32.5q-33 0 -49 4q5 -55 29.5 -83t79.5 -28q44 0 82 15.5t57 48.5q15 -8 23 -25zM279 408
q-11 -60 -10 -132q54 4 77.5 29.5t23.5 83.5q0 79 -43 79q-37 0 -48 -60zM546 732q32 -23 32 -63t-33.5 -62t-87.5 -22q-53 0 -86 21.5t-33 60.5q0 40 35 64t89 24q52 0 84 -23zM296 732q32 -23 32 -63t-33.5 -62t-87.5 -22q-53 0 -86 21.5t-33 60.5q0 40 35 64t89 24
q52 0 84 -23z" />
    <glyph glyph-name="igrave" unicode="&#xec;" horiz-adv-x="323" 
d="M0 0zM278 134q0 -35 7 -65t24 -59q-18 -12 -49.5 -18.5t-57.5 -6.5q-79 0 -121.5 36t-42.5 110v379h240v-376zM96 599q-7 2 -46.5 11.5t-59.5 27.5t-20 45q0 23 17.5 46.5t40.5 36.5l245 -148l-21 -54z" />
    <glyph glyph-name="iacute" unicode="&#xed;" horiz-adv-x="323" 
d="M36 0zM278 134q0 -35 7 -65t24 -59q-18 -12 -49.5 -18.5t-57.5 -6.5q-79 0 -121.5 36t-42.5 110v379h240v-376zM281 766q23 -13 40.5 -36.5t17.5 -46.5q0 -27 -17.5 -42.5t-39 -22.5t-69.5 -19l-157 -35l-20 54z" />
    <glyph glyph-name="icircumflex" unicode="&#xee;" horiz-adv-x="323" 
d="M0 0zM278 134q0 -35 7 -65t24 -59q-18 -12 -49.5 -18.5t-57.5 -6.5q-79 0 -121.5 36t-42.5 110v379h240v-376zM16 581l-45 52l165 112h43l168 -112l-44 -52l-144 32z" />
    <glyph glyph-name="idieresis" unicode="&#xef;" horiz-adv-x="323" 
d="M0 0zM278 134q0 -35 7 -65t24 -59q-18 -12 -49.5 -18.5t-57.5 -6.5q-79 0 -121.5 36t-42.5 110v379h240v-376zM376 732q32 -23 32 -63t-33.5 -62t-87.5 -22q-53 0 -86 21.5t-33 60.5q0 40 35 64t89 24q52 0 84 -23zM126 732q32 -23 32 -63t-33.5 -62t-87.5 -22
q-53 0 -86 21.5t-33 60.5q0 40 35 64t89 24q52 0 84 -23z" />
    <glyph glyph-name="eth" unicode="&#xf0;" horiz-adv-x="634" 
d="M494 655l80 29q1 -3 3 -7t4 -3q8 -18 8 -29q0 -31 -37 -47l-9 -3q64 -105 64 -280q0 -160 -70.5 -249t-219.5 -89q-80 0 -146.5 30t-105.5 86.5t-39 133.5q0 159 97.5 212.5t209.5 53.5h16q10 0 15 -1q-1 8 -2 17t-3 18l-67 -25q-2 3 -4 7t-4 5q-7 14 -7 28q0 17 10 29
t28 18l10 4q-17 9 -52 9q-30 0 -54 -15q-6 12 -10.5 31t-4.5 32q0 70 107 70q112 0 183 -65zM360.5 85q9.5 48 9.5 151v50q0 27 -2.5 67.5t-5.5 61.5q-13 18 -29 18q-45 0 -57.5 -54.5t-12.5 -144.5v-41q0 -68 10.5 -112t43.5 -44q34 0 43.5 48z" />
    <glyph glyph-name="ntilde" unicode="&#xf1;" horiz-adv-x="627" 
d="M37 0zM37 510l192 12l10 -90q21 54 63 76t107 22q92 0 136 -47t44 -141v-208q0 -35 7 -65t24 -59q-18 -12 -49 -18.5t-58 -6.5q-78 0 -121 36t-43 110v215v37t-9 52t-28 20q-21 0 -28 -19t-7 -51v-34v-351h-240v510zM548 696.5q6 -18.5 6 -32.5q0 -43 -31.5 -57.5
t-88.5 -14.5q-38 0 -115 9q-13 1 -54 5t-67 4q-24 0 -40.5 -4.5t-29.5 -18.5q-21 36 -21 65q0 44 31 58t88 14q29 0 115 -8q79 -9 122 -9q23 0 40 4.5t30 17.5q9 -14 15 -32.5z" />
    <glyph glyph-name="ograve" unicode="&#xf2;" horiz-adv-x="625" 
d="M26 0zM525 463q74 -67 74 -201q0 -86 -35.5 -150t-100.5 -99t-150 -35q-83 0 -148.5 34t-102 96t-36.5 144q0 135 75 206.5t212 71.5q138 0 212 -67zM351 98q8 60 8 159v31q0 85 -8.5 133.5t-37.5 48.5t-37.5 -46.5t-8.5 -127.5v-50q0 -94 8 -151t38 -57t38 60zM251 599
q-7 2 -46.5 11.5t-59.5 27.5t-20 45q0 23 17.5 46.5t40.5 36.5l245 -148l-21 -54z" />
    <glyph glyph-name="oacute" unicode="&#xf3;" horiz-adv-x="625" 
d="M26 0zM525 463q74 -67 74 -201q0 -86 -35.5 -150t-100.5 -99t-150 -35q-83 0 -148.5 34t-102 96t-36.5 144q0 135 75 206.5t212 71.5q138 0 212 -67zM351 98q8 60 8 159v31q0 85 -8.5 133.5t-37.5 48.5t-37.5 -46.5t-8.5 -127.5v-50q0 -94 8 -151t38 -57t38 60zM436 766
q23 -13 40.5 -36.5t17.5 -46.5q0 -27 -17.5 -42.5t-39 -22.5t-69.5 -19l-157 -35l-20 54z" />
    <glyph glyph-name="ocircumflex" unicode="&#xf4;" horiz-adv-x="625" 
d="M26 0zM525 463q74 -67 74 -201q0 -86 -35.5 -150t-100.5 -99t-150 -35q-83 0 -148.5 34t-102 96t-36.5 144q0 135 75 206.5t212 71.5q138 0 212 -67zM351 98q8 60 8 159v31q0 85 -8.5 133.5t-37.5 48.5t-37.5 -46.5t-8.5 -127.5v-50q0 -94 8 -151t38 -57t38 60zM171 581
l-45 52l165 112h43l168 -112l-44 -52l-144 32z" />
    <glyph glyph-name="otilde" unicode="&#xf5;" horiz-adv-x="625" 
d="M26 0zM525 463q74 -67 74 -201q0 -86 -35.5 -150t-100.5 -99t-150 -35q-83 0 -148.5 34t-102 96t-36.5 144q0 135 75 206.5t212 71.5q138 0 212 -67zM351 98q8 60 8 159v31q0 85 -8.5 133.5t-37.5 48.5t-37.5 -46.5t-8.5 -127.5v-50q0 -94 8 -151t38 -57t38 60z
M531 696.5q6 -18.5 6 -32.5q0 -43 -31.5 -57.5t-88.5 -14.5q-38 0 -115 9q-13 1 -54 5t-67 4q-24 0 -40.5 -4.5t-29.5 -18.5q-21 36 -21 65q0 44 31 58t88 14q29 0 115 -8q79 -9 122 -9q23 0 40 4.5t30 17.5q9 -14 15 -32.5z" />
    <glyph glyph-name="odieresis" unicode="&#xf6;" horiz-adv-x="625" 
d="M26 0zM525 463q74 -67 74 -201q0 -86 -35.5 -150t-100.5 -99t-150 -35q-83 0 -148.5 34t-102 96t-36.5 144q0 135 75 206.5t212 71.5q138 0 212 -67zM351 98q8 60 8 159v31q0 85 -8.5 133.5t-37.5 48.5t-37.5 -46.5t-8.5 -127.5v-50q0 -94 8 -151t38 -57t38 60zM531 732
q32 -23 32 -63t-33.5 -62t-87.5 -22q-53 0 -86 21.5t-33 60.5q0 40 35 64t89 24q52 0 84 -23zM281 732q32 -23 32 -63t-33.5 -62t-87.5 -22q-53 0 -86 21.5t-33 60.5q0 40 35 64t89 24q52 0 84 -23z" />
    <glyph glyph-name="divide" unicode="&#xf7;" 
d="M378.5 360q-23.5 -18 -59.5 -18q-37 0 -59 17.5t-22 48.5q0 33 24 51t61 18q35 0 57 -17.5t22 -49.5t-23.5 -50zM106 236q0 29 19 43.5t51 14.5h348q12 -26 12 -49q0 -29 -19 -43.5t-51 -14.5h-348q-12 22 -12 49zM378.5 22q-23.5 -18 -59.5 -18q-37 0 -59 17.5t-22 48.5
q0 32 24 50.5t61 18.5q35 0 57 -18t22 -49q0 -32 -23.5 -50z" />
    <glyph glyph-name="oslash" unicode="&#xf8;" horiz-adv-x="625" 
d="M599 262q0 -86 -35.5 -150t-100.5 -99t-150 -35q-67 0 -128 24l-39 -61q-34 -1 -55 10t-21 35q0 18 17 43l17 27q-37 36 -57.5 86t-20.5 110q0 135 75 206.5t212 71.5q44 0 86 -8l54 85q34 1 55 -10t21 -35q0 -17 -17 -43l-20 -31q107 -67 107 -226zM277 428
q-9 -42 -10 -115l79 125q-11 32 -33 32q-27 0 -36 -42zM351 98q8 60 8 159v20l-89 -140q9 -99 43 -99q30 0 38 60z" />
    <glyph glyph-name="ugrave" unicode="&#xf9;" 
d="M38 0zM597 134q0 -35 7 -65t24 -59q-18 -12 -51 -18.5t-59 -6.5q-110 0 -147 59q-27 -36 -62.5 -51t-84.5 -15q-76 0 -116.5 30.5t-55 86t-14.5 141.5v274h246v-269q0 -104 4.5 -143t24.5 -39q29 0 36.5 27.5t7.5 75.5v348h240v-376zM251 599q-7 2 -46.5 11.5t-59.5 27.5
t-20 45q0 23 17.5 46.5t40.5 36.5l245 -148l-21 -54z" />
    <glyph glyph-name="uacute" unicode="&#xfa;" 
d="M38 0zM597 134q0 -35 7 -65t24 -59q-18 -12 -51 -18.5t-59 -6.5q-110 0 -147 59q-27 -36 -62.5 -51t-84.5 -15q-76 0 -116.5 30.5t-55 86t-14.5 141.5v274h246v-269q0 -104 4.5 -143t24.5 -39q29 0 36.5 27.5t7.5 75.5v348h240v-376zM436 766q23 -13 40.5 -36.5
t17.5 -46.5q0 -27 -17.5 -42.5t-39 -22.5t-69.5 -19l-157 -35l-20 54z" />
    <glyph glyph-name="ucircumflex" unicode="&#xfb;" 
d="M38 0zM597 134q0 -35 7 -65t24 -59q-18 -12 -51 -18.5t-59 -6.5q-110 0 -147 59q-27 -36 -62.5 -51t-84.5 -15q-76 0 -116.5 30.5t-55 86t-14.5 141.5v274h246v-269q0 -104 4.5 -143t24.5 -39q29 0 36.5 27.5t7.5 75.5v348h240v-376zM171 581l-45 52l165 112h43l168 -112
l-44 -52l-144 32z" />
    <glyph glyph-name="udieresis" unicode="&#xfc;" 
d="M38 0zM597 134q0 -35 7 -65t24 -59q-18 -12 -51 -18.5t-59 -6.5q-110 0 -147 59q-27 -36 -62.5 -51t-84.5 -15q-76 0 -116.5 30.5t-55 86t-14.5 141.5v274h246v-269q0 -104 4.5 -143t24.5 -39q29 0 36.5 27.5t7.5 75.5v348h240v-376zM531 732q32 -23 32 -63t-33.5 -62
t-87.5 -22q-53 0 -86 21.5t-33 60.5q0 40 35 64t89 24q52 0 84 -23zM281 732q32 -23 32 -63t-33.5 -62t-87.5 -22q-53 0 -86 21.5t-33 60.5q0 40 35 64t89 24q52 0 84 -23z" />
    <glyph glyph-name="yacute" unicode="&#xfd;" horiz-adv-x="588" 
d="M11 0zM596 510l-259 -703l-240 13l127 245h-87l-126 445h252l69 -361l75 361h189zM432 766q23 -13 40.5 -36.5t17.5 -46.5q0 -27 -17.5 -42.5t-39 -22.5t-69.5 -19l-157 -35l-20 54z" />
    <glyph glyph-name="thorn" unicode="&#xfe;" horiz-adv-x="641" 
d="M285 601q0 -84 -8 -116q23 25 58.5 35t82.5 10q197 0 197 -268q0 -142 -80 -213t-228 -71q-4 0 -22 -2v-155l-240 -14v893l240 24v-123zM292 435.5q-8 -19.5 -8 -53.5l1 -57v-276q11 -11 30 -11q38 0 48.5 58.5t10.5 160.5q0 92 -9 145t-42 53q-23 0 -31 -19.5z" />
    <glyph glyph-name="ydieresis" unicode="&#xff;" horiz-adv-x="588" 
d="M11 0zM596 510l-259 -703l-240 13l127 245h-87l-126 445h252l69 -361l75 361h189zM527 732q32 -23 32 -63t-33.5 -62t-87.5 -22q-53 0 -86 21.5t-33 60.5q0 40 35 64t89 24q52 0 84 -23zM277 732q32 -23 32 -63t-33.5 -62t-87.5 -22q-53 0 -86 21.5t-33 60.5q0 40 35 64
t89 24q52 0 84 -23z" />
    <glyph glyph-name="dotlessi" unicode="&#x131;" horiz-adv-x="323" 
d="M278 134q0 -35 7 -65t24 -59q-18 -12 -49.5 -18.5t-57.5 -6.5q-79 0 -121.5 36t-42.5 110v379h240v-376z" />
    <glyph glyph-name="OE" unicode="&#x152;" horiz-adv-x="834" 
d="M840 0h-346q-64 -22 -136 -22q-104 0 -182.5 43.5t-121 122t-42.5 181.5q0 171 88.5 263t257.5 92q96 0 165 -20h310v-89h-167v-187h137v-90h-137v-205h183zM409.5 135.5q12.5 81.5 12.5 198.5q0 118 -12 194t-52 76t-51 -74.5t-11 -195.5q0 -120 11.5 -200t50.5 -80
t51.5 81.5z" />
    <glyph glyph-name="oe" unicode="&#x153;" horiz-adv-x="913" 
d="M874 160.5q8 -17.5 8 -36.5q0 -50 -33 -82.5t-84.5 -48t-107.5 -15.5q-92 0 -179 47q-83 -47 -165 -47q-83 0 -148.5 34t-102 96t-36.5 144q0 135 75 206.5t212 71.5q92 0 170 -39q43 20 93 29.5t97 9.5q96 0 164.5 -34t68.5 -110q0 -92 -67 -124.5t-187 -32.5
q-33 0 -49 4q5 -55 29.5 -83t79.5 -28q44 0 82 15.5t57 48.5q15 -8 23 -25.5zM350.5 91.5q8.5 53.5 8.5 142.5v31v15q-2 92 -10 141t-36 49q-29 0 -37.5 -46.5t-8.5 -127.5v-50q0 -94 8 -151t38 -57q29 0 37.5 53.5zM612 408q-11 -60 -10 -132q54 4 77.5 29.5t23.5 83.5
q0 79 -43 79q-37 0 -48 -60z" />
    <glyph glyph-name="uni02BC" unicode="&#x2bc;" horiz-adv-x="195" 
d="M182.5 718.5q25.5 -22.5 25.5 -74.5q0 -43 -21 -79.5t-57 -58t-80 -21.5q-17 0 -43 4q42 61 42 125q0 60 -25 107q9 8 32.5 14t44.5 6q56 0 81.5 -22.5z" />
    <glyph glyph-name="circumflex" unicode="&#x2c6;" horiz-adv-x="396" 
d="M55 592l-45 52l165 112h43l168 -112l-44 -52l-144 32z" />
    <glyph glyph-name="ring" unicode="&#x2da;" horiz-adv-x="258" 
d="M43 594.5q-33 26.5 -33 70.5q0 45 32.5 69.5t86.5 24.5t86.5 -24.5t32.5 -69.5q0 -44 -33 -70.5t-86 -26.5t-86 26.5zM160.5 626q10.5 15 10.5 39q0 22 -10.5 36t-31.5 14t-32 -14t-11 -36q0 -25 10.5 -39.5t32.5 -14.5q21 0 31.5 15z" />
    <glyph glyph-name="tilde" unicode="&#x2dc;" horiz-adv-x="535" 
d="M499 707.5q6 -18.5 6 -32.5q0 -43 -31.5 -57.5t-88.5 -14.5q-38 0 -115 9q-13 1 -54 5t-67 4q-24 0 -40.5 -4.5t-29.5 -18.5q-21 36 -21 65q0 44 31 58t88 14q29 0 115 -8q79 -9 122 -9q23 0 40 4.5t30 17.5q9 -14 15 -32.5z" />
    <glyph glyph-name="uni2002" unicode="&#x2002;" horiz-adv-x="708" 
 />
    <glyph glyph-name="endash" unicode="&#x2013;" horiz-adv-x="550" 
d="M7 215q0 40 22 60.5t62 20.5h450q2 -6 2 -29q0 -39 -22.5 -60t-62.5 -21h-450q-1 10 -1 29z" />
    <glyph glyph-name="emdash" unicode="&#x2014;" horiz-adv-x="1086" 
d="M7 215q0 40 22 60.5t62 20.5h986q2 -9 2 -29q0 -39 -22.5 -60t-62.5 -21h-986q-1 10 -1 29z" />
    <glyph glyph-name="quoteleft" unicode="&#x2018;" horiz-adv-x="363" 
d="M124 563q0 49 26.5 90t70.5 65t94 24q24 0 49 -5q-26 -36 -39 -71.5t-13 -76.5q0 -71 30 -128q-10 -9 -36 -15.5t-49 -6.5q-133 0 -133 124z" />
    <glyph glyph-name="quoteright" unicode="&#x2019;" horiz-adv-x="255" 
d="M239 618q0 -49 -26.5 -90t-70.5 -65t-94 -24q-24 0 -49 5q26 36 39 71.5t13 76.5q0 71 -30 128q10 9 36 15.5t49 6.5q133 0 133 -124z" />
    <glyph glyph-name="quotesinglbase" unicode="&#x201a;" horiz-adv-x="255" 
d="M239 35q0 -49 -26.5 -90t-70.5 -65t-94 -24q-24 0 -49 5q26 37 39 72.5t13 76.5q0 71 -30 127q10 9 36 16t49 7q133 0 133 -125z" />
    <glyph glyph-name="quotedblleft" unicode="&#x201c;" horiz-adv-x="512" 
d="M16 563q0 49 26.5 90t70.5 65t94 24q24 0 49 -5q-26 -36 -39 -71.5t-13 -76.5q0 -71 30 -128q-10 -9 -36 -15.5t-49 -6.5q-133 0 -133 124zM273 563q0 49 26.5 90t70.5 65t94 24q24 0 49 -5q-26 -36 -39 -71.5t-13 -76.5q0 -71 30 -128q-10 -9 -36 -15.5t-49 -6.5
q-133 0 -133 124z" />
    <glyph glyph-name="quotedblright" unicode="&#x201d;" horiz-adv-x="512" 
d="M239 618q0 -49 -26.5 -90t-70.5 -65t-94 -24q-24 0 -49 5q26 36 39 71.5t13 76.5q0 71 -30 128q10 9 36 15.5t49 6.5q133 0 133 -124zM496 618q0 -49 -26.5 -90t-70.5 -65t-94 -24q-24 0 -49 5q26 37 39 72.5t13 75.5q0 71 -30 128q10 9 36 15.5t49 6.5q133 0 133 -124z
" />
    <glyph glyph-name="quotedblbase" unicode="&#x201e;" horiz-adv-x="512" 
d="M239 37q0 -49 -26.5 -90.5t-70.5 -65.5t-94 -24q-27 0 -49 6q26 36 39 71.5t13 76.5q0 71 -30 128q10 9 36 15.5t49 6.5q133 0 133 -124zM496 37q0 -49 -26.5 -90.5t-70.5 -65.5t-94 -24q-26 0 -49 6q26 37 39 72.5t13 75.5q0 71 -30 128q10 9 36 15.5t49 6.5
q133 0 133 -124z" />
    <glyph glyph-name="bullet" unicode="&#x2022;" horiz-adv-x="341" 
d="M287 345.5q38 -31.5 38 -84.5q0 -57 -40.5 -88.5t-104.5 -31.5t-102.5 31t-38.5 83q0 57 41.5 89.5t106.5 32.5q62 0 100 -31.5z" />
    <glyph glyph-name="ellipsis" unicode="&#x2026;" horiz-adv-x="768" 
d="M9 0zM725 128q32 -23 32 -63t-33.5 -62t-87.5 -22q-53 0 -86 21.5t-33 60.5q0 40 35 64t89 24q52 0 84 -23zM217 128q32 -23 32 -63t-33.5 -62t-87.5 -22q-53 0 -86 21.5t-33 60.5q0 40 35 64t89 24q52 0 84 -23zM471 128q32 -23 32 -63t-33.5 -62t-87.5 -22
q-53 0 -86 21.5t-33 60.5q0 40 35 64t89 24q52 0 84 -23z" />
    <glyph glyph-name="guilsinglleft" unicode="&#x2039;" horiz-adv-x="288" 
d="M127 511h134l-90 -194l84 -191h-129l-136 191z" />
    <glyph glyph-name="guilsinglright" unicode="&#x203a;" horiz-adv-x="288" 
d="M298 317l-137 -191h-129l85 191l-90 194h134z" />
    <glyph glyph-name="fraction" unicode="&#x2044;" horiz-adv-x="343" 
d="M267 720q18 0 30 -10t12 -28q0 -12 -3 -24l-190 -742q-16 -7 -43 -7q-19 0 -31 10t-12 28q0 8 1 14t2 10l191 742q16 7 43 7z" />
    <glyph glyph-name="trademark" unicode="&#x2122;" horiz-adv-x="830" 
d="M291 660l-6 -51h-65v-312h-144v312h-69v51h284zM746 660l37 -363h-144l-20 279l-80 -279h-73l-81 279l-20 -279h-72l43 363h158l47 -175l50 175h155z" />
    <glyph glyph-name="minus" unicode="&#x2212;" 
d="M106 236q0 29 19 43t51 14h348q12 -24 12 -49q0 -29 -19 -43t-51 -14h-348q-12 21 -12 49z" />
    <glyph glyph-name="uni2215" unicode="&#x2215;" horiz-adv-x="117" 
d="M182 710q12 -10 12 -28q0 -8 -1 -14t-2 -10l-191 -742q-16 -7 -43 -7q-18 0 -30 10t-12 28q0 12 3 24l190 742q16 7 43 7q19 0 31 -10z" />
    <glyph glyph-name="Ldot" horiz-adv-x="532" 
d="M45 660h264v-561h161l-12 -99h-413v660zM480.5 366q19.5 -21 19.5 -52q0 -32 -20.5 -53t-54.5 -21q-33 0 -53.5 20.5t-20.5 49.5q0 33 22.5 55t55.5 22q32 0 51.5 -21z" />
    <glyph glyph-name="uni1E9E" horiz-adv-x="816" 
d="M36 315q0 187 96 276t288 89q101 0 174 -28t123 -99q-57 -4 -100 -29t-43 -70q0 -34 26 -65t77 -74q60 -52 90 -89t30 -82q0 -91 -71 -128.5t-184 -37.5q-84 0 -149 19t-65 72q0 43 38 62.5t93 19.5q41 0 53 -5q0 -17 -1 -25l-1 -25q0 -30 8 -48t30 -18q17 0 27.5 14.5
t10.5 33.5q0 37 -26 70.5t-77 79.5q-53 50 -79 83.5t-26 71.5q0 63 44 105t110 65q-43 49 -107 49q-47 0 -72.5 -25.5t-36.5 -83t-12 -161.5l-1 -332h-268z" />
    <glyph glyph-name="Y.loclGUA" horiz-adv-x="696" 
d="M652 154q0 -182 -80.5 -268.5t-258.5 -86.5q-95 0 -169.5 29.5t-74.5 97.5q0 59 41 88.5t104 29.5q27 0 57 -5q-5 -42 -5 -74q0 -86 64 -86q54 0 72 66t18 192q-35 -58 -145 -58q-120 0 -174.5 67t-54.5 196v318h264v-307q0 -99 12 -141t45 -42q22 0 33.5 18.5t15.5 59.5
t4 116v296h232v-506z" />
    <glyph glyph-name="Yacute.loclGUA" horiz-adv-x="696" 
d="M46 0zM652 154q0 -182 -80.5 -268.5t-258.5 -86.5q-95 0 -169.5 29.5t-74.5 97.5q0 59 41 88.5t104 29.5q27 0 57 -5q-5 -42 -5 -74q0 -86 64 -86q54 0 72 66t18 192q-35 -58 -145 -58q-120 0 -174.5 67t-54.5 196v318h264v-307q0 -99 12 -141t45 -42q22 0 33.5 18.5
t15.5 59.5t4 116v296h232v-506zM493 876q19 -15 31.5 -39t12.5 -46q0 -30 -20.5 -45t-45 -19t-70.5 -7l-159 -11l-13 56z" />
    <glyph glyph-name="uni1EF8.loclGUA" horiz-adv-x="696" 
d="M46 0zM652 154q0 -182 -80.5 -268.5t-258.5 -86.5q-95 0 -169.5 29.5t-74.5 97.5q0 59 41 88.5t104 29.5q27 0 57 -5q-5 -42 -5 -74q0 -86 64 -86q54 0 72 66t18 192q-35 -58 -145 -58q-120 0 -174.5 67t-54.5 196v318h264v-307q0 -99 12 -141t45 -42q22 0 33.5 18.5
t15.5 59.5t4 116v296h232v-506zM574 778q0 -43 -31.5 -57.5t-88.5 -14.5q-38 0 -115 9q-13 1 -54 5t-67 4q-23 0 -40 -4.5t-30 -18.5q-21 36 -21 65q0 43 31.5 57.5t88.5 14.5q38 0 114 -9q13 -1 54 -5t68 -4q23 0 40 4.5t30 18.5q21 -36 21 -65z" />
    <glyph glyph-name="Oacute.loclPLK" horiz-adv-x="716" 
d="M12 0zM615.5 594q87.5 -86 87.5 -255q0 -109 -41 -190.5t-118.5 -126t-185.5 -44.5q-104 0 -182.5 43.5t-121 122t-42.5 181.5q0 171 88.5 263t257.5 92q170 0 257.5 -86zM408 133.5q11 79.5 11 200.5q0 123 -10.5 196.5t-50.5 73.5t-51 -74.5t-11 -195.5
q0 -120 11.5 -200t50.5 -80t50 79.5zM363 869q55 0 81.5 -15.5t26.5 -43.5q0 -22 -16.5 -49.5t-53.5 -74.5l-80 16z" />
    <glyph glyph-name="i.loclTRK" horiz-adv-x="323" 
d="M32 0zM278 134q0 -35 7 -65t24 -59q-18 -12 -49.5 -18.5t-57.5 -6.5q-79 0 -121.5 36t-42.5 110v379h240v-376zM240 721q32 -23 32 -63t-33.5 -62t-87.5 -22q-53 0 -86 21.5t-33 60.5q0 40 35 64t89 24q52 0 84 -23z" />
    <glyph glyph-name="ldot" horiz-adv-x="414" 
d="M276 724v-590q0 -35 7 -65t24 -59q-18 -12 -49.5 -18.5t-58.5 -6.5q-78 0 -120.5 36t-42.5 110v569zM419.5 386q19.5 -21 19.5 -52q0 -32 -20.5 -53t-54.5 -21q-33 0 -53.5 20.5t-20.5 49.5q0 33 22.5 55t55.5 22q32 0 51.5 -21z" />
    <glyph glyph-name="y.loclGUA" horiz-adv-x="640" 
d="M593 101q0 -113 -30.5 -178t-97 -94t-180.5 -29q-50 0 -104 14.5t-91.5 43.5t-37.5 71q0 45 38 67t92 22q14 0 33.5 -2t26.5 -6q0 -18 -1 -27l-1 -26q0 -45 10 -73t41 -28q30 0 43.5 25t17 68t3.5 128v41q-25 -29 -58 -41t-77 -12q-71 0 -110.5 19.5t-55.5 61.5t-16 115
v249h246v-244q0 -67 4.5 -93.5t20.5 -26.5q29 0 36.5 27.5t7.5 75.5v261h240v-409z" />
    <glyph glyph-name="yacute.loclGUA" horiz-adv-x="640" 
d="M38 0zM593 101q0 -113 -30.5 -178t-97 -94t-180.5 -29q-50 0 -104 14.5t-91.5 43.5t-37.5 71q0 45 38 67t92 22q14 0 33.5 -2t26.5 -6q0 -18 -1 -27l-1 -26q0 -45 10 -73t41 -28q30 0 43.5 25t17 68t3.5 128v41q-25 -29 -58 -41t-77 -12q-71 0 -110.5 19.5t-55.5 61.5
t-16 115v249h246v-244q0 -67 4.5 -93.5t20.5 -26.5q29 0 36.5 27.5t7.5 75.5v261h240v-409zM443 766q23 -13 40.5 -36.5t17.5 -46.5q0 -27 -17.5 -42.5t-39 -22.5t-69.5 -19l-157 -35l-20 54z" />
    <glyph glyph-name="ydieresis.loclGUA" horiz-adv-x="640" 
d="M38 0zM593 101q0 -113 -30.5 -178t-97 -94t-180.5 -29q-50 0 -104 14.5t-91.5 43.5t-37.5 71q0 45 38 67t92 22q14 0 33.5 -2t26.5 -6q0 -18 -1 -27l-1 -26q0 -45 10 -73t41 -28q30 0 43.5 25t17 68t3.5 128v41q-25 -29 -58 -41t-77 -12q-71 0 -110.5 19.5t-55.5 61.5
t-16 115v249h246v-244q0 -67 4.5 -93.5t20.5 -26.5q29 0 36.5 27.5t7.5 75.5v261h240v-409zM538 732q32 -23 32 -63t-33.5 -62t-87.5 -22q-53 0 -86 21.5t-33 60.5q0 40 35 64t89 24q52 0 84 -23zM288 732q32 -23 32 -63t-33.5 -62t-87.5 -22q-53 0 -86 21.5t-33 60.5
q0 40 35 64t89 24q52 0 84 -23z" />
    <glyph glyph-name="uni1EF9.loclGUA" horiz-adv-x="640" 
d="M38 0zM593 101q0 -113 -30.5 -178t-97 -94t-180.5 -29q-50 0 -104 14.5t-91.5 43.5t-37.5 71q0 45 38 67t92 22q14 0 33.5 -2t26.5 -6q0 -18 -1 -27l-1 -26q0 -45 10 -73t41 -28q30 0 43.5 25t17 68t3.5 128v41q-25 -29 -58 -41t-77 -12q-71 0 -110.5 19.5t-55.5 61.5
t-16 115v249h246v-244q0 -67 4.5 -93.5t20.5 -26.5q29 0 36.5 27.5t7.5 75.5v261h240v-409zM538 696.5q6 -18.5 6 -32.5q0 -43 -31.5 -57.5t-88.5 -14.5q-38 0 -115 9q-13 1 -54 5t-67 4q-24 0 -40.5 -4.5t-29.5 -18.5q-21 36 -21 65q0 44 31 58t88 14q29 0 115 -8
q79 -9 122 -9q23 0 40 4.5t30 17.5q9 -14 15 -32.5z" />
    <glyph glyph-name="oacute.loclPLK" horiz-adv-x="625" 
d="M26 0zM525 463q74 -67 74 -201q0 -86 -35.5 -150t-100.5 -99t-150 -35q-83 0 -148.5 34t-102 96t-36.5 144q0 135 75 206.5t212 71.5q138 0 212 -67zM351 98q8 60 8 159v31q0 85 -8.5 133.5t-37.5 48.5t-37.5 -46.5t-8.5 -127.5v-50q0 -94 8 -151t38 -57t38 60zM323 765
q55 0 81.5 -15.5t26.5 -43.5q0 -21 -15.5 -47.5t-47.5 -67.5l-37 -47l-57 28z" />
    <glyph glyph-name="uni03BC" horiz-adv-x="650" 
d="M611 69q7 -30 24 -59q-18 -12 -50.5 -18.5t-59.5 -6.5q-109 0 -147 59q-38 -48 -93 -60v-164l-240 -14v704l247 24v-293q0 -104 4.5 -143t24.5 -39q28 0 35.5 27.5t7.5 75.5v348h240v-376q0 -35 7 -65z" />
    <glyph glyph-name="uni2153" horiz-adv-x="857" 
d="M565 696q12 -10 12 -28q0 -8 -1 -14t-2 -10l-190 -742q-18 -7 -44 -7q-18 0 -30 10t-12 28q0 12 3 24l190 743q13 6 43 6q19 0 31 -10zM284 662v-311h65v-66h-304v66h66v177q-22 -17 -50 -17t-36 20.5t-8 58.5q61 21 109 41.5t95 48.5zM748.5 365.5
q39.5 -22.5 39.5 -68.5q0 -36 -21 -58t-66 -32q106 -9 106 -99q0 -59 -41.5 -92.5t-111.5 -33.5q-58 0 -102 22t-44 67q0 18 15 33q39 -21 73 -21q43 0 43 37q0 19 -10.5 30t-29.5 11q-21 0 -27 -1v56q35 0 57.5 8t22.5 31q0 22 -13 34t-35 12q-23 0 -39.5 -10.5
t-32.5 -31.5q-22 17 -22 40q0 45 43 67t99 22q57 0 96.5 -22.5z" />
    <glyph glyph-name="uni2154" horiz-adv-x="857" 
d="M570 696q12 -10 12 -28q0 -8 -1 -14t-2 -10l-191 -742q-16 -7 -43 -7q-18 0 -30 10t-12 28q0 12 3 24l190 743q14 6 43 6q19 0 31 -10zM312 646q49 -29 49 -87q0 -43 -27 -76t-68 -62l-53 -37l140 9l3 -108h-300l-4 50q17 8 30 17t26 20q28 23 55 62.5t27 83.5
q0 26 -17.5 40.5t-44.5 14.5q-42 0 -65 -24q-23 18 -23 42q0 42 48.5 63t104.5 21q70 0 119 -29zM753.5 365.5q39.5 -22.5 39.5 -68.5q0 -36 -21 -58t-66 -32q106 -9 106 -99q0 -59 -41.5 -92.5t-111.5 -33.5q-58 0 -102 22t-44 67q0 18 15 33q39 -21 73 -21q43 0 43 37
q0 19 -10.5 30t-30.5 11t-27 -1v56q35 0 58 8t23 31q0 22 -13.5 34t-35.5 12q-23 0 -38.5 -10t-32.5 -32q-22 17 -22 40q0 45 43 67t99 22q57 0 96.5 -22.5z" />
    <glyph glyph-name="oneeighth" horiz-adv-x="857" 
d="M547 710q12 -10 12 -28q0 -12 -3 -24l-190 -742q-16 -7 -44 -7q-18 0 -30 10t-12 28q0 12 3 24l190 742q16 7 44 7q18 0 30 -10zM289 662v-311h65v-66h-303v66h65v177q-22 -17 -50 -17q-27 0 -35.5 20.5t-8.5 58.5q61 21 109 41.5t95 48.5zM781 368.5q41 -19.5 41 -70.5
q0 -29 -19 -48t-56 -37q44 -28 70 -55.5t26 -64.5q0 -57 -52.5 -84t-121.5 -27q-67 0 -119 23t-52 67q0 38 20.5 57.5t63.5 41.5q-40 25 -57 51.5t-17 61.5q0 56 48 80t119 24q65 0 106 -19.5zM642 307q0 -25 48 -55q13 20 13 47q0 21 -7 32t-24 12q-30 1 -30 -36zM626 79
q0 -22 7.5 -35.5t29.5 -13.5q16 0 26 13.5t10 26.5q0 22 -15 36.5t-43 27.5q-15 -21 -15 -55z" />
    <glyph glyph-name="quotesingle.loclGUA" horiz-adv-x="166" 
d="M17 554q0 49 -5.5 97t-15.5 84q40 6 63 6q61 0 86.5 -28t25.5 -89q0 -47 -19 -108t-49 -97h-101q15 53 15 135z" />
    <glyph glyph-name="uni20B2" 
d="M447 283l181 14v-278q-55 -20 -108 -29t-114 -11v-33q0 -28 -16 -46.5t-45 -18.5q-13 0 -27 5.5t-20 7.5v89q-93 13 -156.5 60t-94.5 117t-31 155q0 155 76 239.5t222 101.5v36q0 28 16 46.5t45 18.5q17 0 31 -6t16 -7v-84q94 -4 152.5 -31.5t58.5 -97.5q0 -62 -40 -96
t-100 -34q-16 0 -52 2q5 29 5 57q0 55 -15 89.5t-56 34.5q-75 0 -75 -213q0 -74 8.5 -125t35 -84t79.5 -33q20 0 33 5z" />
    <glyph glyph-name="dotaccent" horiz-adv-x="234" 
d="M205 732q32 -23 32 -63t-33.5 -62t-87.5 -22q-53 0 -86 21.5t-33 60.5q0 40 35 64t89 24q52 0 84 -23z" />
    <glyph glyph-name="acute.case" horiz-adv-x="328" 
d="M274 876q19 -15 31.5 -39t12.5 -46q0 -30 -20.5 -45t-45 -19t-70.5 -7l-159 -11l-13 56z" />
    <glyph glyph-name="circumflex.case" horiz-adv-x="356" 
d="M38 693l-45 52l165 112h43l168 -112l-44 -52l-144 32z" />
    <glyph glyph-name="grave.case" horiz-adv-x="328" 
d="M146 720q-46 3 -70.5 7t-45 19t-20.5 45q0 22 12.5 45.5t30.5 39.5l265 -111l-13 -56z" />
    <glyph glyph-name="acute.loclPLK.case" horiz-adv-x="328" 
d="M142 869q55 0 81.5 -15.5t26.5 -43.5q0 -22 -16.5 -49.5t-53.5 -74.5l-80 16z" />
    <glyph glyph-name="ring.case" horiz-adv-x="265" 
d="M44 725.5q-34 28.5 -34 75.5q0 48 33.5 74.5t89.5 26.5t89.5 -26.5t33.5 -74.5q0 -47 -34 -75.5t-89 -28.5t-89 28.5zM167.5 757.5q11.5 16.5 11.5 43.5q0 26 -11.5 42t-34.5 16q-24 0 -35.5 -16t-11.5 -42q0 -27 11.5 -43.5t35.5 -16.5q23 0 34.5 16.5z" />
    <glyph glyph-name="tilde.case" horiz-adv-x="467" 
d="M457 778q0 -43 -31.5 -57.5t-88.5 -14.5q-38 0 -115 9q-13 1 -54 5t-67 4q-23 0 -40 -4.5t-30 -18.5q-21 36 -21 65q0 43 31.5 57.5t88.5 14.5q38 0 114 -9q13 -1 54 -5t68 -4q23 0 40 4.5t30 18.5q21 -36 21 -65z" />
    <glyph glyph-name="acute.loclPLK" horiz-adv-x="323" 
d="M152 776q55 0 81.5 -15.5t26.5 -43.5q0 -21 -15.5 -47.5t-47.5 -67.5l-37 -47l-57 28z" />
    <glyph glyph-name=".ttfautohint" horiz-adv-x="220" 
d="M0 0z" />
    </font>
</defs>
</svg>
