<?xml version="1.0" standalone="no"?>
<!DOCTYPE svg PUBLIC "-//W3C//DTD SVG 1.1//EN" "http://www.w3.org/Graphics/SVG/1.1/DTD/svg11.dtd" >
<svg xmlns="http://www.w3.org/2000/svg" xmlns:xlink="http://www.w3.org/1999/xlink" version="1.1">
<metadata>
Created by FontForge 20170731 at Sun Dec  4 11:51:21 2016
 By Aleksey,,,
Copyright 2016 The Sansita Project Authors (omnibus.type@gmail.com)
</metadata>
<defs>
<font id="Sansita-BlackItalic" horiz-adv-x="576" >
  <font-face 
    font-family="Sansita Black"
    font-weight="900"
    font-style="italic"
    font-stretch="normal"
    units-per-em="1000"
    panose-1="3 6 10 2 3 9 5 6 5 6"
    ascent="800"
    descent="-200"
    x-height="530"
    cap-height="660"
    bbox="-142 -260 1105 870"
    underline-thickness="50"
    underline-position="-150"
    slope="-11"
    unicode-range="U+000D-2215"
  />
<missing-glyph horiz-adv-x="514" 
d="M-41 0l136 700h500l-136 -700h-500zM286 395l218 255h-340zM126 605l-100 -510l221 255zM307 350l119 -255l100 510zM49 50h340l-122 255z" />
    <glyph glyph-name="f_f" unicode="ff" horiz-adv-x="657" 
d="M387 725q111 0 155 -33q62 28 172 28q80 0 140 -17.5t60 -67.5q0 -35 -32 -52t-76 -17q-39 0 -68 12q7 12 10.5 31.5t3.5 35.5q0 15 -4 23t-16 8q-21 0 -34 -24.5t-22 -73.5l-12 -68h91l-6 -45h-94l-81 -465l-252 -24l95 489h-93l-87 -465l-246 -24l95 489h-71l9 45h70
l17 66q38 149 276 149zM446 595q2 7 8 32t6 36q0 9 -9 13.5t-22 4.5q-28 0 -52 -24t-32 -74l-12 -73h92l12 50z" />
    <glyph glyph-name="fi" unicode="fi" horiz-adv-x="677" 
d="M606 173q-5 -27 -5 -42q0 -25 14 -43t41 -21q-13 -42 -58.5 -64.5t-99.5 -22.5q-62 0 -100 30.5t-38 90.5q0 57 40 254l6 31l14 79h-96l-87 -465l-246 -24l95 489h-71l9 45h73l21 64q21 60 65 92t103.5 43t141.5 11q99 0 179.5 -19.5t80.5 -80.5q0 -42 -37 -55.5
t-88 -13.5q-87 0 -118 43q9 20 9 35q0 19 -9.5 31.5t-29.5 12.5q-50 0 -67 -86l-15 -77h337z" />
    <glyph glyph-name="fl" unicode="fl" horiz-adv-x="677" 
d="M456 668q0 3 -12 4t-22 1q-33 0 -49 -21.5t-25 -67.5l-14 -74h59l-11 -45h-58l-87 -465l-246 -24l95 489h-71l9 45h73l21 64q47 146 285 146q48 0 76 -5.5t49 -16.5l182 26l-104 -551q-5 -27 -5 -42q0 -25 14 -43t41 -21q-13 -42 -58.5 -64.5t-99.5 -22.5
q-62 0 -100 30.5t-38 90.5q0 28 8 78t16.5 94.5t10.5 56.5q4 19 6.5 33t4.5 23l50 281v1z" />
    <glyph glyph-name=".notdef" horiz-adv-x="514" 
d="M-41 0l136 700h500l-136 -700h-500zM286 395l218 255h-340zM126 605l-100 -510l221 255zM307 350l119 -255l100 510zM49 50h340l-122 255z" />
    <glyph glyph-name=".null" horiz-adv-x="0" 
 />
    <glyph glyph-name="nonmarkingreturn" unicode="&#xd;" horiz-adv-x="181" 
 />
    <glyph glyph-name="NULL" horiz-adv-x="0" 
 />
    <glyph glyph-name="NULL" horiz-adv-x="0" 
 />
    <glyph glyph-name="space" unicode=" " horiz-adv-x="181" 
 />
    <glyph glyph-name="exclam" unicode="!" horiz-adv-x="378" 
d="M113 201q-25 21 -25 56v1v2l79 404q40 16 87 16q54 0 83.5 -30.5t29.5 -84.5q0 -38 -13 -74.5t-39 -89.5q-28 -59 -43 -102t-16 -90q-24 -29 -74 -29q-44 0 -69 21zM264 125q32 -23 32 -62q0 -40 -33 -62t-86 -22t-85.5 21.5t-32.5 60.5q0 40 35 63.5t87 23.5
q51 0 83 -23z" />
    <glyph glyph-name="quotedbl" unicode="&#x22;" horiz-adv-x="470" 
d="M96.5 589q12.5 77 13.5 145q42 6 63 6q47 0 75 -25t28 -66q0 -27 -13.5 -68.5t-34.5 -79.5t-43 -55h-120q19 66 31.5 143zM324.5 589q12.5 77 13.5 145q42 6 63 6q47 0 75 -25t28 -66q0 -27 -13.5 -68.5t-34.5 -79.5t-43 -55h-120q19 66 31.5 143z" />
    <glyph glyph-name="numbersign" unicode="#" 
d="M562 225q0 -44 -18 -67t-59 -23h-29l-9 -70q-6 -30 -32 -47.5t-61 -17.5q-28 0 -63 12l22 123h-85l-15 -70q-7 -31 -30 -48t-57 -17q-30 0 -62 12l20 123h-71q-7 22 -7 42q0 91 78 91h20l18 93h-82q-6 24 -6 45q0 42 26.5 68t65.5 26h29l17 93q6 31 26.5 48.5t54.5 17.5
q25 0 64 -13l-24 -146h90l17 93q5 31 26.5 48.5t54.5 17.5q26 0 63 -13l-23 -146h65q6 -24 6 -44q0 -30 -12.5 -51.5t-30.5 -32.5t-35 -11h-24l-17 -93h83q6 -24 6 -43zM332 268l19 93h-87l-18 -93h86z" />
    <glyph glyph-name="dollar" unicode="$" 
d="M425 449q15 32 15 71q0 37 -16 62t-50 25t-61.5 -27.5t-27.5 -72.5q0 -23 14.5 -41t36.5 -30t63 -32q27 -12 50 -24q52 -25 82.5 -60.5t30.5 -91.5q0 -100 -73 -160t-193 -79l-5 -26q-7 -46 -23.5 -63t-52.5 -17q-26 0 -46 5l16 93h-3q-82 0 -139.5 23t-57.5 98
q0 52 33 87.5t96 35.5q43 0 82 -13q-17 -44 -17 -88q0 -35 13 -57t43 -22q35 0 57.5 20t22.5 56q0 35 -29.5 58.5t-89.5 54.5q-28 14 -42 22q-51 27 -80 64.5t-29 96.5q0 63 35 114.5t98.5 85t145.5 45.5l4 24q8 47 23 63.5t49 16.5q26 0 47 -6l-20 -92q82 -2 139.5 -28
t57.5 -91q0 -53 -40 -81t-96 -28q-27 0 -63 9z" />
    <glyph glyph-name="percent" unicode="%" horiz-adv-x="1045" 
d="M225 -22q-26 0 -46 10t-28 32l592 621q40 42 99 42q26 0 46 -10t28 -32l-593 -621q-39 -42 -98 -42zM427 388q-32 -51 -86.5 -76.5t-122.5 -25.5q-86 0 -128 43.5t-42 124.5q0 72 31.5 123.5t85.5 77.5t122 26q87 0 129.5 -43.5t42.5 -125.5q0 -73 -32 -124zM266.5 368.5
q20.5 34.5 32.5 88.5t12 110q0 32 -5.5 49.5t-22.5 17.5q-24 0 -44.5 -36t-32 -91.5t-11.5 -107.5q0 -32 5.5 -48.5t21.5 -16.5q24 0 44.5 34.5zM1000 83q-32 -51 -86 -76.5t-122 -25.5q-86 0 -128.5 43.5t-42.5 124.5q0 72 31.5 123.5t86 77.5t122.5 26q87 0 129 -43.5
t42 -125.5q0 -73 -32 -124zM840 63.5q20 34.5 32 88.5t12 110q0 33 -5.5 50t-21.5 17q-24 0 -44.5 -36t-32 -91.5t-11.5 -107.5q0 -32 5.5 -48.5t21.5 -16.5q24 0 44 34.5z" />
    <glyph glyph-name="ampersand" unicode="&#x26;" horiz-adv-x="769" 
d="M749 85q0 -105 -130 -105q-70 0 -136 34q-51 -18 -87.5 -26t-89.5 -8q-121 0 -195.5 48.5t-74.5 151.5q0 69 39 111.5t124 63.5q-17 56 -17 105q0 119 74.5 169.5t190.5 50.5q83 0 139 -26t56 -88q0 -53 -39.5 -82t-99.5 -29q-27 0 -45 2q6 21 6 58q0 40 -7.5 68
t-33.5 28q-20 0 -31 -31t-11 -81q0 -101 40.5 -185t104.5 -137q15 35 15 66q0 75 -62 121q14 15 44 24.5t59 9.5q54 0 82.5 -35.5t28.5 -92.5q0 -85 -52 -150q17 -3 32 -3q22 0 42.5 5t25.5 10q8 -20 8 -47zM395 71q-52 42 -95.5 97.5t-72.5 116.5q-20 -29 -20 -74
q0 -36 18.5 -69t53 -53.5t79.5 -20.5q18 0 37 3z" />
    <glyph glyph-name="quotesingle" unicode="'" horiz-adv-x="207" 
d="M89 588.5q12 77.5 13 145.5q42 6 63 6q47 0 75 -25t28 -66q0 -27 -13.5 -69t-34.5 -79.5t-43 -54.5h-119q19 65 31 142.5z" />
    <glyph glyph-name="parenleft" unicode="(" horiz-adv-x="368" 
d="M324 616q-57 -104 -83 -227t-26 -248q0 -101 16.5 -184.5t49.5 -136.5q-6 -20 -36 -20q-50 0 -96.5 50.5t-75.5 137t-29 186.5q0 145 56.5 291.5t144.5 240.5t174 94q36 0 50 -20q-88 -60 -145 -164z" />
    <glyph glyph-name="parenright" unicode=")" horiz-adv-x="353" 
d="M80.5 794q10.5 6 27.5 6q47 0 92.5 -52t74.5 -139t29 -186q0 -143 -57 -289t-144.5 -240t-173.5 -94q-37 0 -46 20q86 58 142 161.5t81.5 227t25.5 249.5q0 102 -16.5 186t-48.5 136q3 8 13.5 14z" />
    <glyph glyph-name="asterisk" unicode="*" horiz-adv-x="400" 
d="M447 531q7 -21 7 -38q0 -35 -34 -45q-14 -5 -40 -5q-24 0 -44 4l51 -80q-19 -30 -45 -50q-29 -21 -51 -21q-20 0 -36 21q-22 31 -28 86l-63 -77q-36 8 -61 27q-38 28 -38 53q0 15 11 29q20 29 71 52l-87 34q-3 34 7 67q17 54 52 54q37 0 89 -52l5 93q33 14 66 14
q39 0 54.5 -13.5t15.5 -37.5q0 -35 -25 -80l89 23q24 -26 34 -58z" />
    <glyph glyph-name="plus" unicode="+" 
d="M248 394q6 31 29 51.5t59 20.5q24 0 43 -8l-31 -162h145q1 -6 3 -16.5t2 -18.5q0 -33 -25 -53.5t-65 -20.5h-81l-22 -116q-7 -31 -28 -48t-56 -17q-24 0 -46 7l35 174h-138q-4 12 -4 29q0 36 21.5 58t56.5 22h85z" />
    <glyph glyph-name="comma" unicode="," horiz-adv-x="296" 
d="M173 -44q-30 -45 -81.5 -71.5t-111.5 -26.5q-18 0 -31 2.5t-16 3.5q53 56 68 104t15 92q0 39 -12 77q13 9 40.5 15.5t52.5 6.5q48 0 77 -27.5t29 -78.5q0 -52 -30 -97z" />
    <glyph glyph-name="hyphen" unicode="-" horiz-adv-x="344" 
d="M279 305q8 6 12 20q20 -8 30 -29.5t10 -44.5q0 -30 -18.5 -49t-49.5 -19h-160q-22 0 -29.5 -5.5t-11.5 -15t-6 -12.5q-22 13 -33 35t-11 47q0 29 15 48t45 19h181q18 0 26 6z" />
    <glyph glyph-name="period" unicode="." horiz-adv-x="267" 
d="M189 125q32 -23 32 -62q0 -40 -33 -62t-86 -22t-85.5 21.5t-32.5 60.5q0 40 35 63.5t87 23.5q51 0 83 -23z" />
    <glyph glyph-name="slash" unicode="/" horiz-adv-x="310" 
d="M44.5 -198.5q-19.5 -1.5 -37.5 -1.5q-50 0 -72.5 14t-22.5 45q0 22 9 45l323 894q21 3 48 3q57 0 81 -12t24 -43q0 -28 -19 -82l-311 -860q-3 -1 -22.5 -2.5z" />
    <glyph glyph-name="zero" unicode="0" 
d="M534 610.5q49 -69.5 49 -197.5q0 -127 -39.5 -225t-117.5 -153.5t-188 -55.5q-120 0 -168.5 69.5t-48.5 197.5q0 126 39.5 224.5t117 154t187.5 55.5q120 0 169 -69.5zM295.5 563.5q-21.5 -34.5 -37 -106t-27.5 -188.5q0 -21 -3 -45q-1 -12 -2 -31t-1 -45q0 -40 7 -63
t26 -23q46 0 72.5 77.5t44.5 251.5q0 16 4 52q4 50 4 75q0 38 -7.5 59t-27.5 21q-31 0 -52.5 -34.5z" />
    <glyph glyph-name="one" unicode="1" 
d="M557.5 118.5q3.5 -17.5 3.5 -35.5q0 -51 -33.5 -70t-108.5 -19q-23 0 -125 4q-168 5 -210 5h-30q-8 0 -20 0.5t-28 -0.5q-2 11 -1.5 21t0.5 13q0 46 20.5 73t58.5 27h87l81 330q-55 -34 -110 -34q-43 0 -68 28.5t-30 78.5q86 13 177.5 42.5t226.5 86.5l61 -37l-87 -494
h16q47 0 77 4t34 5q5 -11 8.5 -28.5z" />
    <glyph glyph-name="two" unicode="2" 
d="M323 419.5q9 16.5 9 40.5q0 32 -17.5 42.5t-47.5 10.5q-47 0 -84.5 -23t-50.5 -57q-29 -3 -50.5 22.5t-21.5 63.5q0 50 42 87t105.5 55.5t126.5 18.5q92 0 157.5 -40.5t65.5 -128.5q0 -54 -26 -97.5t-105 -90.5q-16 -10 -73 -40q-62 -33 -128 -70q79 -17 179 -17
q40 0 66 8t43 28q19 -26 26 -48.5t7 -48.5q0 -70 -47.5 -108.5t-155.5 -38.5q-64 0 -160 17q-7 1 -37 5.5t-51 4.5q-19 0 -28 -4t-15 -12q-17 12 -27.5 43t-10.5 64q0 42 20.5 73t67.5 66l190 142q22 16 31 32.5z" />
    <glyph glyph-name="three" unicode="3" 
d="M319.5 423q27.5 18 27.5 40q0 24 -25 38t-75 14q-65 0 -127 -53q-18 1 -27.5 16t-9.5 40q0 55 43.5 91.5t106.5 53.5t122 17q93 0 153.5 -34.5t60.5 -97.5q0 -55 -44 -103t-128 -79q69 -16 103.5 -60.5t34.5 -104.5q0 -61 -39.5 -111.5t-115.5 -80t-181 -29.5
q-102 0 -150 29.5t-49 79.5q0 27 12 53.5t31 44.5q7 -31 45.5 -47.5t82.5 -16.5q61 0 93 23t32 63q0 36 -21.5 57t-80.5 21l20 103q78 15 105.5 33z" />
    <glyph glyph-name="four" unicode="4" 
d="M562 660q-45 -174 -85 -401h9q18 1 36 4t26 4q6 -9 10.5 -28t4.5 -34q0 -43 -24.5 -68.5t-62.5 -25.5h-21l-16 -111h-220l21 110h-218q-9 23 -12 38t-3 32q0 33 9 63t27 51l330 366h189zM342 513l-227 -256h153q43 177 74 256z" />
    <glyph glyph-name="five" unicode="5" 
d="M570 670q5 -20 5 -51q0 -78 -48.5 -109.5t-136.5 -31.5h-160l-25 -62q81 6 141 6q86 0 140 -41.5t54 -130.5q0 -71 -38.5 -133t-113.5 -99.5t-179 -37.5q-82 0 -139 22.5t-57 87.5q0 26 10 53t27 44q21 -34 53.5 -49t81.5 -15q118 0 118 88q0 35 -16 53t-42 23t-67 5
q-79 0 -113 -1l100 369h240q132 0 165 10z" />
    <glyph glyph-name="six" unicode="6" 
d="M534.5 657q44.5 -23 44.5 -75q0 -24 -10.5 -47.5t-30.5 -39.5q-34 37 -105 37q-80 0 -126 -45t-64 -131q32 50 62 71t83 21q85 0 129 -51.5t44 -134.5q0 -86 -43 -150t-113.5 -98t-152.5 -34q-115 0 -175.5 68t-60.5 185q0 114 54 217.5t148 166.5t206 63q66 0 110.5 -23
zM256.5 299.5q-19.5 -27.5 -27.5 -63.5t-8 -65q0 -63 44 -63q31 0 50.5 26.5t27.5 62.5t8 66q0 64 -44 64q-31 0 -50.5 -27.5z" />
    <glyph glyph-name="seven" unicode="7" 
d="M602 536l-18 -23q-8 -10 -28 -36.5t-37 -51.5q-108 -149 -151 -230t-43 -134q0 -17 5 -39q0 -13 1 -19q-27 -10 -60 -16.5t-59 -6.5q-55 0 -86.5 30t-31.5 88q0 29 15.5 61.5t55.5 75.5l254 251h-171q-60 0 -98 6t-62.5 28t-24.5 67q0 26 7 44t20 39q50 -10 169 -10h330z
" />
    <glyph glyph-name="eight" unicode="8" 
d="M519 646.5q54 -33.5 54 -101.5q0 -60 -41 -102t-98 -63q51 -42 74 -66t31.5 -44t8.5 -49q0 -74 -44 -128.5t-116 -83.5t-155 -29q-96 0 -160 38.5t-64 117.5q0 52 33.5 95.5t111.5 82.5q-34 28 -48 56t-14 66q0 70 41 125.5t108.5 87t145.5 31.5t132 -33.5zM399 465.5
q11 20.5 11 42.5q0 26 -15.5 44t-43.5 18q-27 0 -46 -13.5t-19 -37.5q0 -17 10.5 -29.5t32.5 -28.5l39 -28q20 12 31 32.5zM188.5 217q-10.5 -22 -10.5 -47q0 -30 15.5 -51.5t44.5 -21.5q25 0 44 21t19 47q0 17 -10.5 29.5t-32.5 28.5l-39 28q-20 -12 -30.5 -34z" />
    <glyph glyph-name="nine" unicode="9" 
d="M520.5 611.5q60.5 -68.5 60.5 -184.5q0 -114 -54.5 -217.5t-148.5 -166.5t-206 -63q-65 0 -109.5 23t-44.5 74q0 25 10.5 48.5t29.5 38.5q36 -37 105 -37q80 0 126 45t64 132q-31 -50 -62 -71t-83 -21q-85 0 -129 51.5t-44 134.5q0 86 43 150t114.5 98t152.5 34
q115 0 175.5 -68.5zM281 524.5q-19 -26.5 -27.5 -62.5t-8.5 -65q0 -65 44 -65q31 0 50.5 27.5t28 63.5t8.5 65q0 63 -45 63q-31 0 -50 -26.5z" />
    <glyph glyph-name="colon" unicode=":" horiz-adv-x="331" 
d="M37 0zM324 508q32 -23 32 -62q0 -40 -33 -62t-86 -22t-85.5 21.5t-32.5 60.5q0 40 35 63.5t87 23.5q51 0 83 -23zM242 125q32 -23 32 -62q0 -40 -33 -62t-86 -22t-85.5 21.5t-32.5 60.5q0 40 35 63.5t87 23.5q51 0 83 -23z" />
    <glyph glyph-name="semicolon" unicode=";" horiz-adv-x="328" 
d="M0 0zM294 508q32 -23 32 -62q0 -40 -33 -62t-86 -22t-85.5 21.5t-32.5 60.5q0 40 35 63.5t87 23.5q51 0 83 -23zM204 -44q-30 -45 -81.5 -71.5t-111.5 -26.5q-18 0 -31 2.5t-16 3.5q53 56 68 104t15 92q0 39 -12 77q13 9 40.5 15.5t52.5 6.5q48 0 77 -27.5t29 -78.5
q0 -52 -30 -97z" />
    <glyph glyph-name="less" unicode="&#x3c;" 
d="M368 136q13 -13 13 -38q0 -20 -12 -41.5t-37 -36t-61 -15.5l-218 234l258 214q36 30 74 30q25 0 43 -18.5t24 -49.5l-187 -165z" />
    <glyph glyph-name="equal" unicode="=" 
d="M505 340q0 -34 -22.5 -55t-65.5 -21h-342q-4 13 -4 28q0 36 22 57.5t56 21.5h351q5 -18 5 -31zM505 157q0 -34 -22.5 -55t-65.5 -21h-342q-4 15 -4 29q0 35 22 57t56 22h351q5 -17 5 -32z" />
    <glyph glyph-name="greater" unicode="&#x3e;" 
d="M513 250l-258 -214q-36 -30 -74 -30q-24 0 -42 24t-25 64l185 148l-92 101q-13 15 -13 38q0 22 11 45.5t33.5 40t55.5 17.5l218 -234h1z" />
    <glyph glyph-name="question" unicode="?" horiz-adv-x="542" 
d="M531.5 456q-34.5 -45 -82.5 -78.5t-122 -75.5q-74 -43 -108 -69.5t-34 -53.5q-29 0 -50.5 27.5t-21.5 68.5t18 71.5t43.5 50.5t67.5 45q38 24 60.5 41t37.5 41t15 56q0 20 -7 30t-28 10q-37 0 -58.5 -29t-21.5 -71q0 -27 9 -46q-23 -6 -68 -6q-125 0 -125 81q0 67 83 99
t188 32q110 0 174.5 -28.5t64.5 -97.5q0 -53 -34.5 -98zM260 125q32 -23 32 -62q0 -40 -33 -62t-86 -22t-85.5 21.5t-32.5 60.5q0 40 35 63.5t87 23.5q51 0 83 -23z" />
    <glyph glyph-name="at" unicode="@" horiz-adv-x="766" 
d="M544 165q0 -41 26 -41q17 0 36 26t32 70t13 97q0 105 -53.5 156.5t-148.5 51.5q-151 0 -233.5 -82t-82.5 -228q0 -111 64 -170t166 -59q62 0 107 13t81 39q15 -12 15 -32q0 -32 -33.5 -55.5t-88.5 -36t-118 -12.5q-93 0 -163.5 36.5t-109.5 101.5t-39 148
q0 115 58.5 209.5t164.5 149t242 54.5q79 0 143.5 -31t102 -92.5t37.5 -148.5q0 -78 -29 -137.5t-76 -92.5t-100 -33q-40 0 -65.5 19.5t-28.5 61.5q-15 -37 -48 -59t-82 -22q-61 0 -97.5 38.5t-36.5 113.5q0 65 27.5 118t73.5 82.5t100 29.5q32 0 62 -12l123 15l-38 -249
q-3 -15 -3 -37zM419 423q-31 0 -50.5 -47.5t-28 -108t-8.5 -101.5q0 -27 4.5 -41t17.5 -14q20 0 33 34t27 102l32 166q-14 10 -27 10z" />
    <glyph glyph-name="A" unicode="A" horiz-adv-x="615" 
d="M556 199q4 -56 18.5 -97.5t41.5 -56.5q-18 -30 -53 -47.5t-82 -17.5q-62 0 -98 27.5t-53 85.5q-1 5 -4.5 17.5t-7.5 45.5h-166q-40 -98 -56 -156h-152l323 660h264zM203 280l-19 -41h131l-13 251q-41 -80 -99 -210z" />
    <glyph glyph-name="B" unicode="B" horiz-adv-x="632" 
d="M616 220q0 -122 -105 -172.5t-310 -50.5h-42q-98 0 -169 3l126 660q91 3 209 3q95 0 157 -7.5t105 -35.5t43 -87q0 -58 -40.5 -99.5t-102.5 -58.5q129 -19 129 -155zM411.5 425.5q27.5 37.5 27.5 90.5q0 44 -18.5 63.5t-59.5 19.5q1 0 0.5 0.5t-1.5 0.5l-42 -215
q66 3 93.5 40.5zM358 113.5q28 42.5 28 100.5q0 48 -19 73.5t-62 29.5l-47 -247q72 1 100 43.5zM258 70v-2q2 1 0 2z" />
    <glyph glyph-name="C" unicode="C" horiz-adv-x="659" 
d="M687 564q0 -38 -22 -69.5t-58.5 -49.5t-78.5 -18q-29 0 -45 2q9 47 9 87q0 93 -54 93q-40 0 -72.5 -55.5t-51.5 -131.5t-19 -130q0 -70 33.5 -100.5t104.5 -30.5q54 0 98.5 13t71.5 40q23 -19 23 -70q0 -42 -35 -79.5t-101.5 -61t-157.5 -23.5q-151 0 -224.5 70.5
t-73.5 218.5q0 127 51.5 219.5t149.5 142t234 49.5q218 0 218 -116z" />
    <glyph glyph-name="D" unicode="D" horiz-adv-x="709" 
d="M250 663h43q153 0 238.5 -20t129 -80t43.5 -181q0 -145 -61 -229.5t-175 -120t-285 -35.5q-123 0 -194 3l127 660q49 3 134 3zM272 70q79 0 122 74t67 225q12 80 12 142q0 45 -20 63t-66 18q-18 0 -26 -1l-100 -520q8 -1 11 -1z" />
    <glyph glyph-name="E" unicode="E" horiz-adv-x="535" 
d="M404 529.5q-31 9.5 -44 17.5l-28 -155h177q0 -59 -25.5 -93t-80.5 -34q-30 0 -57 8.5t-34 13.5l-29 -152h73q66 0 109 9q7 -9 10.5 -26.5t3.5 -33.5q0 -84 -136 -84h-348l121 660h480q0 -69 -29 -104.5t-94 -35.5q-38 0 -69 9.5z" />
    <glyph glyph-name="F" unicode="F" horiz-adv-x="557" 
d="M591 549q-25 -36 -94 -36q-35 0 -75.5 8t-61.5 19l-26 -136h199q0 -139 -115 -139q-50 0 -106 25l-51 -290h-266l121 660h500q0 -75 -25 -111z" />
    <glyph glyph-name="G" unicode="G" horiz-adv-x="704" 
d="M653.5 178q-19.5 -83 -18.5 -178q-19 -11 -36 -15.5t-39 -4.5q-33 0 -59.5 10t-41.5 25t-16 27q-34 -34 -81.5 -48t-96.5 -14q-116 0 -173.5 76t-57.5 210q0 130 52.5 223t151 142t235.5 49q94 0 158 -24t64 -92q0 -38 -22 -69.5t-59 -49.5t-79 -18q-28 0 -44 2
q9 50 9 89q0 91 -55 91q-39 0 -74 -51t-56.5 -128t-21.5 -149q0 -65 20 -118t73 -53q16 0 32.5 6t22.5 17l32 196l239 18q-39 -86 -58.5 -169z" />
    <glyph glyph-name="H" unicode="H" horiz-adv-x="697" 
d="M649 192q-11 -66 -11 -101q0 -22 4.5 -43t9.5 -29q-28 -19 -65 -29t-72 -10q-62 0 -94.5 31.5t-32.5 83.5q0 20 9 92l16 96h-115l-55 -283h-254l127 660h256l-57 -293h114l54 293h257z" />
    <glyph glyph-name="I" unicode="I" horiz-adv-x="339" 
d="M386 660l-129 -660h-268l127 660h270z" />
    <glyph glyph-name="J" unicode="J" horiz-adv-x="339" 
d="M296 197q-30 -157 -70 -244t-95 -122.5t-135 -35.5q-54 0 -90 15t-48 44q51 21 75 43.5t47 90t52 218.5l87 454h265z" />
    <glyph glyph-name="K" unicode="K" horiz-adv-x="748" 
d="M252 0h-260q36 198 75.5 408.5t49.5 251.5h261zM621.5 422.5q-64.5 -81.5 -68.5 -86.5q47 -215 141 -265q-31 -91 -139 -91q-78 0 -123.5 47t-66 122t-29.5 179l243 332h263q-156 -156 -220.5 -237.5z" />
    <glyph glyph-name="L" unicode="L" horiz-adv-x="508" 
d="M116 660h268l-91 -525h72q66 0 109 9q7 -9 10.5 -26.5t3.5 -33.5q0 -48 -36.5 -66t-98.5 -18h-355z" />
    <glyph glyph-name="M" unicode="M" horiz-adv-x="824" 
d="M811 660l-22 -457l-2 -57q0 -40 8 -66t29 -39q-13 -26 -52.5 -43t-90.5 -17q-60 0 -93 32t-33 92q0 4 -0.5 14t0.5 18l20 278l-181 -415h-134l-80 415l-93 -415h-123l169 660h238l65 -325l150 325h225z" />
    <glyph glyph-name="N" unicode="N" horiz-adv-x="686" 
d="M123 0h-126l119 660h250l162 -423l71 423h128l-123 -660h-277l-139 390z" />
    <glyph glyph-name="O" unicode="O" horiz-adv-x="739" 
d="M659.5 607.5q75.5 -72.5 75.5 -225.5q0 -122 -49 -213t-140.5 -140t-216.5 -49q-142 0 -217.5 72.5t-75.5 225.5q0 122 48.5 212.5t140.5 140t217 49.5q142 0 217.5 -72.5zM359.5 531.5q-30.5 -78.5 -51.5 -263.5q-9 -79 -9 -132q0 -41 9.5 -63t36.5 -22q78 0 118 342
q9 79 9 132q0 40 -9 62.5t-34 22.5q-39 0 -69.5 -78.5z" />
    <glyph glyph-name="P" unicode="P" horiz-adv-x="691" 
d="M-9 0l125 660l80 3q58 2 112 2q165 0 246 -9.5t124 -47.5t43 -122q0 -70 -33.5 -119.5t-90 -74t-125.5 -24.5q-108 0 -135 62q25 2 40 7q56 14 86.5 61.5t30.5 103.5q0 52 -25 74.5t-73 22.5q-24 0 -26 -2l-113 -597h-266z" />
    <glyph glyph-name="Q" unicode="Q" horiz-adv-x="735" 
d="M662 607q75 -73 75 -222q0 -105 -48.5 -193.5t-133.5 -142.5t-188 -59q52 -23 120 -23q40 0 77 9.5t64 25.5q5 -11 8 -29t3 -36q0 -72 -43 -105.5t-99 -33.5q-32 0 -61 9.5t-71 28.5q-42 20 -74 30.5t-68 10.5q-59 0 -102 -31q-18 23 -25 43.5t-7 45.5q0 42 19.5 63
t56.5 30t114 18q66 8 115 83.5t72 262.5q8 74 8 120q0 56 -11.5 77t-33.5 21q-34 0 -62.5 -62t-46.5 -152q-9 -46 -14.5 -89t-5.5 -66q0 -81 48 -82q0 -37 -35 -59t-94 -22q-180 0 -180 221q0 123 53.5 208.5t146.5 129t209 43.5q139 0 214 -73z" />
    <glyph glyph-name="R" unicode="R" horiz-adv-x="688" 
d="M249 662l127 1q108 0 175.5 -10.5t108.5 -48t41 -112.5q0 -77 -43 -126.5t-116 -67.5q21 -88 55.5 -147.5t81.5 -79.5q-33 -91 -138 -91q-78 0 -121.5 49t-61 124.5t-29.5 194.5l-2 1q69 0 107.5 38t38.5 115q0 49 -17 73.5t-59 24.5h-26l-114 -600h-262l121 660
q57 0 133 2z" />
    <glyph glyph-name="S" unicode="S" horiz-adv-x="593" 
d="M567.5 654.5q63.5 -25.5 63.5 -95.5q0 -54 -40 -82.5t-96 -28.5q-27 0 -63 9q15 32 15 72q0 38 -16 63.5t-50 25.5t-61.5 -28t-27.5 -74q0 -33 27 -54.5t86 -49.5q34 -16 51 -25q53 -26 83 -62t30 -93q0 -85 -51.5 -141.5t-137.5 -83t-191 -26.5q-82 0 -139.5 23.5
t-57.5 99.5q0 53 33 89t96 36q43 0 82 -13q-17 -44 -17 -90q0 -36 13.5 -58t42.5 -22q35 0 57.5 20.5t22.5 56.5q0 35 -29.5 60t-88.5 55q-15 7 -43 23q-51 27 -80 65.5t-29 98.5q0 74 47 132t130.5 90.5t187.5 32.5q87 0 150.5 -25.5z" />
    <glyph glyph-name="T" unicode="T" horiz-adv-x="520" 
d="M571 669q8 -10 12 -28t4 -35q0 -47 -29.5 -64t-86.5 -17h-41l-65 -333q-11 -66 -11 -101q0 -22 4.5 -43t9.5 -29q-28 -19 -64.5 -29t-72.5 -10q-63 0 -95 31.5t-32 88.5q0 78 40 273l34 152h-66h-64l1 40q0 51 24 73t75 22h316q73 0 107 9z" />
    <glyph glyph-name="U" unicode="U" horiz-adv-x="647" 
d="M621 248q-26 -139 -107.5 -203.5t-233.5 -64.5q-116 0 -189 37.5t-73 126.5q0 20 4 54.5t9 60.5l77 401h272l-77 -415q-1 -7 -8 -45.5t-7 -62.5q0 -29 12 -43t40 -14q31 0 50 18t29.5 50t21.5 88l84 424h174z" />
    <glyph glyph-name="V" unicode="V" horiz-adv-x="611" 
d="M79 556q-15 39 -39 60q21 33 56 48.5t89 15.5q74 0 113 -30.5t52 -85.5t12 -141l-14 -279l239 516h127l-315 -660h-272l-28 452q-5 65 -20 104z" />
    <glyph glyph-name="W" unicode="W" horiz-adv-x="1002" 
d="M79 556q-15 39 -39 60q21 33 56 48.5t89 15.5q74 0 113 -30.5t52 -85.5t12 -141l-14 -279l224 516h139l29 -516l238 516h127l-313 -660h-243l-21 267l-129 -267h-272l-28 452q-5 65 -20 104z" />
    <glyph glyph-name="X" unicode="X" horiz-adv-x="599" 
d="M83.5 582q-14.5 21 -42.5 40q33 28 73 42.5t95 14.5q44 0 71 -9.5t46.5 -34t35.5 -71.5l35 -102l142 198h140l-238 -324l55 -163q16 -45 43 -76t50 -36q-18 -41 -62.5 -61t-96.5 -20q-72 0 -112.5 39.5t-68.5 119.5l-16 46l-142 -185h-140l237 311l-72 200
q-18 50 -32.5 71z" />
    <glyph glyph-name="Y" unicode="Y" horiz-adv-x="636" 
d="M490.5 595.5q64.5 84.5 153.5 84.5q75 0 90 -60q-58 -21 -117.5 -75.5t-110 -136.5t-81.5 -179l-45 -229h-267l55 281q-12 125 -26 188.5t-36.5 95t-66.5 56.5q62 59 158 59q91 0 135.5 -54t44.5 -167q0 -29 -3 -62l-6 -77q58 191 122.5 275.5z" />
    <glyph glyph-name="Z" unicode="Z" horiz-adv-x="562" 
d="M213 460q-44 0 -70 -5.5t-48 -14.5q-34 53 -34 110q0 63 40 94t114 31q33 0 115 -12q84 -12 125 -12q53 0 95 9q28 -23 38 -51t10 -62q0 -52 -22.5 -88.5t-72.5 -75.5l-302 -163q77 -22 184 -22q39 0 66.5 6.5t47.5 28.5q39 -63 39 -116q0 -59 -50 -93.5t-146 -34.5
q-62 0 -160 17q-68 10 -87 10t-28.5 -4t-14.5 -12q-19 16 -32.5 52.5t-13.5 74.5q0 41 19.5 77t64.5 72l291 165q-98 19 -168 19z" />
    <glyph glyph-name="bracketleft" unicode="[" horiz-adv-x="358" 
d="M438.5 751.5q-24.5 -17.5 -65.5 -17.5h-40l-162 -867h20q45 0 64.5 -12t19.5 -40q0 -11 -1 -15h-282l188 1000h289q-6 -31 -30.5 -48.5z" />
    <glyph glyph-name="backslash" unicode="\" horiz-adv-x="337" 
d="M118.5 752q10.5 28 36.5 39.5t80 11.5q33 0 42 -3l-46 -892q-3 -59 -28 -83.5t-89 -24.5q-17 0 -35 1.5t-19 2.5l45 863q3 57 13.5 85z" />
    <glyph glyph-name="bracketright" unicode="]" horiz-adv-x="368" 
d="M193 733h-34q-41 0 -56.5 12t-15.5 43q0 8 1 12h283l-188 -1000h-283q13 66 90 66h41z" />
    <glyph glyph-name="asciicircum" unicode="^" horiz-adv-x="486" 
d="M432.5 435.5q32.5 -89.5 92.5 -128.5q-13 -15 -49 -26.5t-74 -11.5q-43 0 -67.5 19t-41 73.5t-29.5 165.5q-32 -94 -63 -150.5t-66.5 -82.5t-80.5 -26q-61 0 -72 46q146 63 240 346h177q1 -135 33.5 -224.5z" />
    <glyph glyph-name="underscore" unicode="_" horiz-adv-x="506" 
d="M453 -68q0 -33 -23 -54.5t-65 -21.5h-409q-4 13 -4 28q0 36 22 58t57 22h417q5 -17 5 -32z" />
    <glyph glyph-name="grave" unicode="`" horiz-adv-x="309" 
d="M229 597q-63 10 -99 35t-36 77q0 26 9.5 44.5t28.5 25.5l248 -150l-23 -52z" />
    <glyph glyph-name="a" unicode="a" horiz-adv-x="628" 
d="M557 173q-5 -27 -5 -42q0 -25 14 -43t41 -21q-13 -42 -58.5 -64.5t-94.5 -22.5q-39 0 -72 14.5t-46 42.5q-28 -26 -70 -41.5t-93 -15.5q-88 0 -127 51.5t-39 150.5q0 107 40 185.5t114.5 120.5t175.5 42q27 0 49 -4t52 -14l187 22zM336 470q-22 0 -39.5 -20t-33 -77.5
t-29.5 -165.5q-6 -48 -6 -88q0 -34 6.5 -53.5t23.5 -19.5q27 0 41 31t21 76l52 305q-13 12 -36 12z" />
    <glyph glyph-name="b" unicode="b" horiz-adv-x="608" 
d="M336 605q-13 -67 -36 -116q27 19 65.5 30t80.5 11q84 0 120 -48.5t36 -144.5q0 -110 -40 -190t-117.5 -123.5t-187.5 -43.5q-72 0 -148 18.5t-115 58.5l121 643l244 24zM266 40q23 0 40 20t33.5 77t32.5 165q6 42 8 89q0 35 -6 54t-23 20q-27 0 -41.5 -31t-22.5 -77
l-58 -305q15 -12 37 -12z" />
    <glyph glyph-name="c" unicode="c" horiz-adv-x="502" 
d="M537 421q0 -55 -38.5 -81t-99.5 -26q-34 0 -47 5q8 22 14 54t6 56q0 20 -5.5 31t-19.5 11q-30 0 -55 -47.5t-39.5 -112t-14.5 -107.5q0 -39 16 -58t54 -19q39 0 76 19.5t53 52.5q22 -13 31 -27.5t9 -38.5q0 -49 -35.5 -84t-90.5 -52t-115 -17q-106 0 -165.5 57.5
t-59.5 174.5q0 100 44 172t123.5 109t184.5 37q174 0 174 -109z" />
    <glyph glyph-name="d" unicode="d" horiz-adv-x="628" 
d="M557 173q-5 -27 -5 -42q0 -25 14 -43t41 -21q-13 -42 -58.5 -64.5t-94.5 -22.5q-39 0 -72 14.5t-46 42.5q-28 -26 -70 -41.5t-93 -15.5q-88 0 -127 51.5t-39 150.5q0 107 40 185.5t114.5 120.5t176.5 42q38 0 51 -2l30 172l242 24zM336 470q-22 0 -39.5 -20t-33 -77.5
t-29.5 -165.5q-6 -48 -6 -88q0 -34 6.5 -53.5t23.5 -19.5q27 0 41 31t21 76l52 305q-13 12 -36 12z" />
    <glyph glyph-name="e" unicode="e" horiz-adv-x="531" 
d="M496 503q51 -27 51 -99q0 -73 -61 -116t-198 -52q-8 -1 -50 -3q-3 -15 -3 -33q0 -37 18.5 -55t58.5 -18q38 0 79 15t60 40q14 -11 19.5 -22.5t5.5 -29.5q0 -48 -35.5 -82t-90.5 -51t-114 -17q-106 0 -166 57t-60 172q0 90 39 163t118.5 115.5t196.5 42.5q81 0 132 -27z
M245 273q40 0 69 25t44 61.5t15 69.5q0 24 -8 38.5t-23 14.5q-62 0 -97 -209z" />
    <glyph glyph-name="f" unicode="f" horiz-adv-x="326" 
d="M204 689.5q73 30.5 179 30.5q200 0 200 -83q0 -35 -32 -52t-77 -17q-38 0 -67 12q7 12 10.5 31.5t3.5 34.5t-4.5 22.5t-15.5 7.5q-21 0 -34 -24.5t-22 -73.5l-12 -68h91l-6 -45h-94l-81 -465l-252 -24l95 489h-71l9 45h70l15 61q22 88 95 118.5z" />
    <glyph glyph-name="g" unicode="g" horiz-adv-x="602" 
d="M549 135q-21 -112 -57 -183.5t-108 -111.5t-193 -40q-98 0 -171 24t-73 87q0 45 36 72.5t90 27.5q37 0 71 -12t55 -37q-25 -27 -25 -54q0 -12 5 -23t21 -11q36 0 66.5 55t55.5 193q-30 -30 -75.5 -47t-94.5 -17q-66 0 -102 34t-36 116q0 87 40.5 160.5t115 117.5
t171.5 44q58 0 88 -15l195 17zM337 471q-31 0 -53 -49t-33 -113t-11 -101q0 -69 31 -69q27 0 40 30t22 77l40 213q-13 12 -36 12z" />
    <glyph glyph-name="h" unicode="h" horiz-adv-x="633" 
d="M345 605q-13 -67 -36 -116q58 41 154 41q150 0 150 -113q0 -25 -6.5 -58t-19.5 -87q-25 -100 -25 -137q0 -61 55 -68q-14 -42 -59 -64.5t-99 -22.5q-61 0 -99.5 30.5t-38.5 86.5q0 25 6.5 57.5t22.5 100.5q29 114 29 157q0 41 -23 41q-28 0 -42 -36.5t-26 -99.5l-62 -317
l-244 -24l142 724l244 24z" />
    <glyph glyph-name="i" unicode="i" horiz-adv-x="332" 
d="M322 734q33 -24 33 -65q0 -42 -34.5 -65t-90.5 -23t-90 22.5t-34 63.5q0 42 36.5 66.5t91.5 24.5t88 -24zM261 173q-5 -27 -5 -42q0 -25 14 -43t41 -21q-13 -42 -58.5 -64.5t-99.5 -22.5q-62 0 -100 30.5t-38 90.5q0 32 9 88.5t26 145.5q9 47 10 51l24 124l246 24z" />
    <glyph glyph-name="j" unicode="j" horiz-adv-x="310" 
d="M316 734q33 -24 33 -65q0 -42 -34.5 -65t-90.5 -23t-90 22.5t-34 63.5q0 42 36.5 66.5t91.5 24.5t88 -24zM251 122q-21 -112 -49 -181t-73.5 -105t-116.5 -36q-53 0 -91.5 20t-51.5 62q40 1 65 25t42 73t34 138l74 392l245 24z" />
    <glyph glyph-name="k" unicode="k" horiz-adv-x="609" 
d="M337 605q-13 -67 -36 -116q57 41 155 41q157 0 157 -131q0 -60 -30.5 -102t-93.5 -58l37 -96q12 -32 27 -50t36 -19q-16 -46 -58.5 -70t-92.5 -24q-57 0 -93 31t-52 78t-16 96q0 28 4 47q42 12 69.5 61.5t27.5 106.5q0 53 -26 53q-46 0 -72 -136l-62 -317l-244 -24
l142 724l244 24z" />
    <glyph glyph-name="l" unicode="l" horiz-adv-x="330" 
d="M259 173q-5 -27 -5 -42q0 -25 14 -43t41 -21q-13 -42 -58.5 -64.5t-99.5 -22.5q-62 0 -100 30.5t-38 90.5q0 32 9 88.5t26 145.5q9 47 10 51l57 314l248 24z" />
    <glyph glyph-name="m" unicode="m" horiz-adv-x="941" 
d="M452 530q115 0 144 -75q28 40 71 57.5t100 17.5q71 0 110.5 -25t39.5 -88q0 -42 -25 -146q-2 -10 -9 -42t-10.5 -55.5t-3.5 -38.5q0 -61 56 -68q-14 -42 -59 -64.5t-99 -22.5q-62 0 -100.5 30.5t-38.5 86.5q0 25 7 61.5t21 97.5q29 118 29 160q0 37 -19 37
q-27 0 -41.5 -40.5t-26.5 -95.5l-61 -317l-245 -24l59 269l5 21q12 51 18 84.5t6 60.5q0 42 -20 42q-47 0 -72 -136l-62 -317l-244 -24l105 534l199 24l-18 -102q48 98 184 98z" />
    <glyph glyph-name="n" unicode="n" horiz-adv-x="633" 
d="M458 530q73 0 114 -25.5t41 -86.5q0 -25 -6.5 -59t-19.5 -87q-25 -100 -25 -137q0 -61 55 -68q-14 -42 -59 -64.5t-99 -22.5q-61 0 -99.5 30.5t-38.5 86.5q0 25 6.5 57.5t22.5 100.5q29 114 29 157q0 41 -23 41q-28 0 -42 -36.5t-26 -99.5l-62 -317l-244 -24l105 534
l199 24l-18 -102q50 98 190 98z" />
    <glyph glyph-name="o" unicode="o" horiz-adv-x="594" 
d="M521.5 478q62.5 -52 62.5 -177q0 -93 -42 -166t-119 -114t-177 -41q-235 0 -235 233q0 94 42 166t119 111.5t178 39.5q109 0 171.5 -52zM276 395q-23 -75 -34 -172q-8 -69 -8 -119q0 -30 7 -47t25 -17q30 0 50.5 67t32.5 163q11 83 11 140q0 29 -6.5 44.5t-23.5 15.5
q-31 0 -54 -75z" />
    <glyph glyph-name="p" unicode="p" horiz-adv-x="607" 
d="M331.5 515q36.5 16 90.5 16q94 0 136 -51t42 -153q0 -105 -40 -183.5t-114.5 -120.5t-176.5 -42q-31 0 -52 3l-26 -164l-242 -24l137 714l199 24l-13 -71q23 36 59.5 52zM269 39q22 0 39.5 20t33 77.5t29.5 165.5q6 48 6 88q0 34 -6.5 53.5t-23.5 19.5q-27 0 -41 -31
t-21 -76l-52 -305q13 -12 36 -12z" />
    <glyph glyph-name="q" unicode="q" horiz-adv-x="615" 
d="M501 -175l-250 -24l21 104q13 71 35 116q-27 -19 -65.5 -30t-80.5 -11q-84 0 -119.5 48t-35.5 144q0 109 39.5 189.5t116 124.5t183.5 44q64 0 98 -18l187 22zM344 470q-22 0 -40 -20t-34.5 -77.5t-32.5 -165.5q-7 -61 -7 -97q0 -64 29 -64q46 0 63 107l58 305
q-13 12 -36 12z" />
    <glyph glyph-name="r" unicode="r" horiz-adv-x="524" 
d="M330.5 506.5q38.5 23.5 96.5 23.5q67 0 103 -31t36 -93q0 -70 -43.5 -113.5t-111.5 -43.5q-22 0 -41 5t-29 15q20 25 33.5 66.5t13.5 75.5q0 19 -5.5 30.5t-21.5 11.5q-23 0 -44.5 -33t-35.5 -118l-47 -302l-252 -24l103 534l200 24l-18 -102q25 51 63.5 74.5z" />
    <glyph glyph-name="s" unicode="s" horiz-adv-x="474" 
d="M230.5 118.5q-17.5 15.5 -53.5 39.5l-34 23q-45 33 -71.5 66.5t-26.5 74.5q0 59 34 106t99.5 74.5t156.5 27.5q75 0 114.5 -22.5t39.5 -76.5q0 -46 -29 -71.5t-85 -25.5q-30 0 -48 11q14 41 14 77q0 28 -13 42.5t-32 14.5q-22 0 -40.5 -17t-18.5 -40q0 -35 23.5 -57
t72.5 -51q52 -31 79.5 -60t27.5 -77q0 -56 -31 -100.5t-93 -70t-153 -25.5q-80 0 -135.5 22.5t-55.5 76.5q0 38 29 63t78 25q44 0 75 -18q-12 -33 -12 -55q0 -29 14 -44.5t35 -15.5q22 0 39.5 14.5t17.5 39.5q0 14 -17.5 29.5z" />
    <glyph glyph-name="t" unicode="t" horiz-adv-x="344" 
d="M327 510h78l-9 -45h-76l-54 -292q-5 -27 -5 -42q0 -25 14 -43t41 -21q-13 -42 -58.5 -64.5t-99.5 -22.5q-62 0 -100 30.5t-38 89.5q0 48 31 213l29 152h-53l4 30q130 36 266 129h56z" />
    <glyph glyph-name="u" unicode="u" horiz-adv-x="636" 
d="M565 173q-5 -27 -5 -42q0 -25 14 -43t41 -21q-13 -42 -58.5 -64.5t-94.5 -22.5q-39 0 -72 14.5t-46 42.5q-34 -30 -76 -43.5t-97 -13.5q-75 0 -117 23t-42 93q0 39 15 127q1 11 3 21.5t3 20.5l40 245l248 24l-62 -309q-2 -14 -4 -21q-15 -79 -15 -113q0 -45 24 -45
q26 0 41.5 33.5t21.5 73.5l60 357l245 24z" />
    <glyph glyph-name="v" unicode="v" horiz-adv-x="565" 
d="M41 380q-8 50 -16.5 73.5t-24.5 34.5q32 23 64 32.5t68 9.5q77 0 108 -36t37 -114q1 -24 1 -91q0 -113 -1 -208q55 48 84 151t29 200q0 36 -7 56q37 42 99 42q43 0 74.5 -21.5t31.5 -71.5q0 -48 -35.5 -125.5t-84.5 -144.5q-88 -119 -168 -167l-233 -24q-7 279 -26 404z
" />
    <glyph glyph-name="w" unicode="w" horiz-adv-x="873" 
d="M41 380q-8 50 -16.5 73.5t-24.5 34.5q33 23 64.5 32.5t68.5 9.5q80 0 110.5 -37.5t33.5 -112.5q2 -58 2 -139l-1 -160q52 48 74 147t22 203q0 37 -7 57q36 42 106 42q48 0 74.5 -19.5t38 -54.5t15.5 -93q1 -14 1 -119v-99v-64q53 48 75 147.5t22 202.5q0 34 -7 57
q35 42 99 42q43 0 74 -21.5t31 -71.5q0 -48 -35.5 -126t-84.5 -144q-36 -50 -80.5 -95t-91.5 -72l-171 -23q1 27 1 106q0 64 -1 99q-7 -32 -33 -69.5t-62 -68t-71 -44.5l-200 -24q-7 279 -26 404z" />
    <glyph glyph-name="x" unicode="x" horiz-adv-x="561" 
d="M90.5 414.5q-13.5 18.5 -36.5 21.5q16 46 59 70t97 24q46 0 72.5 -17t42.5 -55l50 -115q24 2 31.5 22.5t7.5 54.5q0 53 -29 86q44 24 98 24q102 0 102 -93q0 -52 -28 -85t-82 -53l-73 -31l47 -120q26 -71 64 -74q-16 -46 -59 -70t-97 -24q-48 0 -73.5 15t-41.5 57
l-52 135q-51 -8 -51 -96q0 -55 28 -87q-42 -24 -97 -24q-102 0 -102 95q0 110 116 152l78 34l-44 101q-14 34 -27.5 52.5z" />
    <glyph glyph-name="y" unicode="y" horiz-adv-x="542" 
d="M94.5 -25.5q28.5 34.5 78.5 63.5l-101 -6q-5 128 -9.5 202.5t-13.5 145.5q-5 48 -14.5 72t-26.5 36q32 23 64 32.5t68 9.5q52 0 81 -16.5t42 -48.5t17 -85q2 -36 2 -57v-34l-1 -161q47 61 76 142.5t29 161.5q0 33 -7 56q35 42 98 42q43 0 74.5 -21.5t31.5 -71.5
t-41.5 -118t-84 -116.5t-96.5 -106.5q-35 -35 -50.5 -52.5t-27.5 -42.5t-12 -56q0 -28 16 -52.5t42 -38.5q-28 -28 -68 -41t-83 -13q-51 0 -81.5 24t-30.5 71q0 45 28.5 79.5z" />
    <glyph glyph-name="z" unicode="z" horiz-adv-x="487" 
d="M175 345q-80 0 -99 -53q-20 23 -31 57t-11 67q0 60 37.5 87t100.5 27q33 0 78 -6t53 -7q86 -12 114 -12q36 0 57 11q30 -28 30 -68q0 -37 -21.5 -65t-60.5 -54l-232 -124q41 -13 68.5 -19.5t51.5 -6.5q33 0 66 11.5t54 34.5q33 -37 33 -97q0 -74 -41 -112t-114 -38
q-24 0 -47 4t-60 12q-6 1 -40 8t-65 7q-27 0 -67 -9q-19 12 -29 29.5t-10 45.5q0 37 18.5 66t52.5 54l238 127q-71 23 -124 23z" />
    <glyph glyph-name="braceleft" unicode="{" horiz-adv-x="370" 
d="M518 792l-13 -65h-33q-45 0 -70.5 -19.5t-33.5 -63.5l-42 -231q-9 -46 -38.5 -66.5t-93.5 -28.5q54 -7 75.5 -22t21.5 -51q0 -16 -4 -42l-41 -207q-7 -32 -7 -51q0 -34 19 -52.5t54 -18.5h33l-12 -66q-67 -8 -116 -8q-155 0 -155 87q0 20 5 40l47 242q4 24 4 40
q0 31 -23 47.5t-68 16.5l16 79q55 0 84 21t38 69l45 246q12 60 59.5 86t136.5 26q60 0 112 -8z" />
    <glyph glyph-name="bar" unicode="|" horiz-adv-x="266" 
d="M321 800l-192 -1000h-165l197 1000h160z" />
    <glyph glyph-name="braceright" unicode="}" horiz-adv-x="355" 
d="M-19 -107.5q25 19.5 34 63.5l49 257q9 46 38.5 66.5t93.5 27.5q-54 8 -75 23t-21 50q0 27 4 43l36 196q4 18 4 31q0 76 -74 76h-33l13 66q67 8 114 8q70 0 110.5 -22.5t40.5 -77.5q0 -12 -3 -32t-7 -43.5t-6 -37.5q-4 -23 -9.5 -55t-12.5 -76q-4 -22 -4 -39
q1 -33 23 -48.5t67 -15.5l-16 -79q-54 0 -83.5 -21t-38.5 -69l-53 -272q-11 -60 -58.5 -86t-136.5 -26q-60 0 -112 8l12 65h34q45 0 70 19.5z" />
    <glyph glyph-name="asciitilde" unicode="~" 
d="M509 235q0 -33 -31 -53.5t-85 -20.5q-46 0 -130 20q-35 9 -58 13t-43 4q-26 0 -48.5 -8t-32.5 -21q-23 29 -23 57q0 33 31 53.5t85 20.5q29 0 58.5 -5t70.5 -15q70 -17 102 -17q26 0 48.5 8t32.5 21q23 -29 23 -57z" />
    <glyph glyph-name="uni00A0" unicode="&#xa0;" horiz-adv-x="181" 
 />
    <glyph glyph-name="exclamdown" unicode="&#xa1;" horiz-adv-x="378" 
d="M355 507q32 -23 32 -62q0 -40 -33 -62t-86 -22t-85.5 21.5t-32.5 60.5q0 40 35 63.5t87 23.5q51 0 83 -23zM117 -171q-55 0 -84 30.5t-29 84.5q0 38 13 74.5t39 89.5q28 59 43 102t16 90q24 29 74 29q44 0 69 -21t25 -56q0 -1 0 1t-1 -4l-78 -404q-40 -16 -87 -16z" />
    <glyph glyph-name="cent" unicode="&#xa2;" 
d="M548 561q36 -26 36 -77q0 -55 -39 -80.5t-99 -25.5q-33 0 -46 5q8 23 14 56.5t6 58.5q0 19 -3.5 28t-16.5 9q-33 0 -59 -47.5t-41 -112t-15 -107.5q0 -38 16 -57.5t54 -19.5q39 0 76.5 19t53.5 53q22 -13 31 -27t9 -37q0 -63 -53.5 -101t-121.5 -50l-3 -17
q-9 -46 -25 -63t-51 -17q-27 0 -47 5l18 91q-92 13 -138 68t-46 158q0 135 77 217.5t214 99.5l3 17q9 47 24.5 63.5t50.5 16.5q23 0 45 -5l-18 -90q58 -5 94 -31z" />
    <glyph glyph-name="sterling" unicode="&#xa3;" 
d="M382 561q-16 -30 -24 -98l-10 -63h104q6 -16 6 -31q0 -22 -20 -36t-61 -14h-43l-6 -19q-19 -61 -41.5 -87t-68.5 -42q92 -6 178 -6q39 0 61 6.5t43 21.5q22 -18 22 -54q0 -38 -21 -73t-60 -56.5t-88 -21.5q-37 0 -152 13q-94 10 -117 10q-20 0 -47.5 -2.5t-36.5 -8.5
q-28 20 -28 60q0 43 28 64t46.5 57t32.5 85l15 53h-61q-6 13 -6 29q0 24 19.5 38t51.5 14h11l13 70q9 54 48 97t101 68t138 25q87 0 150.5 -25.5t63.5 -95.5q0 -34 -19.5 -60.5t-51 -41t-65.5 -14.5q-27 0 -63 9q6 12 13.5 47t7.5 59q0 53 -32 53q-15 0 -31 -30z" />
    <glyph glyph-name="currency" unicode="&#xa4;" 
d="M488 227l62 -55l-60 -71l-72 71q-54 -25 -133 -25q-61 0 -100 11l-63 -63l-66 66l53 48q-23 38 -23 101q0 86 48 140l-61 54l55 75l78 -77q50 22 115 22q58 0 95 -11l70 69l65 -66l-56 -52q30 -39 30 -108q0 -80 -37 -129zM345.5 280.5q16.5 23.5 16.5 59.5q0 35 -15 54
t-38 19q-26 0 -43 -24.5t-17 -64.5q0 -67 49 -67q31 0 47.5 23.5z" />
    <glyph glyph-name="brokenbar" unicode="&#xa6;" horiz-adv-x="266" 
d="M80 388l54 272h160l-51 -272h-163zM3 0l54 272h163l-52 -272h-165z" />
    <glyph glyph-name="section" unicode="&#xa7;" horiz-adv-x="470" 
d="M441.5 655.5q41.5 -24.5 41.5 -80.5q0 -44 -25 -70t-71 -26q-27 0 -45 11q16 37 16 76q0 26 -8 44t-27 18q-16 0 -28.5 -13t-20 -30.5t-7.5 -30.5q0 -20 17 -35t53 -38q51 -31 78 -58.5t27 -71.5q0 -34 -19 -73.5t-53 -73.5t-78 -51q-4 3 20 -17q22 -17 31 -26.5
t13.5 -23.5t4.5 -39q0 -104 -64 -165.5t-170 -61.5q-66 0 -107.5 24.5t-41.5 81.5q0 43 25 68.5t72 25.5q26 0 44 -11q-14 -29 -14 -75q0 -30 9.5 -46t28.5 -16q24 0 38.5 24t14.5 47q0 22 -17 37.5t-52 36.5q-34 21 -55.5 38t-37 43.5t-15.5 63.5q0 59 39 109.5t109 77.5
q-28 24 -41 37.5t-19.5 31.5t-6.5 47q0 101 65 158t170 57q65 0 106.5 -24.5zM176 263q0 -14 17.5 -34.5t51.5 -43.5q17 9 26 21.5t9 25.5q0 16 -15 37t-48 44q-41 -25 -41 -50z" />
    <glyph glyph-name="dieresis" unicode="&#xa8;" horiz-adv-x="469" 
d="M59 581zM536 734q33 -24 33 -65q0 -42 -34.5 -65t-90.5 -23t-90 22.5t-34 63.5q0 42 36.5 66.5t91.5 24.5t88 -24zM275 734q33 -24 33 -65q0 -42 -34.5 -65t-90.5 -23t-90 22.5t-34 63.5q0 42 36.5 66.5t91.5 24.5t88 -24z" />
    <glyph glyph-name="copyright" unicode="&#xa9;" horiz-adv-x="788" 
d="M87.5 393.5q54.5 100.5 155.5 160.5t236 60q129 0 202.5 -71t73.5 -198q0 -117 -53.5 -213t-155 -152t-241.5 -56q-131 0 -201.5 64.5t-70.5 185.5q0 119 54.5 219.5zM187 45.5q47 -48.5 150 -48.5t173 43.5t104 115.5t34 159q0 109 -53.5 166t-153.5 57q-92 0 -160 -43
t-104.5 -119.5t-36.5 -176.5q0 -105 47 -153.5zM382 369q-20 -58 -20 -130q0 -32 12 -45.5t35 -13.5q49 0 73 50q13 -8 19 -24t6 -34q0 -46 -40.5 -71.5t-100.5 -25.5q-73 0 -108 40.5t-35 121.5q0 111 61 171.5t163 60.5q57 0 84.5 -20.5t27.5 -55.5q0 -36 -26.5 -55.5
t-72.5 -19.5q-12 0 -19 3q5 12 9.5 36t4.5 40t-4.5 23t-15.5 7q-33 0 -53 -58z" />
    <glyph glyph-name="ordfeminine" unicode="&#xaa;" horiz-adv-x="461" 
d="M457 422q-4 -16 -4 -28q0 -19 10 -35.5t24 -16.5q-8 -24 -39.5 -43t-66.5 -19q-27 0 -48.5 11t-29.5 29q-14 -17 -39.5 -28.5t-59.5 -11.5q-66 0 -102 46.5t-36 123.5q0 69 29.5 120t80 77.5t113.5 26.5q44 0 70 -14l146 17zM277 634q-14 -16 -26.5 -61.5t-23.5 -131.5
q0 -7 -2 -21q-2 -30 -2 -48q0 -27 5 -42.5t19 -15.5q21 0 32 24t17 61l41 241q-10 10 -29 10q-17 0 -31 -16zM426 213q0 -26 -15.5 -41.5t-45.5 -15.5h-306q-3 14 -3 24q0 26 16 42t40 16h311q3 -12 3 -25z" />
    <glyph glyph-name="guillemotleft" unicode="&#xab;" horiz-adv-x="548" 
d="M189 510h131l-124 -193l47 -191h-127l-99 191zM433 510h131l-124 -193l47 -191h-127l-99 191z" />
    <glyph glyph-name="logicalnot" unicode="&#xac;" 
d="M449.5 -2q-13.5 -1 -27.5 -1q-36 0 -51 12t-15 43q0 14 5 44l17 91h-326q-5 13 -5 28q0 36 22.5 58.5t56.5 22.5h401l-56 -295q-8 -2 -21.5 -3z" />
    <glyph glyph-name="uni00AD" unicode="&#xad;" horiz-adv-x="344" 
d="M279 305q8 6 12 20q20 -8 30 -29.5t10 -44.5q0 -30 -18.5 -49t-49.5 -19h-160q-22 0 -29.5 -5.5t-11.5 -15t-6 -12.5q-22 13 -33 35t-11 47q0 29 15 48t45 19h181q18 0 26 6z" />
    <glyph glyph-name="registered" unicode="&#xae;" horiz-adv-x="758" 
d="M681.5 608q73.5 -71 73.5 -198q0 -117 -53.5 -213t-155 -152t-241.5 -56q-131 0 -201.5 64.5t-70.5 185.5q0 119 54.5 219.5t155.5 160.5t236 60q129 0 202.5 -71zM285.5 560q-69.5 -43 -109 -120.5t-39.5 -175.5q0 -105 48 -153.5t152 -48.5t174.5 43.5t105 115.5
t34.5 158q0 109 -54.5 166.5t-153.5 57.5q-88 0 -157.5 -43zM550 506.5q31 -22.5 31 -67.5t-26.5 -75.5t-71.5 -42.5q3 -43 21 -70.5t46 -34.5q-6 -36 -27.5 -55t-52.5 -19q-26 0 -43 16.5t-28 61t-15 127.5h5q38 0 59 23t21 63q0 56 -45 56q-3 0 -8 -0.5t-16 -0.5l-59 -337
h-118l69 372q33 3 73 4.5t72 1.5q82 0 113 -22.5z" />
    <glyph glyph-name="macron" unicode="&#xaf;" horiz-adv-x="357" 
d="M428 682q0 -29 -20.5 -47.5t-59.5 -18.5h-245q-3 9 -3 28q1 30 21 49t50 19h253q4 -16 4 -30z" />
    <glyph glyph-name="degree" unicode="&#xb0;" horiz-adv-x="354" 
d="M94 402.5q-36 32.5 -36 95.5q0 57 29 99.5t76 64.5t99 22q63 0 98.5 -32.5t35.5 -96.5q0 -57 -28.5 -99t-75 -64t-99.5 -22q-63 0 -99 32.5zM266 469.5q24 36.5 24 82.5q0 29 -10.5 46.5t-33.5 17.5q-35 0 -56.5 -38t-21.5 -84q0 -61 41 -61q33 0 57 36.5z" />
    <glyph glyph-name="plusminus" unicode="&#xb1;" 
d="M289 445.5q23 20.5 61 20.5q21 0 41 -7l-19 -107h121q5 -22 5 -33q0 -34 -21.5 -52.5t-63.5 -18.5h-62l-13 -65q-13 -65 -81 -65q-26 0 -48 7l24 123h-129q-4 15 -4 24q0 35 22 57.5t57 22.5h73l8 42q6 31 29 51.5zM462 59q0 -31 -21.5 -48t-62.5 -17h-326q-4 16 -4 29
q0 33 19.5 51t54.5 18h334q6 -22 6 -33z" />
    <glyph glyph-name="uni00B2" unicode="&#xb2;" horiz-adv-x="338" 
d="M329.5 657.5q35.5 -22.5 35.5 -71.5q0 -31 -18 -57t-54 -50q-23 -16 -62.5 -39.5t-60.5 -32.5q53 -8 101 -8q21 0 36 4t25 15q11 -15 14.5 -26.5t3.5 -24.5q0 -81 -113 -81q-31 0 -54.5 4.5t-27.5 5.5q-30 6 -40 6q-22 0 -27 -10q-9 8 -15 25.5t-6 36.5q0 20 6.5 33
t26 30t70.5 56l35 27q45 32 45 57q0 20 -10 27.5t-27 7.5q-27 0 -49 -14t-30 -34q-15 -1 -26.5 13.5t-11.5 34.5q0 40 46 64t102 24q50 0 85.5 -22.5z" />
    <glyph glyph-name="uni00B3" unicode="&#xb3;" horiz-adv-x="310" 
d="M203.5 533q18.5 12 18.5 28q0 14 -11.5 22.5t-30.5 8.5q-18 0 -33.5 -7t-33.5 -22q-10 -1 -15.5 8t-5.5 23q0 43 46 65t96 22q46 0 75.5 -19.5t29.5 -56.5q0 -32 -22.5 -59.5t-66.5 -45.5q33 -10 51 -35t18 -59q0 -54 -45.5 -89.5t-127.5 -35.5q-53 0 -78.5 16t-25.5 44
q0 16 7.5 30.5t16.5 23.5q16 -37 68 -37q27 0 43.5 13.5t16.5 37.5q0 21 -14.5 34.5t-45.5 13.5l12 56q39 8 57.5 20z" />
    <glyph glyph-name="acute" unicode="&#xb4;" horiz-adv-x="309" 
d="M337 779q38 -14 38 -70q0 -53 -35.5 -78t-98.5 -34l-129 -20l-23 52z" />
    <glyph glyph-name="uni00B5" unicode="&#xb5;" horiz-adv-x="646" 
d="M0 0zM643 534l-68 -361q-5 -27 -5 -42q0 -25 14 -43t41 -21q-13 -42 -58.5 -64.5t-94.5 -22.5q-39 0 -72 14.5t-46 42.5q-19 -15 -38 -24t-57 -23q-11 -4 -31 -13l-26 -157l-243 -24l82 422l8 36q21 93 21 123q0 28 -14.5 45.5t-41.5 20.5q14 42 59.5 64.5t98.5 22.5
q62 0 100.5 -30.5t38.5 -87.5q0 -25 -7.5 -61.5t-22.5 -96.5t-22.5 -96t-7.5 -61q0 -14 4 -23t15 -9q23 0 43 33.5t34 109.5l52 302z" />
    <glyph glyph-name="paragraph" unicode="&#xb6;" horiz-adv-x="776" 
d="M318.5 -154q-46.5 -46 -129.5 -46q-54 0 -85.5 20.5t-31.5 56.5q0 11 4 18q44 -19 92 -19q52 0 75 29t36 90l54 273q-40 -15 -97 -15q-143 0 -143 153q0 84 41 144.5t112 92.5t160 32q54 0 101 -15l-129 -684q-13 -84 -59.5 -130zM803 664q-5 -44 -24.5 -62.5
t-60.5 -18.5q-28 0 -43 5l-108 -588l-110 -20l134 680h113q70 0 99 4z" />
    <glyph glyph-name="periodcentered" unicode="&#xb7;" horiz-adv-x="268" 
d="M225 284q32 -23 32 -62q0 -40 -33 -62t-86 -22t-85.5 21.5t-32.5 60.5q0 40 35 63.5t87 23.5q51 0 83 -23z" />
    <glyph glyph-name="cedilla" unicode="&#xb8;" horiz-adv-x="456" 
d="M352.5 -74.5q32.5 -20.5 32.5 -62.5q0 -36 -23.5 -64t-64 -43.5t-87.5 -15.5q-46 0 -72.5 15t-26.5 40q0 15 5 31.5t14 27.5q10 -17 25 -25.5t41 -8.5q15 0 28 9.5t13 27.5q0 33 -39 33q-16 0 -44 -2l37 123h94l-19 -65h3q51 0 83.5 -20.5z" />
    <glyph glyph-name="uni00B9" unicode="&#xb9;" horiz-adv-x="313" 
d="M323 359q3 -7 3 -23q0 -26 -18.5 -37t-62.5 -11q-11 0 -57 2q-99 3 -118 3h-33q-1 4 -1.5 8.5t-0.5 5.5q0 25 12.5 39.5t33.5 14.5h38l49 204q-8 -8 -24 -13.5t-29 -5.5q-22 0 -36.5 15.5t-16.5 39.5q42 7 87 23t124 51l29 -22l-52 -291h6q25 0 64 6q0 -2 3 -9zM35 307z
" />
    <glyph glyph-name="ordmasculine" unicode="&#xba;" horiz-adv-x="447" 
d="M392 335.5q-69 -55.5 -174 -55.5q-85 0 -124 40t-39 118q0 67 26.5 120.5t79 84.5t127.5 31q173 0 173 -171q0 -112 -69 -167.5zM273.5 372.5q15.5 56.5 24 125t8.5 93.5q0 45 -24 45t-39.5 -54.5t-23 -120.5t-7.5 -98q0 -22 5 -34.5t19 -12.5q22 0 37.5 56.5zM37 167.5
q-2 6.5 -2 14.5q0 23 16.5 39.5t39.5 16.5h283q1 -2 3 -9t2 -15q0 -25 -16.5 -41.5t-47.5 -16.5h-275q-1 5 -3 11.5z" />
    <glyph glyph-name="guillemotright" unicode="&#xbb;" horiz-adv-x="571" 
d="M286 317l-171 -191h-126l118 191l-52 193h132zM530 317l-171 -191h-126l118 191l-52 193h132z" />
    <glyph glyph-name="onequarter" unicode="&#xbc;" horiz-adv-x="794" 
d="M551 720q28 0 40 -6.5t12 -25.5q0 -17 -9 -39l-322 -737q-9 -3 -33 -3q-47 0 -47 30q0 10 6 27l326 752q14 2 27 2zM251 353h6q21 0 37 2.5t21 2.5q7 -14 7 -32q0 -25 -17.5 -36t-60.5 -11q-12 0 -48 2q-81 3 -94 3h-19q-15 0 -23 -1q-2 8 -2 15q0 23 12 39t31 16h28
l49 211q-14 -18 -44 -18q-25 0 -40 17.5t-18 36.5q43 6 91.5 24t127.5 55l11 -28zM731 380q-33 -138 -49 -228q22 2 32 5t19 9q13 -22 13 -45q0 -48 -78 -54l-10 -67q-15 -12 -41 -12q-27 0 -40.5 10.5t-13.5 30.5q0 15 2 23l3 17q-60 3 -124 19l-3 75l210 225zM582 151
q12 56 39 137l-120 -132q45 -5 81 -5z" />
    <glyph glyph-name="onehalf" unicode="&#xbd;" horiz-adv-x="822" 
d="M551 720q28 0 40 -6.5t12 -25.5q0 -17 -9 -39l-322 -737q-9 -3 -33 -3q-47 0 -47 30q0 10 6 27l326 752q14 2 27 2zM251 353h6q21 0 37 2.5t21 2.5q7 -14 7 -32q0 -25 -17.5 -36t-60.5 -11q-12 0 -48 2q-81 3 -94 3h-19q-15 0 -23 -1q-2 8 -2 15q0 23 12 39t31 16h28
l49 211q-14 -18 -44 -18q-25 0 -40 17.5t-18 36.5q43 6 91.5 24t127.5 55l11 -28zM640 266q0 20 -10 27.5t-27 7.5q-27 0 -49 -14t-30 -34q-15 -1 -26.5 13.5t-11.5 34.5q0 40 46 64t102 24q50 0 85.5 -22.5t35.5 -71.5q0 -31 -18 -57t-54 -50q-23 -16 -62.5 -39.5
t-60.5 -32.5q53 -8 101 -8q21 0 36 4t25 15q11 -15 14.5 -26.5t3.5 -24.5q0 -81 -113 -81q-31 0 -54.5 4.5t-27.5 5.5q-30 6 -40 6q-22 0 -27 -10q-9 8 -15 25.5t-6 36.5q0 23 10.5 39.5t33.5 34.5l94 72q45 32 45 57z" />
    <glyph glyph-name="threequarters" unicode="&#xbe;" horiz-adv-x="789" 
d="M546 720q28 0 40 -6.5t12 -25.5q0 -17 -9 -39l-321 -737q-9 -3 -33 -3q-48 0 -48 30q0 10 6 27l326 752q14 2 27 2zM208 554q0 15 -12 23.5t-32 8.5q-34 0 -66 -31q-21 1 -21 32q0 45 45.5 66.5t97.5 21.5q46 0 76 -19.5t30 -56.5q0 -33 -23 -61t-67 -45q36 -12 53.5 -38
t17.5 -58q0 -34 -20.5 -63.5t-60 -47.5t-95.5 -18q-54 0 -80 16.5t-26 44.5q0 16 7 31.5t18 25.5q8 -20 27 -30t41 -10q27 0 43.5 14.5t16.5 38.5q0 49 -60 49l13 58q77 13 77 48zM726 380q-33 -138 -49 -228q22 2 32 5t19 9q13 -22 13 -45q0 -48 -78 -54l-10 -67
q-15 -12 -41 -12q-27 0 -40.5 10.5t-13.5 30.5q0 15 2 23l3 17q-60 3 -124 19l-3 75l210 225zM577 151q12 56 39 137l-120 -132q45 -5 81 -5z" />
    <glyph glyph-name="questiondown" unicode="&#xbf;" horiz-adv-x="542" 
d="M501 507q32 -23 32 -62q0 -40 -33 -62t-86 -22t-85.5 21.5t-32.5 60.5q0 40 35 63.5t87 23.5q51 0 83 -23zM10.5 54q34.5 45 82.5 78.5t122 75.5q74 43 108 69.5t34 53.5q29 0 50.5 -27.5t21.5 -68.5t-18 -71t-43 -49.5t-68 -46.5q-38 -23 -60.5 -40t-37.5 -41.5
t-15 -56.5q0 -20 7 -30t28 -10q37 0 58.5 29t21.5 71q0 27 -9 46q23 6 68 6q125 0 125 -81q0 -67 -83 -99t-188 -32q-110 0 -174.5 28.5t-64.5 97.5q0 53 34.5 98z" />
    <glyph glyph-name="Agrave" unicode="&#xc0;" horiz-adv-x="615" 
d="M0 0zM556 199q4 -56 18.5 -97.5t41.5 -56.5q-18 -30 -53 -47.5t-82 -17.5q-62 0 -98 27.5t-53 85.5q-1 5 -4.5 17.5t-7.5 45.5h-166q-40 -98 -56 -156h-152l323 660h264zM203 280l-19 -41h131l-13 251q-41 -80 -99 -210zM512 710l-121 3q-65 2 -105.5 26t-40.5 73
q0 20 8 33.5t23 24.5l250 -108z" />
    <glyph glyph-name="Aacute" unicode="&#xc1;" horiz-adv-x="615" 
d="M0 0zM556 199q4 -56 18.5 -97.5t41.5 -56.5q-18 -30 -53 -47.5t-82 -17.5q-62 0 -98 27.5t-53 85.5q-1 5 -4.5 17.5t-7.5 45.5h-166q-40 -98 -56 -156h-152l323 660h264zM203 280l-19 -41h131l-13 251q-41 -80 -99 -210zM317 760l250 109q16 -12 23.5 -25.5t7.5 -33.5
q0 -49 -41 -73t-106 -25l-120 -3z" />
    <glyph glyph-name="Acircumflex" unicode="&#xc2;" horiz-adv-x="615" 
d="M0 0zM556 199q4 -56 18.5 -97.5t41.5 -56.5q-18 -30 -53 -47.5t-82 -17.5q-62 0 -98 27.5t-53 85.5q-1 5 -4.5 17.5t-7.5 45.5h-166q-40 -98 -56 -156h-152l323 660h264zM203 280l-19 -41h131l-13 251q-41 -80 -99 -210zM601 734l-55 -45l-123 37l-157 -37l-33 45
l180 120h45z" />
    <glyph glyph-name="Atilde" unicode="&#xc3;" horiz-adv-x="615" 
d="M0 0zM556 199q4 -56 18.5 -97.5t41.5 -56.5q-18 -30 -53 -47.5t-82 -17.5q-62 0 -98 27.5t-53 85.5q-1 5 -4.5 17.5t-7.5 45.5h-166q-40 -98 -56 -156h-152l323 660h264zM203 280l-19 -41h131l-13 251q-41 -80 -99 -210zM626 801q0 -39 -28 -59.5t-78 -20.5
q-32 0 -126 10q-74 9 -98 9q-20 0 -41 -5.5t-31 -12.5q-22 29 -22 62q0 35 28 54t80 19q26 0 70.5 -4t57.5 -5q82 -8 102 -8q47 0 65 17q21 -25 21 -56z" />
    <glyph glyph-name="Adieresis" unicode="&#xc4;" horiz-adv-x="615" 
d="M0 0zM556 199q4 -56 18.5 -97.5t41.5 -56.5q-18 -30 -53 -47.5t-82 -17.5q-62 0 -98 27.5t-53 85.5q-1 5 -4.5 17.5t-7.5 45.5h-166q-40 -98 -56 -156h-152l323 660h264zM203 280l-19 -41h131l-13 251q-41 -80 -99 -210zM363 836q32 -23 32 -62q0 -40 -33 -62t-86 -22
t-85.5 21.5t-32.5 60.5q0 40 35 63.5t87 23.5q51 0 83 -23zM612 836q32 -23 32 -62q0 -40 -33 -62t-86 -22t-85.5 21.5t-32.5 60.5q0 40 35 63.5t87 23.5q51 0 83 -23z" />
    <glyph glyph-name="Aring" unicode="&#xc5;" horiz-adv-x="615" 
d="M0 0zM556 199q4 -56 18.5 -97.5t41.5 -56.5q-18 -30 -53 -47.5t-82 -17.5q-62 0 -98 27.5t-53 85.5q-1 5 -4.5 17.5t-7.5 45.5h-166q-40 -98 -56 -156h-152l323 660h264zM203 280l-19 -41h131l-13 251q-41 -80 -99 -210zM489.5 715.5q-39.5 -25.5 -94.5 -25.5
q-43 0 -69 18.5t-26 50.5q0 43 41 69t98 26q41 0 65.5 -18t24.5 -52q0 -43 -39.5 -68.5zM450.5 805.5q-6.5 7.5 -21.5 7.5q-28 0 -42 -14t-14 -39q0 -17 7 -24.5t24 -7.5q53 0 53 53q0 17 -6.5 24.5z" />
    <glyph glyph-name="AE" unicode="&#xc6;" horiz-adv-x="803" 
d="M143 64q-13 -33 -28 -64h-176l402 660h521q0 -69 -34.5 -104.5t-92.5 -35.5q-55 0 -110 27l-26 -155h191q0 -60 -27.5 -93.5t-78.5 -33.5q-22 0 -50 6.5t-50 18.5q-5 -6 -8.5 -25.5t-3.5 -41.5q0 -43 18 -57.5t67 -14.5q68 0 113 17q10 -27 10 -59q0 -129 -191 -129
q-108 0 -171.5 42.5t-63.5 134.5q0 8 0.5 13.5t-0.5 6.5h-159q-37 -76 -52 -113zM373 314q20 130 39 245q-99 -149 -179 -305h131z" />
    <glyph glyph-name="Ccedilla" unicode="&#xc7;" horiz-adv-x="659" 
d="M483 429q9 47 9 87q0 93 -54 93q-40 0 -72.5 -55.5t-51.5 -131.5t-19 -130q0 -70 33.5 -100.5t104.5 -30.5q54 0 98.5 13t71.5 40q23 -19 23 -70q0 -40 -31 -76t-91 -59.5t-143 -27.5l-10 -35h3q51 0 83.5 -20.5t32.5 -62.5q0 -36 -23.5 -64t-64 -43.5t-87.5 -15.5
q-46 0 -72.5 15t-26.5 40q0 15 5 31.5t14 27.5q10 -17 25 -25.5t41 -8.5q15 0 28 9.5t13 27.5q0 33 -39 33q-16 0 -44 -2l29 96q-118 14 -176 84t-58 201q0 127 51.5 219.5t149.5 142t234 49.5q218 0 218 -116q0 -38 -22 -69.5t-58.5 -49.5t-78.5 -18q-29 0 -45 2z" />
    <glyph glyph-name="Egrave" unicode="&#xc8;" horiz-adv-x="535" 
d="M0 0zM404 529.5q-31 9.5 -44 17.5l-28 -155h177q0 -59 -25.5 -93t-80.5 -34q-30 0 -57 8.5t-34 13.5l-29 -152h73q66 0 109 9q7 -9 10.5 -26.5t3.5 -33.5q0 -84 -136 -84h-348l121 660h480q0 -69 -29 -104.5t-94 -35.5q-38 0 -69 9.5zM455 710l-121 3q-65 2 -105.5 26
t-40.5 73q0 20 8 33.5t23 24.5l250 -108z" />
    <glyph glyph-name="Eacute" unicode="&#xc9;" horiz-adv-x="535" 
d="M0 0zM404 529.5q-31 9.5 -44 17.5l-28 -155h177q0 -59 -25.5 -93t-80.5 -34q-30 0 -57 8.5t-34 13.5l-29 -152h73q66 0 109 9q7 -9 10.5 -26.5t3.5 -33.5q0 -84 -136 -84h-348l121 660h480q0 -69 -29 -104.5t-94 -35.5q-38 0 -69 9.5zM260 760l250 109q16 -12 23.5 -25.5
t7.5 -33.5q0 -49 -41 -73t-106 -25l-120 -3z" />
    <glyph glyph-name="Ecircumflex" unicode="&#xca;" horiz-adv-x="535" 
d="M0 0zM404 529.5q-31 9.5 -44 17.5l-28 -155h177q0 -59 -25.5 -93t-80.5 -34q-30 0 -57 8.5t-34 13.5l-29 -152h73q66 0 109 9q7 -9 10.5 -26.5t3.5 -33.5q0 -84 -136 -84h-348l121 660h480q0 -69 -29 -104.5t-94 -35.5q-38 0 -69 9.5zM544 734l-55 -45l-123 37l-157 -37
l-33 45l180 120h45z" />
    <glyph glyph-name="Edieresis" unicode="&#xcb;" horiz-adv-x="535" 
d="M0 0zM404 529.5q-31 9.5 -44 17.5l-28 -155h177q0 -59 -25.5 -93t-80.5 -34q-30 0 -57 8.5t-34 13.5l-29 -152h73q66 0 109 9q7 -9 10.5 -26.5t3.5 -33.5q0 -84 -136 -84h-348l121 660h480q0 -69 -29 -104.5t-94 -35.5q-38 0 -69 9.5zM306 836q32 -23 32 -62
q0 -40 -33 -62t-86 -22t-85.5 21.5t-32.5 60.5q0 40 35 63.5t87 23.5q51 0 83 -23zM555 836q32 -23 32 -62q0 -40 -33 -62t-86 -22t-85.5 21.5t-32.5 60.5q0 40 35 63.5t87 23.5q51 0 83 -23z" />
    <glyph glyph-name="Igrave" unicode="&#xcc;" horiz-adv-x="339" 
d="M0 0zM386 660l-129 -660h-268l127 660h270zM377 710l-121 3q-65 2 -105.5 26t-40.5 73q0 20 8 33.5t23 24.5l250 -108z" />
    <glyph glyph-name="Iacute" unicode="&#xcd;" horiz-adv-x="339" 
d="M0 0zM386 660l-129 -660h-268l127 660h270zM182 760l250 109q16 -12 23.5 -25.5t7.5 -33.5q0 -49 -41 -73t-106 -25l-120 -3z" />
    <glyph glyph-name="Icircumflex" unicode="&#xce;" horiz-adv-x="339" 
d="M0 0zM386 660l-129 -660h-268l127 660h270zM466 734l-55 -45l-123 37l-157 -37l-33 45l180 120h45z" />
    <glyph glyph-name="Idieresis" unicode="&#xcf;" horiz-adv-x="339" 
d="M0 0zM386 660l-129 -660h-268l127 660h270zM228 836q32 -23 32 -62q0 -40 -33 -62t-86 -22t-85.5 21.5t-32.5 60.5q0 40 35 63.5t87 23.5q51 0 83 -23zM477 836q32 -23 32 -62q0 -40 -33 -62t-86 -22t-85.5 21.5t-32.5 60.5q0 40 35 63.5t87 23.5q51 0 83 -23z" />
    <glyph glyph-name="Eth" unicode="&#xd0;" horiz-adv-x="738" 
d="M3 0zM279 663h43q153 0 238.5 -20t129 -80t43.5 -181q0 -145 -61 -229.5t-175 -120t-285 -35.5q-123 0 -194 3l56 289h-67q-4 10 -4 29q1 31 22.5 52t51.5 21h17l51 269q49 3 134 3zM301 70q79 0 122 74t67 225q12 80 12 142q0 45 -20 63t-66 18q-18 0 -26 -1l-38 -200
h55q5 -22 5 -30q0 -31 -22 -51.5t-60 -20.5h2l-42 -218q8 -1 11 -1z" />
    <glyph glyph-name="Ntilde" unicode="&#xd1;" horiz-adv-x="686" 
d="M0 0zM123 0h-126l119 660h250l162 -423l71 423h128l-123 -660h-277l-139 390zM656 801q0 -39 -28 -59.5t-78 -20.5q-32 0 -126 10q-74 9 -98 9q-20 0 -41 -5.5t-31 -12.5q-22 29 -22 62q0 35 28 54t80 19q26 0 70.5 -4t57.5 -5q82 -8 102 -8q47 0 65 17q21 -25 21 -56z
" />
    <glyph glyph-name="Ograve" unicode="&#xd2;" horiz-adv-x="739" 
d="M36 0zM659.5 607.5q75.5 -72.5 75.5 -225.5q0 -122 -49 -213t-140.5 -140t-216.5 -49q-142 0 -217.5 72.5t-75.5 225.5q0 122 48.5 212.5t140.5 140t217 49.5q142 0 217.5 -72.5zM359.5 531.5q-30.5 -78.5 -51.5 -263.5q-9 -79 -9 -132q0 -41 9.5 -63t36.5 -22
q78 0 118 342q9 79 9 132q0 40 -9 62.5t-34 22.5q-39 0 -69.5 -78.5zM557 710l-121 3q-65 2 -105.5 26t-40.5 73q0 20 8 33.5t23 24.5l250 -108z" />
    <glyph glyph-name="Oacute" unicode="&#xd3;" horiz-adv-x="739" 
d="M36 0zM659.5 607.5q75.5 -72.5 75.5 -225.5q0 -122 -49 -213t-140.5 -140t-216.5 -49q-142 0 -217.5 72.5t-75.5 225.5q0 122 48.5 212.5t140.5 140t217 49.5q142 0 217.5 -72.5zM359.5 531.5q-30.5 -78.5 -51.5 -263.5q-9 -79 -9 -132q0 -41 9.5 -63t36.5 -22
q78 0 118 342q9 79 9 132q0 40 -9 62.5t-34 22.5q-39 0 -69.5 -78.5zM362 760l250 109q16 -12 23.5 -25.5t7.5 -33.5q0 -49 -41 -73t-106 -25l-120 -3z" />
    <glyph glyph-name="Ocircumflex" unicode="&#xd4;" horiz-adv-x="739" 
d="M36 0zM659.5 607.5q75.5 -72.5 75.5 -225.5q0 -122 -49 -213t-140.5 -140t-216.5 -49q-142 0 -217.5 72.5t-75.5 225.5q0 122 48.5 212.5t140.5 140t217 49.5q142 0 217.5 -72.5zM359.5 531.5q-30.5 -78.5 -51.5 -263.5q-9 -79 -9 -132q0 -41 9.5 -63t36.5 -22
q78 0 118 342q9 79 9 132q0 40 -9 62.5t-34 22.5q-39 0 -69.5 -78.5zM646 734l-55 -45l-123 37l-157 -37l-33 45l180 120h45z" />
    <glyph glyph-name="Otilde" unicode="&#xd5;" horiz-adv-x="739" 
d="M36 0zM659.5 607.5q75.5 -72.5 75.5 -225.5q0 -122 -49 -213t-140.5 -140t-216.5 -49q-142 0 -217.5 72.5t-75.5 225.5q0 122 48.5 212.5t140.5 140t217 49.5q142 0 217.5 -72.5zM359.5 531.5q-30.5 -78.5 -51.5 -263.5q-9 -79 -9 -132q0 -41 9.5 -63t36.5 -22
q78 0 118 342q9 79 9 132q0 40 -9 62.5t-34 22.5q-39 0 -69.5 -78.5zM671 801q0 -39 -28 -59.5t-78 -20.5q-32 0 -126 10q-74 9 -98 9q-20 0 -41 -5.5t-31 -12.5q-22 29 -22 62q0 35 28 54t80 19q26 0 70.5 -4t57.5 -5q82 -8 102 -8q47 0 65 17q21 -25 21 -56z" />
    <glyph glyph-name="Odieresis" unicode="&#xd6;" horiz-adv-x="739" 
d="M36 0zM659.5 607.5q75.5 -72.5 75.5 -225.5q0 -122 -49 -213t-140.5 -140t-216.5 -49q-142 0 -217.5 72.5t-75.5 225.5q0 122 48.5 212.5t140.5 140t217 49.5q142 0 217.5 -72.5zM359.5 531.5q-30.5 -78.5 -51.5 -263.5q-9 -79 -9 -132q0 -41 9.5 -63t36.5 -22
q78 0 118 342q9 79 9 132q0 40 -9 62.5t-34 22.5q-39 0 -69.5 -78.5zM408 836q32 -23 32 -62q0 -40 -33 -62t-86 -22t-85.5 21.5t-32.5 60.5q0 40 35 63.5t87 23.5q51 0 83 -23zM657 836q32 -23 32 -62q0 -40 -33 -62t-86 -22t-85.5 21.5t-32.5 60.5q0 40 35 63.5t87 23.5
q51 0 83 -23z" />
    <glyph glyph-name="multiply" unicode="&#xd7;" 
d="M443 123q12 -16 12 -37q0 -32 -24 -54t-60 -23l-97 133l-99 -101q-15 -15 -31 -22.5t-37 -7.5q-52 0 -69 51l169 172l-67 92q-15 20 -15 47q0 31 19.5 52t55.5 29l101 -138l97 100q32 32 70 32q24 0 38.5 -13.5t21.5 -43.5l-161 -165z" />
    <glyph glyph-name="Oslash" unicode="&#xd8;" horiz-adv-x="739" 
d="M735 382q0 -122 -49 -213t-140.5 -140t-216.5 -49q-97 0 -162 31q-34 -40 -50 -71q-28 0 -46 18.5t-19 50.5q0 20 7 39t20 33l3 4q-46 72 -46 193q0 122 48.5 212.5t140.5 140t217 49.5q83 0 139 -21q34 37 51 66q26 0 45.5 -24t19.5 -53q0 -38 -30 -68l11 11
q57 -75 57 -209zM472 532q-2 37 -10 57.5t-33 20.5q-26 0 -43 -23.5t-30.5 -74t-33.5 -152.5zM397.5 96.5q21.5 45.5 33 99.5t26.5 145l-158 -180q-1 -54 6.5 -82t39.5 -28q31 0 52.5 45.5z" />
    <glyph glyph-name="Ugrave" unicode="&#xd9;" horiz-adv-x="647" 
d="M18 0zM621 248q-26 -139 -107.5 -203.5t-233.5 -64.5q-116 0 -189 37.5t-73 126.5q0 20 4 54.5t9 60.5l77 401h272l-77 -415q-1 -7 -8 -45.5t-7 -62.5q0 -29 12 -43t40 -14q31 0 50 18t29.5 50t21.5 88l84 424h174zM541 710l-121 3q-65 2 -105.5 26t-40.5 73q0 20 8 33.5
t23 24.5l250 -108z" />
    <glyph glyph-name="Uacute" unicode="&#xda;" horiz-adv-x="647" 
d="M18 0zM621 248q-26 -139 -107.5 -203.5t-233.5 -64.5q-116 0 -189 37.5t-73 126.5q0 20 4 54.5t9 60.5l77 401h272l-77 -415q-1 -7 -8 -45.5t-7 -62.5q0 -29 12 -43t40 -14q31 0 50 18t29.5 50t21.5 88l84 424h174zM346 760l250 109q16 -12 23.5 -25.5t7.5 -33.5
q0 -49 -41 -73t-106 -25l-120 -3z" />
    <glyph glyph-name="Ucircumflex" unicode="&#xdb;" horiz-adv-x="647" 
d="M18 0zM621 248q-26 -139 -107.5 -203.5t-233.5 -64.5q-116 0 -189 37.5t-73 126.5q0 20 4 54.5t9 60.5l77 401h272l-77 -415q-1 -7 -8 -45.5t-7 -62.5q0 -29 12 -43t40 -14q31 0 50 18t29.5 50t21.5 88l84 424h174zM630 734l-55 -45l-123 37l-157 -37l-33 45l180 120h45z
" />
    <glyph glyph-name="Udieresis" unicode="&#xdc;" horiz-adv-x="647" 
d="M18 0zM621 248q-26 -139 -107.5 -203.5t-233.5 -64.5q-116 0 -189 37.5t-73 126.5q0 20 4 54.5t9 60.5l77 401h272l-77 -415q-1 -7 -8 -45.5t-7 -62.5q0 -29 12 -43t40 -14q31 0 50 18t29.5 50t21.5 88l84 424h174zM392 836q32 -23 32 -62q0 -40 -33 -62t-86 -22
t-85.5 21.5t-32.5 60.5q0 40 35 63.5t87 23.5q51 0 83 -23zM641 836q32 -23 32 -62q0 -40 -33 -62t-86 -22t-85.5 21.5t-32.5 60.5q0 40 35 63.5t87 23.5q51 0 83 -23z" />
    <glyph glyph-name="Yacute" unicode="&#xdd;" horiz-adv-x="636" 
d="M39 0zM490.5 595.5q64.5 84.5 153.5 84.5q75 0 90 -60q-58 -21 -117.5 -75.5t-110 -136.5t-81.5 -179l-45 -229h-267l55 281q-12 125 -26 188.5t-36.5 95t-66.5 56.5q62 59 158 59q91 0 135.5 -54t44.5 -167q0 -29 -3 -62l-6 -77q58 191 122.5 275.5zM344 760l250 109
q16 -12 23.5 -25.5t7.5 -33.5q0 -49 -41 -73t-106 -25l-120 -3z" />
    <glyph glyph-name="Thorn" unicode="&#xde;" horiz-adv-x="677" 
d="M361 537q4 1 20 1q97 0 164.5 -13t109.5 -53.5t42 -117.5q0 -67 -33 -115t-89.5 -73.5t-127.5 -25.5q-107 0 -134 62q3 1 10 1.5t15 2.5q59 12 95.5 58.5t36.5 113.5q0 51 -23 73.5t-70 22.5q-22 0 -28 -1l-92 -473h-268l127 660h269z" />
    <glyph glyph-name="germandbls" unicode="&#xdf;" horiz-adv-x="822" 
d="M223 669q83 51 212 51q108 0 181 -32t73 -101q0 -25 -20.5 -47t-58.5 -50q-34 -27 -48.5 -41t-14.5 -31q0 -19 17.5 -32.5t57.5 -32.5q18 -8 22 -10q47 -24 76 -42.5t50 -47t21 -67.5q0 -56 -43.5 -103t-111 -74.5t-135.5 -27.5q-69 0 -123.5 28.5t-54.5 84.5
q0 39 24.5 60.5t77.5 21.5q43 0 76 -18q-16 -26 -16 -64q0 -32 12 -49.5t32 -17.5q22 0 36 13t14 38t-22 49.5t-69 62.5l-40 33q-42 35 -66.5 69t-24.5 70q0 44 20.5 73t60.5 64q35 30 52 53t17 54q0 30 -15 49.5t-40 19.5q-73 0 -110 -186l-90 -482q-15 -82 -47 -127.5
t-80 -63.5t-118 -18q-56 0 -87 16t-54 55q12 -2 17 -2q42 0 79.5 40t53.5 112l99 478q25 121 108 172z" />
    <glyph glyph-name="agrave" unicode="&#xe0;" horiz-adv-x="628" 
d="M7 0zM557 173q-5 -27 -5 -42q0 -25 14 -43t41 -21q-13 -42 -58.5 -64.5t-94.5 -22.5q-39 0 -72 14.5t-46 42.5q-28 -26 -70 -41.5t-93 -15.5q-88 0 -127 51.5t-39 150.5q0 107 40 185.5t114.5 120.5t175.5 42q27 0 49 -4t52 -14l187 22zM336 470q-22 0 -39.5 -20
t-33 -77.5t-29.5 -165.5q-6 -48 -6 -88q0 -34 6.5 -53.5t23.5 -19.5q27 0 41 31t21 76l52 305q-13 12 -36 12zM340 597q-63 10 -99 35t-36 77q0 26 9.5 44.5t28.5 25.5l248 -150l-23 -52z" />
    <glyph glyph-name="aacute" unicode="&#xe1;" horiz-adv-x="628" 
d="M7 0zM557 173q-5 -27 -5 -42q0 -25 14 -43t41 -21q-13 -42 -58.5 -64.5t-94.5 -22.5q-39 0 -72 14.5t-46 42.5q-28 -26 -70 -41.5t-93 -15.5q-88 0 -127 51.5t-39 150.5q0 107 40 185.5t114.5 120.5t175.5 42q27 0 49 -4t52 -14l187 22zM336 470q-22 0 -39.5 -20
t-33 -77.5t-29.5 -165.5q-6 -48 -6 -88q0 -34 6.5 -53.5t23.5 -19.5q27 0 41 31t21 76l52 305q-13 12 -36 12zM502 779q38 -14 38 -70q0 -53 -35.5 -78t-98.5 -34l-129 -20l-23 52z" />
    <glyph glyph-name="acircumflex" unicode="&#xe2;" horiz-adv-x="628" 
d="M7 0zM557 173q-5 -27 -5 -42q0 -25 14 -43t41 -21q-13 -42 -58.5 -64.5t-94.5 -22.5q-39 0 -72 14.5t-46 42.5q-28 -26 -70 -41.5t-93 -15.5q-88 0 -127 51.5t-39 150.5q0 107 40 185.5t114.5 120.5t175.5 42q27 0 49 -4t52 -14l187 22zM336 470q-22 0 -39.5 -20
t-33 -77.5t-29.5 -165.5q-6 -48 -6 -88q0 -34 6.5 -53.5t23.5 -19.5q27 0 41 31t21 76l52 305q-13 12 -36 12zM564 633l-55 -45l-123 37l-157 -37l-33 45l180 120h45z" />
    <glyph glyph-name="atilde" unicode="&#xe3;" horiz-adv-x="628" 
d="M7 0zM557 173q-5 -27 -5 -42q0 -25 14 -43t41 -21q-13 -42 -58.5 -64.5t-94.5 -22.5q-39 0 -72 14.5t-46 42.5q-28 -26 -70 -41.5t-93 -15.5q-88 0 -127 51.5t-39 150.5q0 107 40 185.5t114.5 120.5t175.5 42q27 0 49 -4t52 -14l187 22zM336 470q-22 0 -39.5 -20
t-33 -77.5t-29.5 -165.5q-6 -48 -6 -88q0 -34 6.5 -53.5t23.5 -19.5q27 0 41 31t21 76l52 305q-13 12 -36 12zM587 675q0 -39 -28 -60t-77 -21q-40 0 -128 11q-82 8 -97 8q-20 0 -40.5 -5.5t-31.5 -12.5q-22 29 -22 62q0 35 28 54t80 19q24 0 128 -9q84 -8 103 -8
q46 0 64 17q21 -25 21 -55z" />
    <glyph glyph-name="adieresis" unicode="&#xe4;" horiz-adv-x="628" 
d="M7 0zM557 173q-5 -27 -5 -42q0 -25 14 -43t41 -21q-13 -42 -58.5 -64.5t-94.5 -22.5q-39 0 -72 14.5t-46 42.5q-28 -26 -70 -41.5t-93 -15.5q-88 0 -127 51.5t-39 150.5q0 107 40 185.5t114.5 120.5t175.5 42q27 0 49 -4t52 -14l187 22zM336 470q-22 0 -39.5 -20
t-33 -77.5t-29.5 -165.5q-6 -48 -6 -88q0 -34 6.5 -53.5t23.5 -19.5q27 0 41 31t21 76l52 305q-13 12 -36 12zM594 734q33 -24 33 -65q0 -42 -34.5 -65t-90.5 -23t-90 22.5t-34 63.5q0 42 36.5 66.5t91.5 24.5t88 -24zM333 734q33 -24 33 -65q0 -42 -34.5 -65t-90.5 -23
t-90 22.5t-34 63.5q0 42 36.5 66.5t91.5 24.5t88 -24z" />
    <glyph glyph-name="aring" unicode="&#xe5;" horiz-adv-x="628" 
d="M7 0zM557 173q-5 -27 -5 -42q0 -25 14 -43t41 -21q-13 -42 -58.5 -64.5t-94.5 -22.5q-39 0 -72 14.5t-46 42.5q-28 -26 -70 -41.5t-93 -15.5q-88 0 -127 51.5t-39 150.5q0 107 40 185.5t114.5 120.5t175.5 42q27 0 49 -4t52 -14l187 22zM336 470q-22 0 -39.5 -20
t-33 -77.5t-29.5 -165.5q-6 -48 -6 -88q0 -34 6.5 -53.5t23.5 -19.5q27 0 41 31t21 76l52 305q-13 12 -36 12zM289 588.5q-27 20.5 -27 59.5q0 50 42.5 81t100.5 31q44 0 69.5 -20.5t25.5 -59.5q0 -51 -40.5 -81.5t-97.5 -30.5q-46 0 -73 20.5zM409.5 628q15.5 19 15.5 46
q0 19 -8.5 30.5t-25.5 11.5q-22 0 -36 -19.5t-14 -46.5q0 -19 8 -30t24 -11q21 0 36.5 19z" />
    <glyph glyph-name="ae" unicode="&#xe6;" horiz-adv-x="841" 
d="M822 503.5q51 -26.5 51 -99.5q0 -72 -54.5 -111t-178.5 -55q-49 -4 -75 -5q-3 -15 -3 -33q0 -37 18 -55t58 -18q38 0 79.5 15t59.5 40q14 -11 20 -22.5t6 -29.5q0 -45 -32.5 -79t-89.5 -52.5t-129 -18.5q-60 0 -115.5 16t-93.5 69q-37 -85 -162 -85q-94 0 -134 49.5
t-40 150.5q0 107 38 186t109.5 121.5t168.5 42.5q96 0 154 -40q52 23 98 31.5t103 8.5q93 0 144 -26.5zM572 273q65 0 95 44.5t30 112.5q0 25 -5.5 38.5t-23.5 13.5q-63 0 -96 -209zM336 470q-22 0 -39.5 -20t-33 -77.5t-29.5 -165.5q-6 -48 -6 -88q0 -34 6.5 -53.5
t23.5 -19.5q27 0 41 31t21 76l52 305q-13 12 -36 12z" />
    <glyph glyph-name="ccedilla" unicode="&#xe7;" horiz-adv-x="502" 
d="M352 319q8 22 14 54t6 56q0 20 -5.5 31t-19.5 11q-30 0 -55 -47.5t-39.5 -112t-14.5 -107.5q0 -39 16 -58t54 -19q39 0 76 19.5t53 52.5q22 -13 31 -27.5t9 -38.5q0 -63 -56.5 -102t-137.5 -48l-11 -37h3q51 0 83.5 -20.5t32.5 -62.5q0 -36 -23.5 -64t-64 -43.5
t-87.5 -15.5q-46 0 -72.5 15t-26.5 40q0 15 5 31.5t14 27.5q10 -17 25 -25.5t41 -8.5q15 0 28 9.5t13 27.5q0 33 -39 33q-16 0 -44 -2l29 95q-85 12 -131.5 69t-46.5 160q0 100 44 172t123.5 109t184.5 37q174 0 174 -109q0 -55 -38.5 -81t-99.5 -26q-34 0 -47 5z" />
    <glyph glyph-name="egrave" unicode="&#xe8;" horiz-adv-x="531" 
d="M10 0zM496 503q51 -27 51 -99q0 -73 -61 -116t-198 -52q-8 -1 -50 -3q-3 -15 -3 -33q0 -37 18.5 -55t58.5 -18q38 0 79 15t60 40q14 -11 19.5 -22.5t5.5 -29.5q0 -48 -35.5 -82t-90.5 -51t-114 -17q-106 0 -166 57t-60 172q0 90 39 163t118.5 115.5t196.5 42.5
q81 0 132 -27zM245 273q40 0 69 25t44 61.5t15 69.5q0 24 -8 38.5t-23 14.5q-62 0 -97 -209zM325 597q-63 10 -99 35t-36 77q0 26 9.5 44.5t28.5 25.5l248 -150l-23 -52z" />
    <glyph glyph-name="eacute" unicode="&#xe9;" horiz-adv-x="531" 
d="M10 0zM496 503q51 -27 51 -99q0 -73 -61 -116t-198 -52q-8 -1 -50 -3q-3 -15 -3 -33q0 -37 18.5 -55t58.5 -18q38 0 79 15t60 40q14 -11 19.5 -22.5t5.5 -29.5q0 -48 -35.5 -82t-90.5 -51t-114 -17q-106 0 -166 57t-60 172q0 90 39 163t118.5 115.5t196.5 42.5
q81 0 132 -27zM245 273q40 0 69 25t44 61.5t15 69.5q0 24 -8 38.5t-23 14.5q-62 0 -97 -209zM487 779q38 -14 38 -70q0 -53 -35.5 -78t-98.5 -34l-129 -20l-23 52z" />
    <glyph glyph-name="ecircumflex" unicode="&#xea;" horiz-adv-x="531" 
d="M10 0zM496 503q51 -27 51 -99q0 -73 -61 -116t-198 -52q-8 -1 -50 -3q-3 -15 -3 -33q0 -37 18.5 -55t58.5 -18q38 0 79 15t60 40q14 -11 19.5 -22.5t5.5 -29.5q0 -48 -35.5 -82t-90.5 -51t-114 -17q-106 0 -166 57t-60 172q0 90 39 163t118.5 115.5t196.5 42.5
q81 0 132 -27zM245 273q40 0 69 25t44 61.5t15 69.5q0 24 -8 38.5t-23 14.5q-62 0 -97 -209zM549 633l-55 -45l-123 37l-157 -37l-33 45l180 120h45z" />
    <glyph glyph-name="edieresis" unicode="&#xeb;" horiz-adv-x="531" 
d="M10 0zM496 503q51 -27 51 -99q0 -73 -61 -116t-198 -52q-8 -1 -50 -3q-3 -15 -3 -33q0 -37 18.5 -55t58.5 -18q38 0 79 15t60 40q14 -11 19.5 -22.5t5.5 -29.5q0 -48 -35.5 -82t-90.5 -51t-114 -17q-106 0 -166 57t-60 172q0 90 39 163t118.5 115.5t196.5 42.5
q81 0 132 -27zM245 273q40 0 69 25t44 61.5t15 69.5q0 24 -8 38.5t-23 14.5q-62 0 -97 -209zM579 734q33 -24 33 -65q0 -42 -34.5 -65t-90.5 -23t-90 22.5t-34 63.5q0 42 36.5 66.5t91.5 24.5t88 -24zM318 734q33 -24 33 -65q0 -42 -34.5 -65t-90.5 -23t-90 22.5t-34 63.5
q0 42 36.5 66.5t91.5 24.5t88 -24z" />
    <glyph glyph-name="igrave" unicode="&#xec;" horiz-adv-x="326" 
d="M9 0zM250 131q0 -25 14 -43t41 -21q-13 -42 -58.5 -64.5t-99.5 -22.5q-62 0 -100 30.5t-38 90.5q0 32 9 88.5t26 145.5q9 47 10 51l24 124l246 24l-69 -361q-5 -27 -5 -42zM184 597q-63 10 -99 35t-36 77q0 26 9.5 44.5t28.5 25.5l248 -150l-23 -52z" />
    <glyph glyph-name="iacute" unicode="&#xed;" horiz-adv-x="326" 
d="M9 0zM250 131q0 -25 14 -43t41 -21q-13 -42 -58.5 -64.5t-99.5 -22.5q-62 0 -100 30.5t-38 90.5q0 32 9 88.5t26 145.5q9 47 10 51l24 124l246 24l-69 -361q-5 -27 -5 -42zM346 779q38 -14 38 -70q0 -53 -35.5 -78t-98.5 -34l-129 -20l-23 52z" />
    <glyph glyph-name="icircumflex" unicode="&#xee;" horiz-adv-x="326" 
d="M9 0zM250 131q0 -25 14 -43t41 -21q-13 -42 -58.5 -64.5t-99.5 -22.5q-62 0 -100 30.5t-38 90.5q0 32 9 88.5t26 145.5q9 47 10 51l24 124l246 24l-69 -361q-5 -27 -5 -42zM408 633l-55 -45l-123 37l-157 -37l-33 45l180 120h45z" />
    <glyph glyph-name="idieresis" unicode="&#xef;" horiz-adv-x="326" 
d="M0 0zM250 131q0 -25 14 -43t41 -21q-13 -42 -58.5 -64.5t-99.5 -22.5q-62 0 -100 30.5t-38 90.5q0 32 9 88.5t26 145.5q9 47 10 51l24 124l246 24l-69 -361q-5 -27 -5 -42zM438 734q33 -24 33 -65q0 -42 -34.5 -65t-90.5 -23t-90 22.5t-34 63.5q0 42 36.5 66.5t91.5 24.5
t88 -24zM177 734q33 -24 33 -65q0 -42 -34.5 -65t-90.5 -23t-90 22.5t-34 63.5q0 42 36.5 66.5t91.5 24.5t88 -24z" />
    <glyph glyph-name="eth" unicode="&#xf0;" horiz-adv-x="612" 
d="M631 662q-12 -12 -41 -22l-32 -11q21 -36 29.5 -68t8.5 -81q0 -105 -34 -219.5t-116 -197.5t-217 -83q-106 0 -163.5 55t-57.5 164q0 95 42.5 167.5t114 111.5t156.5 39q25 0 48 -3t31 -8q7 42 7 69l-102 -37q-16 18 -16 36q0 15 9 26.5t27 17.5l54 20q-21 14 -49 14
q-10 0 -17.5 -2.5t-7.5 -3.5q-3 3 -3 16q0 27 27 42.5t75 15.5q30 0 54 -7t51 -27l120 45q14 -13 14 -40q0 -17 -12 -29zM305 646zM382 445q-13 12 -36 12t-41.5 -18.5t-36.5 -74.5t-36 -164q-8 -64 -8 -88q-4 -73 28 -73q28 0 46 47t37 135z" />
    <glyph glyph-name="ntilde" unicode="&#xf1;" horiz-adv-x="633" 
d="M0 0zM458 530q73 0 114 -25.5t41 -86.5q0 -25 -6.5 -59t-19.5 -87q-25 -100 -25 -137q0 -61 55 -68q-14 -42 -59 -64.5t-99 -22.5q-61 0 -99.5 30.5t-38.5 86.5q0 25 6.5 57.5t22.5 100.5q29 114 29 157q0 41 -23 41q-28 0 -42 -36.5t-26 -99.5l-62 -317l-244 -24
l105 534l199 24l-18 -102q50 98 190 98zM603 675q0 -39 -28 -60t-77 -21q-40 0 -128 11q-82 8 -97 8q-20 0 -40.5 -5.5t-31.5 -12.5q-22 29 -22 62q0 35 28 54t80 19q24 0 128 -9q84 -8 103 -8q46 0 64 17q21 -25 21 -55z" />
    <glyph glyph-name="ograve" unicode="&#xf2;" horiz-adv-x="594" 
d="M11 0zM521.5 478q62.5 -52 62.5 -177q0 -93 -42 -166t-119 -114t-177 -41q-235 0 -235 233q0 94 42 166t119 111.5t178 39.5q109 0 171.5 -52zM276 395q-23 -75 -34 -172q-8 -69 -8 -119q0 -30 7 -47t25 -17q30 0 50.5 67t32.5 163q11 83 11 140q0 29 -6.5 44.5
t-23.5 15.5q-31 0 -54 -75zM341 597q-63 10 -99 35t-36 77q0 26 9.5 44.5t28.5 25.5l248 -150l-23 -52z" />
    <glyph glyph-name="oacute" unicode="&#xf3;" horiz-adv-x="594" 
d="M11 0zM521.5 478q62.5 -52 62.5 -177q0 -93 -42 -166t-119 -114t-177 -41q-235 0 -235 233q0 94 42 166t119 111.5t178 39.5q109 0 171.5 -52zM276 395q-23 -75 -34 -172q-8 -69 -8 -119q0 -30 7 -47t25 -17q30 0 50.5 67t32.5 163q11 83 11 140q0 29 -6.5 44.5
t-23.5 15.5q-31 0 -54 -75zM503 779q38 -14 38 -70q0 -53 -35.5 -78t-98.5 -34l-129 -20l-23 52z" />
    <glyph glyph-name="ocircumflex" unicode="&#xf4;" horiz-adv-x="594" 
d="M11 0zM521.5 478q62.5 -52 62.5 -177q0 -93 -42 -166t-119 -114t-177 -41q-235 0 -235 233q0 94 42 166t119 111.5t178 39.5q109 0 171.5 -52zM276 395q-23 -75 -34 -172q-8 -69 -8 -119q0 -30 7 -47t25 -17q30 0 50.5 67t32.5 163q11 83 11 140q0 29 -6.5 44.5
t-23.5 15.5q-31 0 -54 -75zM565 633l-55 -45l-123 37l-157 -37l-33 45l180 120h45z" />
    <glyph glyph-name="otilde" unicode="&#xf5;" horiz-adv-x="594" 
d="M11 0zM521.5 478q62.5 -52 62.5 -177q0 -93 -42 -166t-119 -114t-177 -41q-235 0 -235 233q0 94 42 166t119 111.5t178 39.5q109 0 171.5 -52zM276 395q-23 -75 -34 -172q-8 -69 -8 -119q0 -30 7 -47t25 -17q30 0 50.5 67t32.5 163q11 83 11 140q0 29 -6.5 44.5
t-23.5 15.5q-31 0 -54 -75zM588 675q0 -39 -28 -60t-77 -21q-40 0 -128 11q-82 8 -97 8q-20 0 -40.5 -5.5t-31.5 -12.5q-22 29 -22 62q0 35 28 54t80 19q24 0 128 -9q84 -8 103 -8q46 0 64 17q21 -25 21 -55z" />
    <glyph glyph-name="odieresis" unicode="&#xf6;" horiz-adv-x="594" 
d="M11 0zM521.5 478q62.5 -52 62.5 -177q0 -93 -42 -166t-119 -114t-177 -41q-235 0 -235 233q0 94 42 166t119 111.5t178 39.5q109 0 171.5 -52zM276 395q-23 -75 -34 -172q-8 -69 -8 -119q0 -30 7 -47t25 -17q30 0 50.5 67t32.5 163q11 83 11 140q0 29 -6.5 44.5
t-23.5 15.5q-31 0 -54 -75zM595 734q33 -24 33 -65q0 -42 -34.5 -65t-90.5 -23t-90 22.5t-34 63.5q0 42 36.5 66.5t91.5 24.5t88 -24zM334 734q33 -24 33 -65q0 -42 -34.5 -65t-90.5 -23t-90 22.5t-34 63.5q0 42 36.5 66.5t91.5 24.5t88 -24z" />
    <glyph glyph-name="divide" unicode="&#xf7;" 
d="M375.5 360q-23.5 -18 -59.5 -18t-58 17.5t-22 48.5q0 32 23.5 50t60.5 18q35 0 57 -17.5t22 -48.5q0 -32 -23.5 -50zM500.5 271.5q1.5 -11.5 1.5 -20.5q0 -29 -22 -46t-66 -17h-346q-4 13 -4 34q0 31 22.5 51t56.5 20h354q2 -10 3.5 -21.5zM307.5 22.5
q-23.5 -17.5 -59.5 -17.5t-58 17t-22 48q0 32 24 50.5t61 18.5q35 0 56.5 -18t21.5 -49q0 -32 -23.5 -49.5z" />
    <glyph glyph-name="oslash" unicode="&#xf8;" horiz-adv-x="594" 
d="M584 301q0 -93 -42 -166t-119 -114t-177 -41q-80 0 -130 23q-14 -15 -24.5 -31t-19.5 -32q-24 0 -37.5 16t-13.5 39q0 31 21 56l8 9q-39 56 -39 153q0 94 42 166t119 111.5t178 39.5q66 0 110 -16l10 13q37 41 55 69q17 0 34 -17.5t17 -42.5q0 -29 -23 -53l-18 -19
q49 -58 49 -163zM254 287l111 122q0 26 -6.5 43.5t-27.5 17.5q-18 0 -33 -21.5t-30 -84.5q-6 -28 -14 -77zM312.5 98q22.5 58 36.5 160l-115 -126v-15q0 -77 31 -77q25 0 47.5 58z" />
    <glyph glyph-name="ugrave" unicode="&#xf9;" horiz-adv-x="636" 
d="M12 0zM565 173q-5 -27 -5 -42q0 -25 14 -43t41 -21q-13 -42 -58.5 -64.5t-94.5 -22.5q-39 0 -72 14.5t-46 42.5q-34 -30 -76 -43.5t-97 -13.5q-75 0 -117 23t-42 93q0 39 15 127q1 11 3 21.5t3 20.5l40 245l248 24l-62 -309q-2 -14 -4 -21q-15 -79 -15 -113q0 -45 24 -45
q26 0 41.5 33.5t21.5 73.5l60 357l245 24zM332 597q-63 10 -99 35t-36 77q0 26 9.5 44.5t28.5 25.5l248 -150l-23 -52z" />
    <glyph glyph-name="uacute" unicode="&#xfa;" horiz-adv-x="636" 
d="M12 0zM565 173q-5 -27 -5 -42q0 -25 14 -43t41 -21q-13 -42 -58.5 -64.5t-94.5 -22.5q-39 0 -72 14.5t-46 42.5q-34 -30 -76 -43.5t-97 -13.5q-75 0 -117 23t-42 93q0 39 15 127q1 11 3 21.5t3 20.5l40 245l248 24l-62 -309q-2 -14 -4 -21q-15 -79 -15 -113q0 -45 24 -45
q26 0 41.5 33.5t21.5 73.5l60 357l245 24zM494 779q38 -14 38 -70q0 -53 -35.5 -78t-98.5 -34l-129 -20l-23 52z" />
    <glyph glyph-name="ucircumflex" unicode="&#xfb;" horiz-adv-x="636" 
d="M12 0zM565 173q-5 -27 -5 -42q0 -25 14 -43t41 -21q-13 -42 -58.5 -64.5t-94.5 -22.5q-39 0 -72 14.5t-46 42.5q-34 -30 -76 -43.5t-97 -13.5q-75 0 -117 23t-42 93q0 39 15 127q1 11 3 21.5t3 20.5l40 245l248 24l-62 -309q-2 -14 -4 -21q-15 -79 -15 -113q0 -45 24 -45
q26 0 41.5 33.5t21.5 73.5l60 357l245 24zM556 633l-55 -45l-123 37l-157 -37l-33 45l180 120h45z" />
    <glyph glyph-name="udieresis" unicode="&#xfc;" horiz-adv-x="636" 
d="M12 0zM565 173q-5 -27 -5 -42q0 -25 14 -43t41 -21q-13 -42 -58.5 -64.5t-94.5 -22.5q-39 0 -72 14.5t-46 42.5q-34 -30 -76 -43.5t-97 -13.5q-75 0 -117 23t-42 93q0 39 15 127q1 11 3 21.5t3 20.5l40 245l248 24l-62 -309q-2 -14 -4 -21q-15 -79 -15 -113q0 -45 24 -45
q26 0 41.5 33.5t21.5 73.5l60 357l245 24zM586 734q33 -24 33 -65q0 -42 -34.5 -65t-90.5 -23t-90 22.5t-34 63.5q0 42 36.5 66.5t91.5 24.5t88 -24zM325 734q33 -24 33 -65q0 -42 -34.5 -65t-90.5 -23t-90 22.5t-34 63.5q0 42 36.5 66.5t91.5 24.5t88 -24z" />
    <glyph glyph-name="yacute" unicode="&#xfd;" horiz-adv-x="542" 
d="M8 0zM94.5 -25.5q28.5 34.5 78.5 63.5l-101 -6q-5 128 -9.5 202.5t-13.5 145.5q-5 48 -14.5 72t-26.5 36q32 23 64 32.5t68 9.5q52 0 81 -16.5t42 -48.5t17 -85q2 -36 2 -57v-34l-1 -161q47 61 76 142.5t29 161.5q0 33 -7 56q35 42 98 42q43 0 74.5 -21.5t31.5 -71.5
t-41.5 -118t-84 -116.5t-96.5 -106.5q-35 -35 -50.5 -52.5t-27.5 -42.5t-12 -56q0 -28 16 -52.5t42 -38.5q-28 -28 -68 -41t-83 -13q-51 0 -81.5 24t-30.5 71q0 45 28.5 79.5zM462 779q38 -14 38 -70q0 -53 -35.5 -78t-98.5 -34l-129 -20l-23 52z" />
    <glyph glyph-name="thorn" unicode="&#xfe;" horiz-adv-x="607" 
d="M319 514q22 10 44.5 13.5t57.5 3.5q96 0 137.5 -50.5t41.5 -153.5q0 -107 -40 -185t-115 -119.5t-176 -41.5q-31 0 -51 3l-26 -164l-242 -24l173 904l245 24l-24 -119q-6 -45 -25 -91zM270 39q22 0 39.5 20t33 77.5t29.5 165.5q6 48 6 88q0 34 -6.5 53.5t-23.5 19.5
q-27 0 -41 -31t-21 -76l-52 -305q13 -12 36 -12z" />
    <glyph glyph-name="ydieresis" unicode="&#xff;" horiz-adv-x="542" 
d="M8 0zM94.5 -25.5q28.5 34.5 78.5 63.5l-101 -6q-5 128 -9.5 202.5t-13.5 145.5q-5 48 -14.5 72t-26.5 36q32 23 64 32.5t68 9.5q52 0 81 -16.5t42 -48.5t17 -85q2 -36 2 -57v-34l-1 -161q47 61 76 142.5t29 161.5q0 33 -7 56q35 42 98 42q43 0 74.5 -21.5t31.5 -71.5
t-41.5 -118t-84 -116.5t-96.5 -106.5q-35 -35 -50.5 -52.5t-27.5 -42.5t-12 -56q0 -28 16 -52.5t42 -38.5q-28 -28 -68 -41t-83 -13q-51 0 -81.5 24t-30.5 71q0 45 28.5 79.5zM554 734q33 -24 33 -65q0 -42 -34.5 -65t-90.5 -23t-90 22.5t-34 63.5q0 42 36.5 66.5t91.5 24.5
t88 -24zM293 734q33 -24 33 -65q0 -42 -34.5 -65t-90.5 -23t-90 22.5t-34 63.5q0 42 36.5 66.5t91.5 24.5t88 -24z" />
    <glyph glyph-name="dotlessi" unicode="&#x131;" horiz-adv-x="326" 
d="M250 131q0 -25 14 -43t41 -21q-13 -42 -58.5 -64.5t-99.5 -22.5q-62 0 -100 30.5t-38 90.5q0 32 9 88.5t26 145.5q9 47 10 51l24 124l246 24l-69 -361q-5 -27 -5 -42z" />
    <glyph glyph-name="OE" unicode="&#x152;" horiz-adv-x="920" 
d="M859.5 298.5q-27.5 -33.5 -78.5 -33.5q-22 0 -50 6.5t-50 18.5q-4 -4 -8 -26t-4 -45q0 -40 19 -54t67 -14q67 0 112 17q10 -27 10 -59q0 -129 -187 -129q-62 0 -99.5 15t-62.5 49q-34 -35 -88 -49.5t-115 -14.5q-139 0 -214 73t-75 224q0 118 47.5 209t138 142.5
t215.5 51.5q75 0 133 -20h389q0 -72 -35 -106t-92 -34q-55 0 -110 27l-26 -155h191q0 -60 -27.5 -93.5zM462 393q9 79 9 132q0 40 -9 62.5t-34 22.5q-39 0 -69.5 -78.5t-51.5 -263.5q-9 -79 -9 -132q0 -41 9.5 -63t36.5 -22q78 0 118 342z" />
    <glyph glyph-name="oe" unicode="&#x153;" horiz-adv-x="841" 
d="M821.5 503q51.5 -27 51.5 -98q0 -140 -219 -167q-54 -4 -89 -5q-3 -9 -3 -23q0 -83 78 -83q34 0 75 13.5t62 41.5q14 -11 20 -22.5t6 -29.5q0 -50 -36.5 -83.5t-91 -50t-107.5 -16.5q-41 0 -81.5 9.5t-68.5 25.5q-80 -35 -171 -35q-112 0 -174 56.5t-62 174.5
q0 94 41.5 166.5t117 112.5t174.5 40q93 0 158 -34q42 17 84.5 25.5t97.5 8.5q86 0 137.5 -27zM572 273q40 0 69 25t44 61.5t15 69.5q0 24 -8 38.5t-23 14.5q-62 0 -97 -209zM316.5 107q20.5 67 32.5 163q11 83 11 140q0 29 -6.5 44.5t-23.5 15.5q-31 0 -54 -75t-34 -172
q-8 -69 -8 -119q0 -30 7 -47t25 -17q30 0 50.5 67z" />
    <glyph glyph-name="uni02BC" unicode="&#x2bc;" horiz-adv-x="273" 
d="M164 740.5q28 6.5 52 6.5q54 0 83 -23.5t29 -77.5q0 -32 -27 -70.5t-74 -65t-105 -26.5q-21 0 -34.5 2.5t-17.5 3.5q38 45 51.5 84t13.5 68q0 26 -3 44t-9 38q13 10 41 16.5z" />
    <glyph glyph-name="circumflex" unicode="&#x2c6;" horiz-adv-x="423" 
d="M466 633l-55 -45l-123 37l-157 -37l-33 45l180 120h45z" />
    <glyph glyph-name="ring" unicode="&#x2da;" horiz-adv-x="252" 
d="M113 588.5q-27 20.5 -27 59.5q0 50 42.5 81t100.5 31q44 0 69.5 -20.5t25.5 -59.5q0 -51 -40.5 -81.5t-97.5 -30.5q-46 0 -73 20.5zM233.5 628q15.5 19 15.5 46q0 19 -8.5 30.5t-25.5 11.5q-22 0 -36 -19.5t-14 -46.5q0 -19 8 -30t24 -11q21 0 36.5 19z" />
    <glyph glyph-name="tilde" unicode="&#x2dc;" horiz-adv-x="497" 
d="M534 675q0 -39 -28 -60t-77 -21q-40 0 -128 11q-82 8 -97 8q-20 0 -40.5 -5.5t-31.5 -12.5q-22 29 -22 62q0 35 28 54t80 19q24 0 128 -9q84 -8 103 -8q46 0 64 17q21 -25 21 -55z" />
    <glyph glyph-name="uni2002" unicode="&#x2002;" horiz-adv-x="400" 
 />
    <glyph glyph-name="endash" unicode="&#x2013;" horiz-adv-x="524" 
d="M530 261q-1 -33 -24 -53.5t-65 -20.5h-442q-4 13 -4 28q0 36 22 58t57 22h451q5 -22 5 -34z" />
    <glyph glyph-name="emdash" unicode="&#x2014;" horiz-adv-x="1060" 
d="M1066 263q0 -34 -23.5 -55t-60.5 -21h-983q-4 13 -4 30q0 33 19.5 55.5t50.5 22.5h995q6 -20 6 -32z" />
    <glyph glyph-name="quoteleft" unicode="&#x2018;" horiz-adv-x="266" 
d="M265 630q-15 -48 -15 -92q0 -39 12 -77q-13 -9 -40 -15.5t-51 -6.5q-50 0 -79 29t-29 83q0 53 28 96t78.5 68t113.5 25q21 0 34 -2.5t16 -3.5q-53 -56 -68 -104z" />
    <glyph glyph-name="quoteright" unicode="&#x2019;" horiz-adv-x="273" 
d="M164 734.5q27 6.5 51 6.5q50 0 79 -29.5t29 -83.5q0 -53 -28 -96t-78.5 -67.5t-113.5 -24.5q-20 0 -33 2.5t-17 3.5q53 56 68 104t15 93q0 38 -12 76q13 9 40 15.5z" />
    <glyph glyph-name="quotesinglbase" unicode="&#x201a;" horiz-adv-x="241" 
d="M36.5 152q27.5 6 52.5 6q49 0 77.5 -26.5t28.5 -78.5q0 -53 -28.5 -98t-79 -71.5t-114.5 -26.5q-19 0 -49 5q54 56 69 104t15 93q0 39 -12 77q13 10 40.5 16z" />
    <glyph glyph-name="quotedblleft" unicode="&#x201c;" horiz-adv-x="528" 
d="M91 649.5q28 42.5 78.5 67t113.5 24.5q22 0 50 -5q-53 -56 -68 -104t-15 -93q0 -39 12 -77q-13 -9 -40 -15.5t-51 -6.5q-50 0 -79 30t-29 84q0 53 28 95.5zM353 648q28 43 78.5 68t113.5 25q23 0 50 -5q-53 -56 -68 -104t-15 -93q0 -39 12 -77q-13 -9 -40 -15.5t-51 -6.5
q-49 0 -78.5 30t-29.5 83q0 52 28 95z" />
    <glyph glyph-name="quotedblright" unicode="&#x201d;" horiz-adv-x="538" 
d="M144 734.5q27 6.5 50 6.5q51 0 80 -29.5t29 -83.5t-28.5 -97t-78.5 -67t-113 -24q-20 0 -33.5 2.5t-17.5 3.5q53 56 68.5 104.5t15.5 92.5q0 38 -12 76q13 9 40 15.5zM406 734.5q27 6.5 50 6.5q50 0 79 -29.5t29 -82.5t-28 -96t-78 -68t-113 -25q-20 0 -33.5 2.5
t-17.5 3.5q53 56 68.5 104.5t15.5 92.5q0 38 -12 76q13 9 40 15.5z" />
    <glyph glyph-name="quotedblbase" unicode="&#x201e;" horiz-adv-x="592" 
d="M217 -50q-28 -43 -78.5 -68t-113.5 -25q-21 0 -51 5q54 56 69 104t15 93q0 39 -12 77q13 9 40 15.5t51 6.5q49 0 78.5 -30t29.5 -83q0 -52 -28 -95zM479 -50q-28 -43 -78.5 -68t-113.5 -25q-21 0 -51 5q53 56 68.5 104.5t15.5 92.5q0 39 -12 77q13 9 40 15.5t50 6.5
q50 0 79.5 -30t29.5 -83q0 -52 -28 -95z" />
    <glyph glyph-name="bullet" unicode="&#x2022;" horiz-adv-x="376" 
d="M288 173q-40 -31 -103 -31q-62 0 -99.5 30t-37.5 84q0 56 40.5 87.5t103.5 31.5q61 0 98.5 -30.5t37.5 -84.5q0 -56 -40 -87z" />
    <glyph glyph-name="ellipsis" unicode="&#x2026;" horiz-adv-x="806" 
d="M28 0zM737 125q32 -23 32 -62q0 -40 -33 -62t-86 -22t-85.5 21.5t-32.5 60.5q0 40 35 63.5t87 23.5q51 0 83 -23zM233 125q32 -23 32 -62q0 -40 -33 -62t-86 -22t-85.5 21.5t-32.5 60.5q0 40 35 63.5t87 23.5q51 0 83 -23zM483 125q32 -23 32 -62q0 -40 -33 -62t-86 -22
t-85.5 21.5t-32.5 60.5q0 40 35 63.5t87 23.5q51 0 83 -23z" />
    <glyph glyph-name="guilsinglleft" unicode="&#x2039;" horiz-adv-x="337" 
d="M202 510h131l-124 -193l47 -191h-127l-99 191z" />
    <glyph glyph-name="guilsinglright" unicode="&#x203a;" horiz-adv-x="340" 
d="M306 317l-171 -191h-126l118 191l-52 193h132z" />
    <glyph glyph-name="fraction" unicode="&#x2044;" horiz-adv-x="292" 
d="M-5 -91q-48 0 -48 30q0 10 6 27l326 752q14 2 28 2q28 0 39.5 -6.5t11.5 -25.5q0 -20 -9 -39l-321 -737q-9 -3 -33 -3z" />
    <glyph glyph-name="Euro" unicode="&#x20ac;" 
d="M572.5 637.5q61.5 -22.5 61.5 -80.5q0 -37 -21.5 -67.5t-56.5 -48t-75 -17.5q-28 0 -44 2q9 47 9 85t-11.5 59t-40.5 21q-36 0 -67 -47.5t-47 -123.5h107q6 -16 6 -31q0 -24 -21.5 -37t-59.5 -13h-270q-5 15 -5 30q0 18 10 30.5t28 17.5q34 117 122 180t227 63
q87 0 148.5 -22.5zM575 139q0 -41 -35 -77.5t-101.5 -59t-156.5 -22.5q-105 0 -160 60t-66 167h-30q-5 13 -5 29q0 24 14 37.5t37 13.5h289q6 -16 6 -30q0 -21 -16.5 -35.5t-46.5 -14.5h-30q8 -32 33 -46.5t73 -14.5t89.5 15.5t83.5 45.5q22 -18 22 -68z" />
    <glyph glyph-name="trademark" unicode="&#x2122;" horiz-adv-x="746" 
d="M107 596q-21 0 -39 -3q-2 14 -2 26q0 23 13.5 32t40.5 9h150q35 0 53 6q4 -5 6.5 -14.5t2.5 -18.5q0 -23 -15.5 -30t-44.5 -7h-28l-37 -209q-5 -25 -5 -45q0 -23 7 -34q-23 -19 -57 -19q-29 0 -40 14t-11 40t15 113l26 140h-35zM529 445l-36 215h-110l-85 -363h60l52 247
l42 -247h70q38 108 103 247q-11 -98 -11 -157q0 -50 15.5 -74t54.5 -24q23 0 39.5 7.5t21.5 19.5q-17 20 -24 41.5t-7 68.5q0 26 11 234h-102q-42 -106 -94 -215z" />
    <glyph glyph-name="minus" unicode="&#x2212;" 
d="M509 263q0 -34 -24.5 -55t-64.5 -21h-338q-5 13 -5 28q0 36 22 58t58 22h346q6 -22 6 -32z" />
    <glyph glyph-name="uni2215" unicode="&#x2215;" horiz-adv-x="117" 
d="M231 720q28 0 40 -6.5t12 -25.5q0 -17 -9 -39l-322 -737q-9 -3 -33 -3q-47 0 -47 30q0 10 6 27l326 752q14 2 27 2z" />
    <glyph glyph-name="Dcroat" horiz-adv-x="738" 
d="M279 663h43q153 0 238.5 -20t129 -80t43.5 -181q0 -145 -61 -229.5t-175 -120t-285 -35.5q-123 0 -194 3l56 289h-67q-4 10 -4 29q1 31 22.5 52t51.5 21h17l51 269q49 3 134 3zM301 70q79 0 122 74t67 225q12 80 12 142q0 45 -20 63t-66 18q-18 0 -26 -1l-38 -200h55
q5 -22 5 -30q0 -31 -22 -51.5t-60 -20.5h2l-42 -218q8 -1 11 -1z" />
    <glyph glyph-name="Ldot" horiz-adv-x="508" 
d="M116 660h268l-91 -525h72q66 0 109 9q7 -9 10.5 -26.5t3.5 -33.5q0 -48 -36.5 -66t-98.5 -18h-355zM492 371q16 -16 16 -41q0 -38 -26.5 -64t-65.5 -26q-29 0 -45 15.5t-16 40.5q0 37 28 64t66 27q27 0 43 -16z" />
    <glyph glyph-name="uni1E9E" horiz-adv-x="779" 
d="M37 331q28 144 93.5 220.5t149.5 102.5t190 26q110 0 177 -24t106 -75l-32 -17q-54 -27 -85 -54t-31 -70q0 -21 12 -36t37 -34q38 -29 58.5 -59.5t20.5 -85.5q0 -74 -42 -129.5t-112 -85t-151 -29.5q-61 0 -105.5 18t-44.5 78q0 39 22 66t64 27q29 0 59 -13
q-12 -42 -12 -67q0 -17 10 -28.5t26 -11.5q22 0 34 13.5t12 39.5q0 23 -13 40t-40 40q-38 33 -58.5 63t-20.5 80q0 89 64 150t157 106q-8 23 -34 40.5t-63 17.5q-66 0 -107.5 -74.5t-70.5 -219.5l-68 -346h-268z" />
    <glyph glyph-name="Y.loclGUA" horiz-adv-x="693" 
d="M641 152q-24 -125 -73 -202t-131.5 -113.5t-205.5 -36.5q-100 0 -170 29.5t-70 101.5q0 57 41 81t103 24q28 0 66 -10q-9 -19 -12 -35t-3 -36q0 -87 65 -87q70 0 108.5 79t54.5 187q-24 -32 -69.5 -49t-97.5 -17q-96 0 -152.5 39.5t-57.5 124.5q0 20 4 54.5t9 60.5
l61 313h272l-61 -327q-12 -56 -12 -94q0 -71 44 -71q36 0 55.5 40.5t33.5 115.5l65 336h229z" />
    <glyph glyph-name="Yacute.loclGUA" horiz-adv-x="693" 
d="M0 0zM641 152q-24 -125 -73 -202t-131.5 -113.5t-205.5 -36.5q-100 0 -170 29.5t-70 101.5q0 57 41 81t103 24q28 0 66 -10q-9 -19 -12 -35t-3 -36q0 -87 65 -87q70 0 108.5 79t54.5 187q-24 -32 -69.5 -49t-97.5 -17q-96 0 -152.5 39.5t-57.5 124.5q0 20 4 54.5t9 60.5
l61 313h272l-61 -327q-12 -56 -12 -94q0 -71 44 -71q36 0 55.5 40.5t33.5 115.5l65 336h229zM370 760l250 109q16 -12 23.5 -25.5t7.5 -33.5q0 -49 -41 -73t-106 -25l-120 -3z" />
    <glyph glyph-name="uni1EF8.loclGUA" horiz-adv-x="693" 
d="M0 0zM641 152q-24 -125 -73 -202t-131.5 -113.5t-205.5 -36.5q-100 0 -170 29.5t-70 101.5q0 57 41 81t103 24q28 0 66 -10q-9 -19 -12 -35t-3 -36q0 -87 65 -87q70 0 108.5 79t54.5 187q-24 -32 -69.5 -49t-97.5 -17q-96 0 -152.5 39.5t-57.5 124.5q0 20 4 54.5t9 60.5
l61 313h272l-61 -327q-12 -56 -12 -94q0 -71 44 -71q36 0 55.5 40.5t33.5 115.5l65 336h229zM679 801q0 -39 -28 -59.5t-78 -20.5q-32 0 -126 10q-74 9 -98 9q-20 0 -41 -5.5t-31 -12.5q-22 29 -22 62q0 35 28 54t80 19q26 0 70.5 -4t57.5 -5q82 -8 102 -8q47 0 65 17
q21 -25 21 -56z" />
    <glyph glyph-name="Oacute.loclPLK" horiz-adv-x="739" 
d="M36 0zM659.5 607.5q75.5 -72.5 75.5 -225.5q0 -122 -49 -213t-140.5 -140t-216.5 -49q-142 0 -217.5 72.5t-75.5 225.5q0 122 48.5 212.5t140.5 140t217 49.5q142 0 217.5 -72.5zM359.5 531.5q-30.5 -78.5 -51.5 -263.5q-9 -79 -9 -132q0 -41 9.5 -63t36.5 -22
q78 0 118 342q9 79 9 132q0 40 -9 62.5t-34 22.5q-39 0 -69.5 -78.5zM471 856q98 0 98 -48q0 -21 -17.5 -44.5t-63.5 -75.5l-76 12z" />
    <glyph glyph-name="i.loclTRK" horiz-adv-x="326" 
d="M9 0zM250 131q0 -25 14 -43t41 -21q-13 -42 -58.5 -64.5t-99.5 -22.5q-62 0 -100 30.5t-38 90.5q0 32 9 88.5t26 145.5q9 47 10 51l24 124l246 24l-69 -361q-5 -27 -5 -42zM325 734q33 -24 33 -65q0 -42 -34.5 -65t-90.5 -23t-90 22.5t-34 63.5q0 42 36.5 66.5t91.5 24.5
t88 -24z" />
    <glyph glyph-name="ldot" horiz-adv-x="419" 
d="M259 173q-5 -27 -5 -42q0 -25 14 -43t41 -21q-13 -42 -58.5 -64.5t-99.5 -22.5q-62 0 -100 30.5t-38 90.5q0 32 9 88.5t26 145.5q9 47 10 51l57 314l248 24zM439.5 391q15.5 -16 15.5 -41q0 -37 -26.5 -63.5t-65.5 -26.5q-29 0 -45 15.5t-16 40.5q0 37 28 64t66 27
q28 0 43.5 -16z" />
    <glyph glyph-name="y.loclGUA" horiz-adv-x="605" 
d="M547 135q-22 -119 -59.5 -190.5t-107 -108t-185.5 -36.5q-248 0 -248 112q0 44 35.5 66t89.5 22q38 0 71.5 -11.5t54.5 -37.5q-14 -16 -19.5 -27.5t-5.5 -24.5q0 -16 6 -20.5t19 -4.5q40 0 69.5 58.5t51.5 189.5q-30 -30 -75 -47t-94 -17q-61 0 -97 29t-36 91
q0 28 8 80.5t16 99.5l24 152l248 24l-49 -216q-10 -45 -16.5 -80t-6.5 -55q0 -23 6.5 -31.5t18.5 -8.5q26 0 41.5 30.5t23.5 72.5l47 264l245 24z" />
    <glyph glyph-name="yacute.loclGUA" horiz-adv-x="605" 
d="M0 0zM547 135q-22 -119 -59.5 -190.5t-107 -108t-185.5 -36.5q-248 0 -248 112q0 44 35.5 66t89.5 22q38 0 71.5 -11.5t54.5 -37.5q-14 -16 -19.5 -27.5t-5.5 -24.5q0 -16 6 -20.5t19 -4.5q40 0 69.5 58.5t51.5 189.5q-30 -30 -75 -47t-94 -17q-61 0 -97 29t-36 91
q0 28 8 80.5t16 99.5l24 152l248 24l-49 -216q-10 -45 -16.5 -80t-6.5 -55q0 -23 6.5 -31.5t18.5 -8.5q26 0 41.5 30.5t23.5 72.5l47 264l245 24zM491 779q38 -14 38 -70q0 -53 -35.5 -78t-98.5 -34l-129 -20l-23 52z" />
    <glyph glyph-name="ydieresis.loclGUA" horiz-adv-x="605" 
d="M0 0zM547 135q-22 -119 -59.5 -190.5t-107 -108t-185.5 -36.5q-248 0 -248 112q0 44 35.5 66t89.5 22q38 0 71.5 -11.5t54.5 -37.5q-14 -16 -19.5 -27.5t-5.5 -24.5q0 -16 6 -20.5t19 -4.5q40 0 69.5 58.5t51.5 189.5q-30 -30 -75 -47t-94 -17q-61 0 -97 29t-36 91
q0 28 8 80.5t16 99.5l24 152l248 24l-49 -216q-10 -45 -16.5 -80t-6.5 -55q0 -23 6.5 -31.5t18.5 -8.5q26 0 41.5 30.5t23.5 72.5l47 264l245 24zM583 734q33 -24 33 -65q0 -42 -34.5 -65t-90.5 -23t-90 22.5t-34 63.5q0 42 36.5 66.5t91.5 24.5t88 -24zM322 734
q33 -24 33 -65q0 -42 -34.5 -65t-90.5 -23t-90 22.5t-34 63.5q0 42 36.5 66.5t91.5 24.5t88 -24z" />
    <glyph glyph-name="uni1EF9.loclGUA" horiz-adv-x="605" 
d="M0 0zM547 135q-22 -119 -59.5 -190.5t-107 -108t-185.5 -36.5q-248 0 -248 112q0 44 35.5 66t89.5 22q38 0 71.5 -11.5t54.5 -37.5q-14 -16 -19.5 -27.5t-5.5 -24.5q0 -16 6 -20.5t19 -4.5q40 0 69.5 58.5t51.5 189.5q-30 -30 -75 -47t-94 -17q-61 0 -97 29t-36 91
q0 28 8 80.5t16 99.5l24 152l248 24l-49 -216q-10 -45 -16.5 -80t-6.5 -55q0 -23 6.5 -31.5t18.5 -8.5q26 0 41.5 30.5t23.5 72.5l47 264l245 24zM576 675q0 -39 -28 -60t-77 -21q-40 0 -128 11q-82 8 -97 8q-20 0 -40.5 -5.5t-31.5 -12.5q-22 29 -22 62q0 35 28 54t80 19
q24 0 128 -9q84 -8 103 -8q46 0 64 17q21 -25 21 -55z" />
    <glyph glyph-name="oacute.loclPLK" horiz-adv-x="594" 
d="M11 0zM521.5 478q62.5 -52 62.5 -177q0 -93 -42 -166t-119 -114t-177 -41q-235 0 -235 233q0 94 42 166t119 111.5t178 39.5q109 0 171.5 -52zM276 395q-23 -75 -34 -172q-8 -69 -8 -119q0 -30 7 -47t25 -17q30 0 50.5 67t32.5 163q11 83 11 140q0 29 -6.5 44.5
t-23.5 15.5q-31 0 -54 -75zM403 776q98 0 98 -48q0 -19 -17 -43t-53 -64q-15 -18 -16 -19l-41 -47l-57 28z" />
    <glyph glyph-name="uni03BC" horiz-adv-x="646" 
d="M643 534l-68 -361q-5 -27 -5 -42q0 -25 14 -43t41 -21q-13 -42 -58.5 -64.5t-94.5 -22.5q-39 0 -72 14.5t-46 42.5q-19 -15 -38 -24t-57 -23q-11 -4 -31 -13l-26 -157l-243 -24l82 422l8 36q21 93 21 123q0 28 -14.5 45.5t-41.5 20.5q14 42 59.5 64.5t98.5 22.5
q62 0 100.5 -30.5t38.5 -87.5q0 -25 -7.5 -61.5t-22.5 -96.5t-22.5 -96t-7.5 -61q0 -14 4 -23t15 -9q23 0 43 33.5t34 109.5l52 302z" />
    <glyph glyph-name="uni2153" horiz-adv-x="826" 
d="M551 720q28 0 40 -6.5t12 -25.5q0 -17 -9 -39l-322 -737q-9 -3 -33 -3q-47 0 -47 30q0 10 6 27l326 752q14 2 27 2zM251 353h6q21 0 37 2.5t21 2.5q7 -14 7 -32q0 -25 -17.5 -36t-60.5 -11q-12 0 -48 2q-81 3 -94 3h-19q-15 0 -23 -1q-2 8 -2 15q0 23 12 39t31 16h28
l49 211q-14 -18 -44 -18q-25 0 -40 17.5t-18 36.5q43 6 91.5 24t127.5 55l11 -28zM680 275q0 15 -12 23.5t-32 8.5q-33 0 -67 -31q-20 1 -20 32q0 45 45.5 66.5t97.5 21.5q46 0 76 -19.5t30 -56.5q0 -33 -23 -61t-67 -45q36 -12 53 -38t17 -58q0 -35 -20 -64.5t-60 -47
t-96 -17.5q-54 0 -80 16.5t-26 44.5q0 16 7.5 31.5t18.5 25.5q7 -20 26.5 -30t41.5 -10q27 0 43.5 14.5t16.5 38.5q0 49 -60 49l12 58q78 13 78 48z" />
    <glyph glyph-name="uni2154" horiz-adv-x="806" 
d="M554 720q28 0 40 -6.5t12 -25.5q0 -17 -9 -39l-322 -737q-9 -3 -33 -3q-47 0 -47 30q0 10 6 27l325 752q16 2 28 2zM219 554q0 20 -10 27.5t-27 7.5q-27 0 -49 -14t-30 -34q-15 -1 -26.5 13.5t-11.5 34.5q0 40 46 64t102 24q50 0 85.5 -22.5t35.5 -71.5q0 -31 -18 -57
t-54 -50q-23 -16 -62.5 -39.5t-60.5 -32.5q53 -8 101 -8q21 0 36 4t25 15q11 -15 14.5 -26.5t3.5 -24.5q0 -81 -113 -81q-31 0 -54.5 4.5t-27.5 5.5q-30 6 -40 6q-22 0 -27 -10q-9 8 -15 25.5t-6 36.5q0 23 10.5 39.5t33.5 34.5l94 72q45 32 45 57zM680 275q0 15 -12 23.5
t-32 8.5q-33 0 -67 -31q-20 1 -20 32q0 45 45.5 66.5t97.5 21.5q46 0 76 -19.5t30 -56.5q0 -32 -23.5 -60t-67.5 -46q37 -12 54 -38t17 -58q0 -35 -20.5 -64.5t-60 -47t-95.5 -17.5q-54 0 -80 16.5t-26 44.5q0 16 7.5 31.5t18.5 25.5q7 -20 26.5 -30t41.5 -10q27 0 44 14.5
t17 38.5q0 21 -14 35t-47 14l12 58q78 13 78 48z" />
    <glyph glyph-name="oneeighth" horiz-adv-x="820" 
d="M551 720q28 0 40 -6.5t12 -25.5q0 -17 -9 -39l-322 -737q-9 -3 -33 -3q-47 0 -47 30q0 10 6 27l326 752q14 2 27 2zM251 353h6q21 0 37 2.5t21 2.5q7 -14 7 -32q0 -25 -17.5 -36t-60.5 -11q-12 0 -48 2q-81 3 -94 3h-19q-15 0 -23 -1q-2 8 -2 15q0 23 12 39t31 16h28
l49 211q-14 -18 -44 -18q-25 0 -40 17.5t-18 36.5q43 6 91.5 24t127.5 55l11 -28zM750 54q-23 -31 -63 -49t-89 -18q-53 0 -88 22.5t-35 67.5q0 69 79 107q-31 24 -31 69q0 37 21 68t58.5 49t85.5 18q99 0 99 -76q0 -36 -20.5 -61.5t-53.5 -39.5q37 -31 48.5 -48.5
t11.5 -39.5q0 -38 -23 -69zM696.5 259q6.5 11 6.5 28q0 18 -8.5 30t-27.5 12q-17 0 -29 -10t-12 -26q0 -21 26 -38l24 -18q14 11 20.5 22zM575 127.5q-5 -16.5 -5 -34.5q0 -19 9.5 -31t26.5 -12q19 0 28 9.5t9 25.5q0 9 -4 19t-19 23l-30 27q-10 -10 -15 -26.5z" />
    <glyph glyph-name="quotesingle.loclGUA" horiz-adv-x="180" 
d="M76 578.5q15 89.5 16 155.5q42 6 63 6q45 0 69 -24.5t24 -66.5q0 -27 -15 -75.5t-38 -92t-45 -60.5h-109q20 68 35 157.5z" />
    <glyph glyph-name="uni20B2" 
d="M410 409q9 50 9 89q0 49 -8 70t-27 21q-37 0 -65 -65.5t-42.5 -154t-14.5 -148.5q0 -52 12.5 -81.5t47.5 -29.5q16 0 28 3l32 196l189 18q-7 -31 -10 -41q-24 -105 -36 -169t-11 -117q-22 -12 -34.5 -16t-40.5 -4q-49 0 -74 36q-22 -15 -47 -24l-6 -29q-9 -47 -25 -63.5
t-51 -16.5q-13 0 -24.5 2t-21.5 3l18 94q-88 10 -131.5 71.5t-43.5 162.5q0 124 39.5 218.5t108 151t156.5 70.5l5 30q8 47 23 63.5t49 16.5q26 0 47 -6l-21 -101q174 -12 174 -115q0 -38 -22 -69.5t-59 -49.5t-79 -18q-28 0 -44 2z" />
    <glyph glyph-name="dotaccent" horiz-adv-x="227" 
d="M275 734q33 -24 33 -65q0 -42 -34.5 -65t-90.5 -23t-90 22.5t-34 63.5q0 42 36.5 66.5t91.5 24.5t88 -24z" />
    <glyph glyph-name="acute.case" horiz-adv-x="239" 
d="M80 760l250 109q16 -12 23.5 -25.5t7.5 -33.5q0 -49 -41 -73t-106 -25l-120 -3z" />
    <glyph glyph-name="circumflex.case" horiz-adv-x="304" 
d="M449 734l-55 -45l-123 37l-157 -37l-33 45l180 120h45z" />
    <glyph glyph-name="dieresis.case" horiz-adv-x="469" 
d="M293 836q32 -23 32 -62q0 -40 -33 -62t-86 -22t-85.5 21.5t-32.5 60.5q0 40 35 63.5t87 23.5q51 0 83 -23zM542 836q32 -23 32 -62q0 -40 -33 -62t-86 -22t-85.5 21.5t-32.5 60.5q0 40 35 63.5t87 23.5q51 0 83 -23z" />
    <glyph glyph-name="grave.case" horiz-adv-x="259" 
d="M358 710l-121 3q-65 2 -105.5 26t-40.5 73q0 20 8 33.5t23 24.5l250 -108z" />
    <glyph glyph-name="acute.loclPLK.case" horiz-adv-x="239" 
d="M223 856q98 0 98 -48q0 -21 -17.5 -44.5t-63.5 -75.5l-76 12z" />
    <glyph glyph-name="ring.case" horiz-adv-x="185" 
d="M265.5 715.5q-39.5 -25.5 -94.5 -25.5q-43 0 -69 18.5t-26 50.5q0 43 41 69t98 26q41 0 65.5 -18t24.5 -52q0 -43 -39.5 -68.5zM226.5 805.5q-6.5 7.5 -21.5 7.5q-28 0 -42 -14t-14 -39q0 -17 7 -24.5t24 -7.5q53 0 53 53q0 17 -6.5 24.5z" />
    <glyph glyph-name="tilde.case" horiz-adv-x="390" 
d="M505 801q0 -39 -28 -59.5t-78 -20.5q-32 0 -126 10q-74 9 -98 9q-20 0 -41 -5.5t-31 -12.5q-22 29 -22 62q0 35 28 54t80 19q26 0 70.5 -4t57.5 -5q82 -8 102 -8q47 0 65 17q21 -25 21 -56z" />
    <glyph glyph-name="acute.loclPLK" horiz-adv-x="309" 
d="M213 776q98 0 98 -48q0 -19 -17 -43t-53 -64q-15 -18 -16 -19l-41 -47l-57 28z" />
    <glyph glyph-name=".ttfautohint" horiz-adv-x="104" 
d="M0 0z" />
    </font>
</defs>
</svg>
