<?xml version="1.0" standalone="no"?>
<!DOCTYPE svg PUBLIC "-//W3C//DTD SVG 1.1//EN" "http://www.w3.org/Graphics/SVG/1.1/DTD/svg11.dtd" >
<svg xmlns="http://www.w3.org/2000/svg" xmlns:xlink="http://www.w3.org/1999/xlink" version="1.1">
<metadata>
Created by FontForge 20170731 at Sun Dec  4 11:51:17 2016
 By Aleksey,,,
Copyright 2016 The Sansita Project Authors (omnibus.type@gmail.com)
</metadata>
<defs>
<font id="Sansita-Bold" horiz-adv-x="581" >
  <font-face 
    font-family="Sansita"
    font-weight="700"
    font-stretch="normal"
    units-per-em="1000"
    panose-1="3 6 6 2 3 7 2 2 5 6"
    ascent="800"
    descent="-200"
    x-height="510"
    cap-height="660"
    bbox="-68 -256 937 879"
    underline-thickness="50"
    underline-position="-150"
    unicode-range="U+000D-2215"
  />
<missing-glyph horiz-adv-x="514" 
d="M6 0v700h500v-700h-500zM256 395l169 255h-340zM55 605v-510l171 255zM286 350l169 -255v510zM86 50h340l-171 255z" />
    <glyph glyph-name="f_f" unicode="ff" horiz-adv-x="640" 
d="M716 700.5q52 -19.5 52 -68.5q0 -35 -27 -53t-68 -18q-33 0 -47 10q6 26 6 47q0 26 -11 41t-34 15q-36 0 -47 -29t-11 -79v-56h99v-45h-98v-465l-153 -14v479h-152v-465l-153 -14v479h-69v45h69l3 41q6 87 69 123t172 36q87 0 136 -24q63 34 142 34q70 0 122 -19.5z
M241.5 635.5q-17.5 -28.5 -17.5 -79.5v-46h153l1 23q3 27 3 53q0 40 -16.5 59t-54.5 19q-51 0 -68.5 -28.5z" />
    <glyph glyph-name="fi" unicode="fi" horiz-adv-x="590" 
d="M359.5 660q-18.5 14 -49.5 14q-47 0 -66.5 -27.5t-19.5 -80.5v-56h304v-410q0 -28 7 -49t24 -37q-11 -14 -33.5 -21.5t-44.5 -7.5q-52 0 -79 26.5t-27 78.5v375h-150v-465l-153 -14v479h-69v45h69l3 46q9 164 241 164q85 0 154.5 -19t69.5 -71q0 -36 -31 -54t-74 -18
q-38 0 -64 13q7 20 7 46q0 29 -18.5 43z" />
    <glyph glyph-name="fl" unicode="fl" horiz-adv-x="591" 
d="M528 100q0 -28 7 -49t24 -37q-11 -14 -34 -21.5t-45 -7.5q-51 0 -78 26.5t-27 78.5v507q0 37 -15.5 54.5t-50.5 17.5q-51 0 -68 -28.5t-17 -79.5v-51h99v-45h-98v-465l-153 -14v479h-69v45h69l3 46q6 88 68.5 126t169.5 38q70 0 115 -14l100 10v-616z" />
    <glyph glyph-name=".notdef" horiz-adv-x="514" 
d="M6 0v700h500v-700h-500zM256 395l169 255h-340zM55 605v-510l171 255zM286 350l169 -255v510zM86 50h340l-171 255z" />
    <glyph glyph-name=".null" horiz-adv-x="0" 
 />
    <glyph glyph-name="nonmarkingreturn" unicode="&#xd;" horiz-adv-x="175" 
 />
    <glyph glyph-name="NULL" horiz-adv-x="0" 
 />
    <glyph glyph-name="NULL" horiz-adv-x="0" 
 />
    <glyph glyph-name="space" unicode=" " horiz-adv-x="175" 
 />
    <glyph glyph-name="exclam" unicode="!" horiz-adv-x="249" 
d="M200 595q0 -25 -2 -56.5t-3 -43.5l-2 -22l-24 -273q-14 -10 -40 -10q-35 0 -46 18.5t-14 60.5l-22 385q13 12 33.5 19.5t40.5 7.5q79 0 79 -86zM190.5 105q24.5 -19 24.5 -53q0 -35 -26 -53.5t-67 -18.5q-40 0 -65 18t-25 52q0 35 26.5 54.5t67.5 19.5q40 0 64.5 -19z
" />
    <glyph glyph-name="quotedbl" unicode="&#x22;" horiz-adv-x="396" 
d="M44 557q0 87 -15 157q28 6 50 6q49 0 71 -22.5t22 -72.5q0 -37 -14.5 -81.5t-34.5 -68.5h-83q4 33 4 82zM233 557q0 87 -15 157q28 6 50 6q49 0 71 -22.5t22 -72.5q0 -37 -14.5 -81.5t-34.5 -68.5h-83q4 33 4 82z" />
    <glyph glyph-name="numbersign" unicode="#" 
d="M453 650v-157h100q10 -18 10 -40q0 -31 -14.5 -47t-40.5 -16h-55v-127h100q10 -20 10 -40q0 -30 -14.5 -46.5t-40.5 -16.5h-55v-100q0 -28 -16 -44t-47 -16q-21 0 -43 11v149h-108v-100q0 -28 -16 -44t-47 -16q-21 0 -43 11v149h-105q-10 20 -10 40q0 30 14.5 46.5
t40.5 16.5h60v127h-105q-10 20 -10 40q0 32 14.5 47.5t40.5 15.5h60v108q0 29 16 44.5t47 15.5q24 0 43 -11v-157h108v108q0 29 16 44.5t47 15.5q24 0 43 -11zM347 390h-108v-127h108v127z" />
    <glyph glyph-name="dollar" unicode="$" 
d="M471 40.5q-56 -47.5 -141 -58.5v-40q0 -28 -12.5 -44t-38.5 -16q-20 0 -42 11v86q-76 6 -129 38.5t-53 100.5q0 44 28.5 71t72.5 27q33 0 52 -11q-7 -31 -7 -53q0 -104 86 -104q40 0 65 22.5t25 60.5q0 31 -17.5 55t-43 40.5t-70.5 40.5q-55 29 -89.5 53t-58.5 62t-24 92
q0 78 52.5 123.5t128.5 58.5v39q0 28 12.5 44.5t38.5 16.5q20 0 42 -11v-87q70 -6 118.5 -36.5t48.5 -93.5q0 -44 -28 -68t-73 -24q-31 0 -52 11q7 25 7 58q0 40 -17.5 62.5t-55.5 22.5q-33 0 -52.5 -18t-19.5 -51q0 -35 18 -61t45.5 -44t73.5 -42q54 -28 87 -51t56 -58.5
t23 -86.5q0 -90 -56 -137.5z" />
    <glyph glyph-name="percent" unicode="%" horiz-adv-x="973" 
d="M729 682.5q16 -12.5 26 -33.5l-415 -630q-13 -21 -26.5 -32.5t-32.5 -11.5t-35 12.5t-26 32.5l415 631q13 21 26.5 32.5t32.5 11.5t35 -12.5zM343 625q45 -52 45 -139q0 -91 -45 -147t-131 -56q-85 0 -130.5 54.5t-45.5 141.5q0 89 45 143.5t131 54.5t131 -52zM171 586.5
q-11 -40.5 -11 -104.5q0 -67 10 -107.5t42 -40.5q31 0 41 40.5t10 107.5q0 64 -10.5 104.5t-40.5 40.5t-41 -40.5zM892.5 322q44.5 -52 44.5 -140q0 -90 -44.5 -146.5t-130.5 -56.5q-85 0 -131 54.5t-46 142.5q0 89 45.5 143.5t131.5 54.5t130.5 -52zM720.5 284
q-10.5 -40 -10.5 -105q0 -68 10 -108.5t42 -40.5q31 0 41 41t10 108q0 64 -10.5 104.5t-40.5 40.5q-31 0 -41.5 -40z" />
    <glyph glyph-name="ampersand" unicode="&#x26;" horiz-adv-x="699" 
d="M704 49q0 -35 -26 -52t-69 -17q-62 0 -141 44q-74 -45 -170 -45q-75 0 -135.5 23t-96.5 70t-36 116q0 63 33.5 103.5t92.5 61.5q-51 95 -51 164q0 80 62 121t156 42q83 0 139.5 -30t56.5 -96q0 -41 -28 -65t-69 -24q-31 0 -50 12q6 24 6 50q0 39 -16 61.5t-50 22.5
q-64 0 -64 -83q0 -58 29.5 -126.5t79 -133t107.5 -110.5q10 36 10 90q0 76 -42 117q12 8 30.5 13t35.5 5q56 0 84 -32t28 -89q0 -88 -53 -158q41 -15 73 -15q37 0 58 12q16 -24 16 -52zM216.5 101.5q40.5 -44.5 113.5 -44.5q39 0 67 12q-53 41 -107 99.5t-96 121.5
q-8 -12 -13 -30.5t-5 -38.5q0 -75 40.5 -119.5z" />
    <glyph glyph-name="quotesingle" unicode="'" horiz-adv-x="207" 
d="M44 557q0 87 -15 157q28 6 50 6q49 0 71 -22.5t22 -72.5q0 -37 -14.5 -81.5t-34.5 -68.5h-83q4 33 4 82z" />
    <glyph glyph-name="parenleft" unicode="(" horiz-adv-x="351" 
d="M403 780q-94 -68 -140.5 -195t-46.5 -285t46.5 -285t140.5 -195q-16 -20 -51 -20q-72 0 -134.5 67t-100 182t-37.5 251t37.5 251t100 182t134.5 67q35 0 51 -20z" />
    <glyph glyph-name="parenright" unicode=")" horiz-adv-x="351" 
d="M137.5 733q61.5 -67 97.5 -181.5t36 -251.5q0 -136 -36 -251t-97.5 -182t-135.5 -67q-36 0 -54 21q94 67 140.5 194t46.5 285t-46.5 285t-140.5 195q19 20 54 20q74 0 135.5 -67z" />
    <glyph glyph-name="asterisk" unicode="*" horiz-adv-x="441" 
d="M402 569q4 -16 4 -21q0 -24 -18.5 -39t-50.5 -26q-19 -6 -42 -9l84 -89q-9 -24 -31 -40q-16 -12 -34 -12q-32 0 -67 48q-21 32 -33 62l-68 -125q-27 2 -47 17q-25 18 -25 43q0 27 28 64q16 21 33 37l-115 21q-2 7 -2 21q0 17 4 29q13 40 55 40q20 0 47 -9q20 -7 52 -23
l-17 125q22 14 48 14q35 0 48 -24.5t13 -63.5q0 -25 -6 -52l111 53q19 -15 29 -41z" />
    <glyph glyph-name="plus" unicode="+" 
d="M500 247q0 -25 -14.5 -39t-40.5 -14h-106v-127q0 -28 -15.5 -44t-43.5 -16q-26 0 -43 10v177h-146q-10 24 -10 40q0 25 14.5 39t40.5 14h101v118q0 29 15 44.5t43 15.5q27 0 44 -10v-168h151q10 -24 10 -40z" />
    <glyph glyph-name="comma" unicode="," horiz-adv-x="242" 
d="M187 93.5q25 -25.5 25 -73.5q0 -38 -19 -72t-51.5 -55t-69.5 -21q-22 0 -41 6q42 62 42 131q0 50 -24 94q11 7 29.5 11.5t36.5 4.5q47 0 72 -25.5z" />
    <glyph glyph-name="hyphen" unicode="-" horiz-adv-x="391" 
d="M40.5 205.5q-2.5 11.5 -2.5 19.5q0 57 64 60l242 10q4 -8 6.5 -19.5t2.5 -19.5q0 -56 -65 -59l-241 -10q-4 7 -6.5 18.5z" />
    <glyph glyph-name="period" unicode="." horiz-adv-x="247" 
d="M190.5 105q24.5 -19 24.5 -53q0 -35 -26 -53.5t-67 -18.5q-40 0 -65 18t-25 52q0 35 26.5 54.5t67.5 19.5q40 0 64.5 -19z" />
    <glyph glyph-name="slash" unicode="/" horiz-adv-x="334" 
d="M282.5 787q20.5 -13 20.5 -43q0 -16 -4 -38l-155 -903q-13 -3 -39 -3q-74 0 -74 55q0 15 4 39l155 902q18 4 39 4q33 0 53.5 -13z" />
    <glyph glyph-name="zero" unicode="0" 
d="M489 588q64 -92 64 -249q0 -159 -65.5 -260t-197.5 -101q-131 0 -196.5 96.5t-65.5 251.5q0 160 64 257t198 97q135 0 199 -92zM363 125.5q19 75.5 19 207.5q0 126 -19 200.5t-73 74.5q-53 0 -72 -74.5t-19 -200.5q0 -132 19 -207.5t72 -75.5q54 0 73 75.5z" />
    <glyph glyph-name="one" unicode="1" 
d="M549 82v-82h-474v82h170v427q-48 -32 -81 -47t-61 -15q-36 0 -52.5 21t-16.5 63q80 26 169 65.5t165 81.5l43 -21v-575h138z" />
    <glyph glyph-name="two" unicode="2" 
d="M446.5 630q71.5 -50 71.5 -146q0 -82 -53.5 -154.5t-172.5 -164.5q-43 -30 -73 -50l315 5l-4 -120h-488l-7 73q79 64 142 130q80 70 125.5 130.5t45.5 123.5q0 53 -35.5 81t-95.5 28q-95 0 -142 -106q-19 10 -28 28.5t-11 46.5q2 48 34.5 80.5t82 48.5t103.5 16
q119 0 190.5 -50z" />
    <glyph glyph-name="three" unicode="3" 
d="M435.5 640.5q63.5 -39.5 63.5 -121.5q0 -55 -31.5 -98t-85.5 -64q72 -12 111.5 -53.5t39.5 -110.5q0 -67 -35.5 -115.5t-100 -74t-150.5 -25.5q-83 0 -143 34.5t-60 105.5q0 41 26 57q44 -83 153 -83q66 0 103 28t37 80q0 54 -34 78t-98 24q-18 0 -42 -2v70q72 1 118 26
t46 82q0 43 -36 65t-95 22q-89 0 -131 -91q-34 16 -39 65q0 47 31.5 79t80.5 47t102 15q106 0 169.5 -39.5z" />
    <glyph glyph-name="four" unicode="4" 
d="M479 235h98l-8 -103h-89v-132h-171v132h-272q-14 5 -22 18t-8 32q0 30 26 67l280 411h166v-425zM312 516l-190 -281h190v281z" />
    <glyph glyph-name="five" unicode="5" 
d="M485 537h-307l-12 -130q50 6 109 6q126 0 192.5 -49t66.5 -156q0 -69 -36 -121t-99.5 -80.5t-143.5 -28.5q-92 0 -156 35t-64 105q0 41 26 57q40 -83 170 -83q58 0 95.5 30.5t37.5 82.5q0 63 -46 88t-129 25q-60 0 -125 -9l31 351h381z" />
    <glyph glyph-name="six" unicode="6" 
d="M458 655q54 -25 54 -73q0 -33 -26 -53q-23 20 -56.5 30t-66.5 10q-82 0 -117 -49t-37 -143q24 33 64 49.5t88 16.5q96 0 142.5 -63.5t46.5 -152.5q0 -74 -31.5 -130.5t-88 -87.5t-130.5 -31q-89 0 -149.5 42t-90 116t-29.5 168q0 104 34.5 189.5t104 136t171.5 50.5
q63 0 117 -25zM212 211q2 -67 21.5 -114t66.5 -47q48 0 68 47.5t20 113.5q0 61 -21 107t-67 46q-82 0 -88 -153z" />
    <glyph glyph-name="seven" unicode="7" 
d="M551 660l7 -73l-270 -610l-181 24l289 544l-358 -10l3 125h510z" />
    <glyph glyph-name="eight" unicode="8" 
d="M476 430.5q-35 -41.5 -89 -67.5q74 -41 116.5 -85.5t42.5 -108.5q0 -97 -72.5 -144t-184.5 -47q-110 0 -182 46.5t-72 141.5q0 54 39 97.5t100 72.5q-54 36 -85.5 78t-31.5 94q0 87 66.5 129.5t168.5 42.5q94 0 156.5 -39t62.5 -118q0 -51 -35 -92.5zM246 464.5
q27 -29.5 76 -60.5q23 22 35 54t12 65q0 38 -20 61.5t-57 23.5q-35 0 -54 -21.5t-19 -58.5q0 -34 27 -63.5zM343 215.5q-34 31.5 -104 75.5q-22 -26 -35 -61t-13 -68q0 -50 25.5 -81t72.5 -31q43 0 65.5 24.5t22.5 69.5q0 40 -34 71.5z" />
    <glyph glyph-name="nine" unicode="9" 
d="M426.5 638q60.5 -42 90 -116t29.5 -168q0 -104 -34.5 -189.5t-104 -136t-171.5 -50.5q-38 0 -78 10.5t-66.5 32.5t-26.5 55t26 53q23 -20 56.5 -30t66.5 -10q83 0 117.5 49t36.5 143q-25 -33 -64.5 -49.5t-87.5 -16.5q-96 0 -142.5 63.5t-46.5 152.5q0 74 31 130.5
t88 87.5t131 31q89 0 149.5 -42zM209 560.5q-20 -47.5 -20 -113.5q0 -63 20 -108t68 -45q49 0 68.5 44t19.5 109q0 66 -20 113.5t-68 47.5t-68 -47.5z" />
    <glyph glyph-name="colon" unicode=":" horiz-adv-x="254" 
d="M35 0zM193.5 511q24.5 -19 24.5 -53q0 -35 -26 -53.5t-67 -18.5q-40 0 -65 18t-25 52q0 35 26.5 54.5t67.5 19.5q40 0 64.5 -19zM193.5 105q24.5 -19 24.5 -53q0 -35 -26 -53.5t-67 -18.5q-40 0 -65 18t-25 52q0 35 26.5 54.5t67.5 19.5q40 0 64.5 -19z" />
    <glyph glyph-name="semicolon" unicode=";" horiz-adv-x="260" 
d="M40 0zM199.5 511q24.5 -19 24.5 -53q0 -35 -26 -53.5t-67 -18.5q-40 0 -65 18t-25 52q0 35 26.5 54.5t67.5 19.5q40 0 64.5 -19zM196 93.5q25 -25.5 25 -73.5q0 -38 -19 -72t-51.5 -55t-69.5 -21q-22 0 -41 6q42 62 42 131q0 50 -24 94q11 7 29.5 11.5t36.5 4.5
q47 0 72 -25.5z" />
    <glyph glyph-name="less" unicode="&#x3c;" 
d="M467 86q0 -29 -18.5 -46t-47.5 -17l-308 233l249 191q5 4 18.5 14t26 15.5t25.5 5.5q26 0 42.5 -15.5t20.5 -43.5l-204 -160l166 -121q30 -23 30 -56z" />
    <glyph glyph-name="equal" unicode="=" 
d="M81 304q0 25 14.5 38.5t40.5 13.5h354q10 -22 10 -39q0 -26 -14.5 -39.5t-40.5 -13.5h-354q-10 24 -10 40zM81 135q0 25 14.5 38.5t40.5 13.5h354q10 -22 10 -39q0 -25 -14.5 -39t-40.5 -14h-354q-10 24 -10 40z" />
    <glyph glyph-name="greater" unicode="&#x3e;" 
d="M488 250l-248 -191q-3 -3 -17 -14t-27.5 -16.5t-25.5 -5.5q-26 0 -43 15.5t-21 44.5l209 164l-171 121q-14 11 -22 26t-8 31q0 27 18.5 42t47.5 15z" />
    <glyph glyph-name="question" unicode="?" horiz-adv-x="461" 
d="M442 530q0 -39 -16.5 -72t-40.5 -57.5t-62 -57.5q-48 -41 -71 -69.5t-23 -63.5q-5 -4 -17.5 -6.5t-23.5 -2.5q-27 0 -42 16.5t-15 45.5q0 27 16.5 52.5t51.5 65.5q41 46 63 81.5t22 77.5q0 36 -16.5 58t-51.5 22q-34 0 -52 -22.5t-18 -60.5q0 -27 8 -57q-18 -9 -48 -9
q-47 0 -75.5 22.5t-28.5 66.5q0 65 64 92.5t153 27.5q223 0 223 -150zM253.5 105q24.5 -19 24.5 -53q0 -35 -26 -53.5t-67 -18.5q-40 0 -65 18t-25 52q0 35 26.5 54.5t67.5 19.5q40 0 64.5 -19z" />
    <glyph glyph-name="at" unicode="@" horiz-adv-x="813" 
d="M598.5 565.5q83.5 -35.5 131.5 -106.5t48 -173q0 -104 -46.5 -164.5t-141.5 -60.5q-89 0 -117 58q-13 -27 -40.5 -41t-65.5 -14q-56 0 -94 28t-38 79q0 67 60 91t153 24v59q0 32 -8 48.5t-33 16.5t-35.5 -13.5t-10.5 -40.5q0 -13 4 -35q-8 -7 -37 -7q-32 0 -52.5 14
t-20.5 41q0 44 48.5 65t111.5 21q79 0 115.5 -29.5t36.5 -103.5v-163q0 -24 8 -37.5t30 -13.5q43 0 59 40t16 113q0 276 -273 276q-131 0 -201.5 -77t-70.5 -212q0 -136 69.5 -206.5t205.5 -70.5q53 0 96 9t73 35q17 -11 17 -34q0 -39 -58 -59t-132 -20q-110 0 -194 41
t-130 119t-46 186q0 103 45 183t129 125t197 45q108 0 191.5 -35.5zM356 174q0 -24 11 -38.5t33 -14.5q24 0 36 19.5t12 48.5v53q-92 0 -92 -68z" />
    <glyph glyph-name="A" unicode="A" horiz-adv-x="547" 
d="M377 660l169 -660h-169l-38 163h-185l-37 -163h-121l182 660h199zM173 242h148l-75 320z" />
    <glyph glyph-name="B" unicode="B" horiz-adv-x="582" 
d="M483 426q-28 -37 -72 -55q72 -14 111.5 -60t39.5 -118q0 -69 -40.5 -114.5t-106 -67t-142.5 -21.5q-103 0 -218 14v650q128 11 222 11q109 0 171.5 -34t62.5 -123q0 -45 -28 -82zM260 385q104 0 104 113q0 94 -91 94q-25 0 -52 -5v-199q17 -3 39 -3zM275 62q59 0 89.5 33
t30.5 95q0 68 -33.5 98t-104.5 30q-16 0 -36 -2v-248q27 -6 54 -6z" />
    <glyph glyph-name="C" unicode="C" horiz-adv-x="550" 
d="M225 532.5q-20 -75.5 -20 -183.5q0 -116 30.5 -184t112.5 -68q49 0 84 25t55 72q39 -19 39 -66q0 -48 -31 -82t-79.5 -51t-101.5 -17q-149 0 -218 95t-69 253q0 165 72 259.5t222 94.5q91 0 150 -33t59 -107q0 -44 -28.5 -71t-72.5 -27q-33 0 -52 11q7 32 7 53
q0 102 -74 102q-65 0 -85 -75.5z" />
    <glyph glyph-name="D" unicode="D" horiz-adv-x="614" 
d="M291 665q152 0 224 -82t72 -241q0 -169 -77.5 -260.5t-236.5 -91.5q-103 0 -218 14v650q128 11 236 11zM385 135q26 73 26 198q0 114 -25.5 186.5t-97.5 72.5q-31 0 -67 -6v-517q28 -7 59 -7q79 0 105 73z" />
    <glyph glyph-name="E" unicode="E" horiz-adv-x="447" 
d="M418 660v-79h-197v-202h167v-80h-167v-220h211l-7 -79h-370v660h363z" />
    <glyph glyph-name="F" unicode="F" horiz-adv-x="429" 
d="M418 660v-79h-197v-216h167v-80h-167v-285h-166v660h363z" />
    <glyph glyph-name="G" unicode="G" horiz-adv-x="578" 
d="M205 349q0 -121 27 -195t108 -74q39 0 69 11l-6 212l133 14v-298q-46 -21 -103 -31t-113 -10q-152 0 -222.5 94.5t-70.5 253.5q0 167 75 260.5t230 93.5q95 0 156 -32t61 -108q0 -44 -29 -71t-73 -27q-31 0 -52 11q7 25 7 53q0 46 -20 74t-62 28q-115 0 -115 -259z" />
    <glyph glyph-name="H" unicode="H" horiz-adv-x="626" 
d="M571 660v-660h-165v294h-185v-294h-166v660h166v-286h185v286h165z" />
    <glyph glyph-name="I" unicode="I" horiz-adv-x="275" 
d="M221 660v-660h-166v660h166z" />
    <glyph glyph-name="J" unicode="J" horiz-adv-x="275" 
d="M186.5 -103.5q-34.5 -72.5 -126.5 -72.5q-35 0 -63.5 12.5t-35.5 39.5q59 3 76.5 50t17.5 129v605h166v-573q0 -118 -34.5 -190.5z" />
    <glyph glyph-name="K" unicode="K" horiz-adv-x="570" 
d="M221 0h-166v660h166v-660zM406 660h167l-174 -307l188 -353h-174l-172 334z" />
    <glyph glyph-name="L" unicode="L" horiz-adv-x="424" 
d="M55 660h166v-578h198l-8 -82h-356v660z" />
    <glyph glyph-name="M" unicode="M" horiz-adv-x="798" 
d="M743 660v-660h-166v531l-161 -531h-96l-161 532v-532h-104v660h226l121 -421l120 421h221z" />
    <glyph glyph-name="N" unicode="N" horiz-adv-x="618" 
d="M394 0l-235 471v-471h-104v660h170l235 -471v471h103v-660h-169z" />
    <glyph glyph-name="O" unicode="O" horiz-adv-x="626" 
d="M530 590q69 -90 69 -251q0 -165 -69.5 -263t-216.5 -98q-145 0 -215.5 94t-70.5 254q0 163 69.5 258.5t216.5 95.5q148 0 217 -90zM400 129.5q20 79.5 20 203.5q0 119 -20.5 197t-86.5 78t-87 -78.5t-21 -196.5q0 -123 20.5 -203t87.5 -80t87 79.5z" />
    <glyph glyph-name="P" unicode="P" horiz-adv-x="557" 
d="M491 325.5q-54 -54.5 -142 -54.5q-41 0 -68 14.5t-27 46.5q66 0 95.5 32.5t29.5 101.5q0 126 -106 126q-25 0 -52 -5v-587h-166v653q129 12 222 12q125 0 196.5 -44.5t71.5 -151.5q0 -89 -54 -143.5z" />
    <glyph glyph-name="Q" unicode="Q" horiz-adv-x="626" 
d="M530 590q69 -90 69 -251q0 -104 -33 -185.5t-97.5 -128.5t-155.5 -47q106 -26 177 -26q28 0 49 5.5t39 22.5q12 -20 18.5 -36.5t6.5 -34.5q0 -39 -24 -57t-64 -18q-35 0 -69 9t-87 28q-49 18 -81.5 26.5t-64.5 8.5q-46 0 -68 -10q-8 8 -12.5 19.5t-4.5 23.5
q0 31 21.5 42.5t61.5 12.5q-94 29 -139 116t-45 216q0 163 69.5 258.5t216.5 95.5q148 0 217 -90zM226 529.5q-21 -78.5 -21 -196.5q0 -123 20.5 -203t87.5 -80t87 79.5t20 203.5q0 119 -20.5 197t-86.5 78t-87 -78.5z" />
    <glyph glyph-name="R" unicode="R" horiz-adv-x="577" 
d="M506.5 356q-32.5 -48 -89.5 -68l166 -288h-173l-148 307q-7 18 -7 30q64 0 91.5 32.5t27.5 98.5q0 124 -101 124q-25 0 -52 -5v-587h-166v653q129 12 222 12q124 0 193 -43.5t69 -149.5q0 -68 -32.5 -116z" />
    <glyph glyph-name="S" unicode="S" horiz-adv-x="513" 
d="M417 649q60 -31 60 -101q0 -44 -28 -68t-73 -24q-31 0 -52 11q7 25 7 58q0 40 -17.5 62.5t-55.5 22.5q-33 0 -52.5 -18t-19.5 -51q0 -34 18 -60.5t44.5 -45.5t72.5 -46q54 -32 87.5 -57t57 -63t23.5 -91q0 -99 -70 -149.5t-182 -50.5q-93 0 -156.5 33t-63.5 107
q0 44 28.5 71t72.5 27q33 0 52 -11q-7 -31 -7 -53q0 -104 86 -104q40 0 65 22.5t25 60.5q0 34 -18 60.5t-45 46t-72 46.5q-54 32 -87.5 57t-57 63t-23.5 90q0 59 32 101t85.5 63.5t116.5 21.5q87 0 147 -31z" />
    <glyph glyph-name="T" unicode="T" horiz-adv-x="454" 
d="M460 660l-7 -79h-143v-581h-166v581h-148v79h464z" />
    <glyph glyph-name="U" unicode="U" horiz-adv-x="579" 
d="M509.5 109.5q-20.5 -64.5 -72 -98t-142.5 -33.5q-133 0 -190 63t-57 200v419h166v-408q0 -67 6 -108t27 -65t62 -24q42 0 62.5 25.5t26.5 68.5t6 114v397h126v-386q0 -100 -20.5 -164.5z" />
    <glyph glyph-name="V" unicode="V" horiz-adv-x="532" 
d="M541 660l-179 -660h-203l-160 660h169l121 -562l118 562h134z" />
    <glyph glyph-name="W" unicode="W" horiz-adv-x="880" 
d="M890 660l-173 -660h-203l-81 401l-78 -401h-203l-153 660h169l114 -562l112 562h136l113 -562l112 562h135z" />
    <glyph glyph-name="X" unicode="X" horiz-adv-x="523" 
d="M526 660l-177 -323l180 -337h-174l-120 236l-103 -236h-139l185 339l-171 321h174l110 -220l96 220h139z" />
    <glyph glyph-name="Y" unicode="Y" horiz-adv-x="528" 
d="M343 302v-302h-166v291l-176 369h174l110 -266l100 266h139z" />
    <glyph glyph-name="Z" unicode="Z" horiz-adv-x="450" 
d="M432 660l7 -75l-256 -503h266l-8 -82h-428l-7 75l255 503h-236l3 82h404z" />
    <glyph glyph-name="bracketleft" unicode="[" horiz-adv-x="321" 
d="M343 761q0 -37 -43 -37h-88v-847h88q43 0 43 -37q0 -16 -7 -30h-259v981h259q7 -14 7 -30z" />
    <glyph glyph-name="backslash" unicode="\" horiz-adv-x="334" 
d="M144 796l155 -902q4 -24 4 -39q0 -55 -74 -55q-25 0 -39 3l-155 903q-4 22 -4 38q0 30 20.5 43t53.5 13q21 0 39 -4z" />
    <glyph glyph-name="bracketright" unicode="]" horiz-adv-x="321" 
d="M-15 -190q-7 14 -7 30q0 37 43 37h88v847h-88q-43 0 -43 37q0 16 7 30h259v-981h-259z" />
    <glyph glyph-name="asciicircum" unicode="^" horiz-adv-x="504" 
d="M391.5 461.5q42.5 -78.5 105.5 -125.5q-16 -50 -72 -50q-57 0 -102.5 59t-81.5 189q-48 -132 -89 -190t-82 -58q-47 0 -63 50q68 38 117.5 124.5t78.5 199.5h119q27 -120 69.5 -198.5z" />
    <glyph glyph-name="underscore" unicode="_" horiz-adv-x="507" 
d="M7 -101q0 30 17.5 44.5t49.5 14.5h420q6 -13 6 -37q0 -30 -17.5 -44.5t-49.5 -14.5h-420q-6 13 -6 37z" />
    <glyph glyph-name="grave" unicode="`" horiz-adv-x="266" 
d="M108 617q-46 17 -72 34.5t-26 47.5q0 21 14.5 39.5t36.5 26.5l195 -151l-23 -41z" />
    <glyph glyph-name="a" unicode="a" horiz-adv-x="540" 
d="M290 -6q-36 -16 -81 -16q-77 0 -130 40t-53 111q0 94 87 128t219 34v87q0 47 -13 72t-51 25q-36 0 -56 -21.5t-20 -58.5q0 -16 6 -48q-7 -5 -21 -7.5t-26 -2.5q-41 0 -68 19.5t-27 56.5q0 57 64.5 87t154.5 30q108 0 159 -43t51 -145v-242q0 -28 7 -49t24 -37
q-11 -14 -32.5 -21.5t-43.5 -7.5q-37 0 -62 15.5t-34 44.5q-18 -35 -54 -51zM313.5 79q18.5 32 18.5 78v84q-148 0 -148 -108q0 -38 18.5 -62t53.5 -24q39 0 57.5 32z" />
    <glyph glyph-name="b" unicode="b" horiz-adv-x="562" 
d="M215 600q0 -102 -10 -145q21 37 58 56t82 19q99 0 143 -74.5t44 -193.5q0 -132 -63.5 -208t-187.5 -76q-53 0 -114 14t-105 37v671l153 16v-116zM287 38q54 0 70 61t16 158q0 88 -15.5 142.5t-64.5 54.5t-63.5 -45t-14.5 -119v-228q32 -24 72 -24z" />
    <glyph glyph-name="c" unicode="c" horiz-adv-x="476" 
d="M188 259q0 -84 23 -133t87 -49q42 0 71.5 22t43.5 62q17 -6 26 -19.5t9 -31.5q0 -42 -25 -71.5t-65 -45t-85 -15.5q-120 0 -181.5 73t-61.5 200q0 130 65 204.5t190 74.5q76 0 125.5 -28.5t49.5 -91.5q0 -38 -27 -57t-69 -19q-12 0 -25.5 2.5t-20.5 7.5q6 30 6 47
q0 79 -54 79q-82 0 -82 -211z" />
    <glyph glyph-name="d" unicode="d" horiz-adv-x="564" 
d="M507 51q7 -21 24 -37q-11 -14 -32.5 -21.5t-43.5 -7.5q-37 0 -62 15.5t-34 44.5q-19 -34 -54.5 -50.5t-79.5 -16.5q-103 0 -149 77.5t-46 201.5q0 129 62 201t186 72q41 0 69 -8v178l153 16v-616q0 -28 7 -49zM275 470q-53 0 -69 -57.5t-16 -150.5q0 -91 16.5 -151.5
t67.5 -60.5q37 0 55 32t18 78v286q-34 24 -72 24z" />
    <glyph glyph-name="e" unicode="e" horiz-adv-x="498" 
d="M457 107q0 -41 -27 -70t-69.5 -44t-87.5 -15q-120 0 -181.5 73t-61.5 200q0 131 66.5 205t192.5 74q81 0 134 -37t53 -109q0 -89 -63 -123t-172 -34q-34 0 -53 3q3 -71 27.5 -112t82.5 -41q43 0 78.5 20.5t54.5 58.5q26 -12 26 -49zM207.5 412.5
q-18.5 -58.5 -19.5 -136.5h20q63 -1 95.5 23t32.5 82q0 38 -15.5 64t-46.5 26q-48 0 -66.5 -58.5z" />
    <glyph glyph-name="f" unicode="f" horiz-adv-x="335" 
d="M72 -14v479h-69v45h69l3 51q5 84 62 121.5t152 37.5q70 0 122 -19.5t52 -68.5q0 -35 -27 -53t-68 -18q-33 0 -47 10q6 26 6 47q0 26 -11 41t-34 15q-36 0 -47 -29t-11 -79v-56h99v-45h-98v-465z" />
    <glyph glyph-name="g" unicode="g" horiz-adv-x="558" 
d="M324 -112.5q19 29.5 23.5 73t4.5 116.5v31q-21 -28 -55.5 -41t-75.5 -13q-97 0 -143 63.5t-46 171.5q0 117 61 179t177 62q61 0 111 -20l117 16v-425q0 -102 -21 -167.5t-74 -99.5t-147 -34q-76 0 -135 29.5t-59 89.5q0 38 26.5 57t68.5 19q35 0 47 -10q-6 -30 -6 -47
q0 -37 16 -58.5t50 -21.5q41 0 60 29.5zM273 470q-50 0 -66 -49t-16 -126q0 -74 16 -122t65 -48q38 0 55.5 32.5t17.5 80.5v209q-32 23 -72 23z" />
    <glyph glyph-name="h" unicode="h" horiz-adv-x="566" 
d="M215 600q0 -102 -10 -145q23 38 60.5 56.5t84.5 18.5q87 0 124 -46.5t37 -141.5v-242q0 -28 7 -49t24 -37q-11 -14 -33.5 -21.5t-44.5 -7.5q-52 0 -79 26.5t-27 78.5v244q0 58 -11.5 89t-51.5 31q-49 0 -64.5 -45t-15.5 -119v-290h-153v700l153 16v-116z" />
    <glyph glyph-name="i" unicode="i" horiz-adv-x="270" 
d="M201.5 717q24.5 -19 24.5 -53q0 -35 -26 -53.5t-67 -18.5q-40 0 -65.5 18.5t-25.5 51.5q0 35 26.5 54.5t67.5 19.5t65.5 -19zM208 100q0 -28 7 -49t24 -37q-11 -14 -33.5 -21.5t-44.5 -7.5q-52 0 -79 26.5t-27 78.5v420h153v-410z" />
    <glyph glyph-name="j" unicode="j" horiz-adv-x="275" 
d="M206.5 717q24.5 -19 24.5 -53q0 -35 -26 -53.5t-67 -18.5q-40 0 -65.5 18.5t-25.5 51.5q0 35 26.5 54.5t67.5 19.5t65.5 -19zM182 -133.5q-33 -66.5 -118 -66.5q-33 0 -59.5 11t-32.5 36q54 3 72 47.5t18 119.5v496h153v-469q0 -108 -33 -174.5z" />
    <glyph glyph-name="k" unicode="k" horiz-adv-x="525" 
d="M62 0v700l153 16v-716h-153zM383 510h142l-156 -206l161 -304h-170l-131 281z" />
    <glyph glyph-name="l" unicode="l" horiz-adv-x="274" 
d="M210 716v-616q0 -28 7 -49t24 -37q-11 -14 -33.5 -21.5t-44.5 -7.5q-52 0 -79 26.5t-27 78.5v610z" />
    <glyph glyph-name="m" unicode="m" horiz-adv-x="849" 
d="M56 510l125 12l7 -90q38 98 157 98q58 0 93 -21.5t52 -64.5q40 86 146 86q86 0 122 -47t36 -141v-242q0 -28 7 -49t24 -37q-11 -14 -33.5 -21.5t-44.5 -7.5q-52 0 -79 26.5t-27 78.5v244q0 58 -11 89t-50 31q-46 0 -60.5 -46t-14.5 -118v-290h-153v334q0 59 -11 89.5
t-52 30.5q-49 0 -64.5 -45t-15.5 -119v-290h-153v510z" />
    <glyph glyph-name="n" unicode="n" horiz-adv-x="561" 
d="M56 510l125 12l7 -90q38 98 157 98q87 0 123.5 -47t36.5 -141v-242q0 -28 7 -49t24 -37q-11 -14 -33.5 -21.5t-44.5 -7.5q-52 0 -79 26.5t-27 78.5v244q0 59 -11 89.5t-52 30.5q-49 0 -64.5 -45t-15.5 -119v-290h-153v510z" />
    <glyph glyph-name="o" unicode="o" horiz-adv-x="543" 
d="M452.5 459q60.5 -71 60.5 -197q0 -130 -61 -207t-180 -77q-118 0 -180 74t-62 200q0 128 61.5 203t180.5 75q120 0 180.5 -71zM339 99q15 61 15 158q0 92 -16 152.5t-66 60.5t-66 -61t-16 -152q0 -97 15 -158t67 -61t67 61z" />
    <glyph glyph-name="p" unicode="p" horiz-adv-x="562" 
d="M490 455.5q42 -74.5 42 -193.5q0 -132 -63.5 -208t-188.5 -76q-37 0 -65 8v-166l-153 -13v703l125 12l6 -90q40 98 157 98q98 0 140 -74.5zM231.5 414.5q-16.5 -39.5 -16.5 -101.5v-251q34 -24 71 -24q54 0 70 61t16 158q0 90 -14.5 143.5t-64.5 53.5q-45 0 -61.5 -39.5z
" />
    <glyph glyph-name="q" unicode="q" horiz-adv-x="559" 
d="M348 -92q0 91 10 134q-21 -32 -56.5 -48t-77.5 -16q-103 0 -148.5 75.5t-45.5 197.5q0 129 61 204t182 75q60 0 110 -20l118 16v-706l-153 -16v104zM275 470q-53 0 -69 -59.5t-16 -154.5q0 -89 17 -147.5t68 -58.5q73 0 73 126v269q-34 25 -73 25z" />
    <glyph glyph-name="r" unicode="r" horiz-adv-x="442" 
d="M219 403.5q-10 -44.5 -10 -114.5v-289h-153v510l125 12l7 -90q16 46 52 72t85 26q57 0 90.5 -32.5t33.5 -88.5q0 -47 -25 -72t-71 -25q-11 0 -26 3t-22 8q7 22 7 52q0 73 -47 73q-36 0 -46 -44.5z" />
    <glyph glyph-name="s" unicode="s" horiz-adv-x="464" 
d="M199.5 460q-15.5 -15 -15.5 -40q0 -38 28 -63t85 -55q45 -25 72 -43.5t46 -47t19 -68.5q0 -83 -60 -124t-155 -41q-78 0 -134 25t-56 84q0 38 26.5 57t68.5 19q33 0 47 -10q-6 -22 -6 -47q0 -34 16 -53.5t47 -19.5q32 0 49 18.5t17 51.5q0 38 -28 63t-84 55
q-45 24 -72.5 43t-46.5 48t-19 69q0 75 60 112t148 37q73 0 127 -24t54 -79q0 -36 -27.5 -55.5t-68.5 -19.5q-12 0 -25.5 2t-20.5 7q6 26 6 48q0 30 -14.5 48t-41.5 18q-26 0 -41.5 -15z" />
    <glyph glyph-name="t" unicode="t" horiz-adv-x="311" 
d="M5 465v31q48 18 97 50t81 68h43v-104h92v-45h-93v-356q0 -31 11.5 -47.5t37.5 -21.5q-10 -26 -37 -40.5t-60 -14.5q-52 0 -78.5 28t-26.5 81v371h-67z" />
    <glyph glyph-name="u" unicode="u" horiz-adv-x="568" 
d="M507 100q0 -28 7 -49t24 -37q-12 -14 -33.5 -21.5t-43.5 -7.5q-36 0 -61 15.5t-34 44.5q-20 -34 -55.5 -50.5t-79.5 -16.5q-73 0 -111.5 31t-51.5 86t-13 141v274h155v-269q0 -63 3.5 -101.5t19 -64t48.5 -25.5q38 0 55.5 32t17.5 80v348h153v-410z" />
    <glyph glyph-name="v" unicode="v" horiz-adv-x="486" 
d="M491 510l-155 -510h-193l-138 510h160l93 -437l93 437h140z" />
    <glyph glyph-name="w" unicode="w" horiz-adv-x="752" 
d="M757 510l-143 -510h-177l-67 296l-62 -296h-178l-125 510h160l80 -437l81 437h135l81 -437l80 437h135z" />
    <glyph glyph-name="x" unicode="x" horiz-adv-x="466" 
d="M210 171l-70 -171h-141l156 261l-143 249h170l78 -154l59 154h141l-147 -247l153 -263h-170z" />
    <glyph glyph-name="y" unicode="y" horiz-adv-x="478" 
d="M480 510l-237 -703l-153 13l108 234h-62l-127 456h160l86 -384l93 384h132z" />
    <glyph glyph-name="z" unicode="z" horiz-adv-x="406" 
d="M383 510l7 -59l-213 -375l217 11l-8 -87h-374l-7 60l212 373l-197 -13l9 90h354z" />
    <glyph glyph-name="braceleft" unicode="{" horiz-adv-x="357" 
d="M345 792v-51h-27q-40 0 -55.5 -24t-15.5 -75v-217q0 -51 -21 -78t-70 -33q38 -5 57.5 -20t25.5 -38.5t6 -60.5v-209q0 -53 14.5 -89.5t55.5 -36.5h27l-2 -52q-52 -8 -91 -8q-73 0 -105 32.5t-32 100.5v234q0 110 -83 110l1 65q43 0 63.5 26.5t20.5 79.5v228q0 68 31 96
t108 28q47 0 92 -8z" />
    <glyph glyph-name="bar" unicode="|" horiz-adv-x="283" 
d="M204 800h-125v-1000h125v1000z" />
    <glyph glyph-name="braceright" unicode="}" horiz-adv-x="383" 
d="M131 347q21 -27 70 -33q-38 -5 -57.5 -20t-25.5 -38.5t-6 -60.5v-209q0 -53 -14.5 -89.5t-55.5 -36.5h-27l2 -52q52 -8 91 -8q73 0 105 32.5t32 100.5v234q0 110 83 110l-1 65q-43 0 -63.5 26.5t-20.5 79.5v228q0 68 -31 96t-108 28q-47 0 -92 -8v-51h27q40 0 55.5 -24
t15.5 -75v-217q0 -51 21 -78z" />
    <glyph glyph-name="asciitilde" unicode="~" 
d="M351.5 261q-26.5 5 -52.5 11q-82 20 -121 20q-40 0 -65 -14t-25 -43q0 -15 8 -31t21 -27q8 13 27.5 19.5t41.5 6.5q17 0 43.5 -5t52.5 -11q82 -20 121 -20q40 0 65 14t25 43q0 15 -8 31t-21 27q-8 -13 -27.5 -19.5t-41.5 -6.5q-17 0 -43.5 5z" />
    <glyph glyph-name="uni00A0" unicode="&#xa0;" horiz-adv-x="175" 
 />
    <glyph glyph-name="exclamdown" unicode="&#xa1;" horiz-adv-x="249" 
d="M191.5 511q24.5 -19 24.5 -53q0 -35 -26 -53.5t-67 -18.5q-40 0 -65 18t-25 52q0 35 26.5 54.5t67.5 19.5q40 0 64.5 -19zM165.5 302q11.5 -18 14.5 -61l21 -385q-12 -12 -33 -19.5t-41 -7.5q-79 0 -79 86q0 43 8 121l23 273q14 11 40 11q35 0 46.5 -18z" />
    <glyph glyph-name="cent" unicode="&#xa2;" 
d="M517 174q0 -58 -46.5 -92.5t-107.5 -38.5v-32q0 -60 -51 -60q-22 0 -42 10v88q-91 20 -143 86.5t-52 179.5q0 114 51 181.5t142 88.5v42q0 28 13 44.5t39 16.5q21 0 41 -11v-83q69 -1 118.5 -28.5t49.5 -91.5q0 -37 -27 -56.5t-68 -19.5q-11 0 -25 2.5t-22 7.5q6 32 6 48
q0 79 -54 79q-107 0 -107 -212q0 -83 28.5 -132.5t106.5 -49.5q42 0 71.5 22.5t43.5 62.5q35 -12 35 -52z" />
    <glyph glyph-name="sterling" unicode="&#xa3;" 
d="M252 164.5q-19 -36.5 -61 -55.5l325 7l-9 -116h-447l-9 82q41 16 54 49.5t13 96.5v105h-74q-5 12 -5 26q0 43 48 43h31v94q0 86 59.5 125t157.5 39q87 0 145.5 -27.5t58.5 -94.5q0 -44 -28.5 -68t-73.5 -24q-34 0 -52 11q7 25 7 58q0 44 -14 69t-50 25t-46.5 -27.5
t-10.5 -80.5v-99h156q5 -13 5 -27q0 -42 -49 -42h-112v-76q0 -56 -19 -92.5z" />
    <glyph glyph-name="currency" unicode="&#xa4;" 
d="M469 101l-86 85q-40 -22 -95 -22q-50 0 -88 18l-80 -85l-66 64l80 78q-26 40 -26 96q0 54 26 94l-91 78l53 67l96 -90q41 24 96 24q50 0 90 -20l89 88l60 -63l-88 -79q29 -41 29 -99q0 -51 -24 -93l86 -76zM347.5 271q21.5 25 21.5 65q0 41 -22 66t-59 25t-59 -25
t-22 -66q0 -40 21 -65t60 -25q38 0 59.5 25z" />
    <glyph glyph-name="yen" unicode="&#xa5;" 
d="M372 259v-65h118q5 -13 5 -27q0 -42 -49 -42h-74v-125h-166v125h-116q-4 9 -4 26q0 43 48 43h72v65h-116q-4 9 -4 26q0 43 48 43h54l-159 332h174l111 -266l99 266h139l-166 -332h104q5 -13 5 -27q0 -42 -49 -42h-74z" />
    <glyph glyph-name="brokenbar" unicode="&#xa6;" horiz-adv-x="284" 
d="M205 388v272h-125v-272h125zM204 0v272h-125v-272h125z" />
    <glyph glyph-name="section" unicode="&#xa7;" horiz-adv-x="463" 
d="M378.5 43.5q21.5 -32.5 21.5 -76.5q0 -69 -56.5 -108t-138.5 -39q-66 0 -113 25t-47 80q0 35 21.5 55.5t56.5 20.5q25 0 41 -11q-4 -16 -4 -39q0 -36 14.5 -57.5t46.5 -21.5q28 0 43.5 15.5t15.5 42.5q0 37 -27 63t-82 61q-44 27 -71.5 48.5t-46.5 52.5t-19 72
q0 55 31 98t81 70q-38 29 -60 62.5t-22 77.5q0 68 56.5 106.5t136.5 38.5q67 0 114 -25t47 -80q0 -34 -21.5 -54.5t-55.5 -20.5q-28 0 -41 11q4 24 4 39q0 78 -60 78q-28 0 -44 -15.5t-16 -42.5q0 -36 27.5 -63t81.5 -60q45 -28 72 -49.5t46 -53t19 -71.5q0 -47 -30.5 -90.5
t-81.5 -77.5q39 -29 60.5 -61.5zM162 224q17 -24 40.5 -41.5t66.5 -44.5q49 37 49 84q0 29 -16.5 52.5t-39 40.5t-67.5 46q-50 -32 -50 -83q0 -30 17 -54z" />
    <glyph glyph-name="dieresis" unicode="&#xa8;" horiz-adv-x="407" 
d="M4 592zM378.5 717q24.5 -19 24.5 -53q0 -35 -26 -53.5t-67 -18.5q-40 0 -65.5 18.5t-25.5 51.5q0 35 26.5 54.5t67.5 19.5t65.5 -19zM163.5 717q24.5 -19 24.5 -53q0 -35 -26 -53.5t-67 -18.5q-40 0 -65.5 18.5t-25.5 51.5q0 35 26.5 54.5t67.5 19.5t65.5 -19z" />
    <glyph glyph-name="copyright" unicode="&#xa9;" horiz-adv-x="775" 
d="M570.5 570q81.5 -45 127.5 -125.5t46 -181.5q0 -102 -45.5 -179.5t-126 -120t-184.5 -42.5t-184.5 42.5t-126 120t-45.5 179.5q0 101 46 181.5t127.5 125.5t182.5 45t182.5 -45zM249 510.5q-58 -36.5 -88 -100.5t-30 -147q0 -127 66.5 -200.5t190.5 -73.5
q123 0 189.5 73.5t66.5 200.5q0 83 -30 147t-88 100.5t-138 36.5q-81 0 -139 -36.5zM496 447q36 -21 36 -67q0 -26 -20.5 -40.5t-50.5 -14.5q-24 0 -37 7q5 18 5 34q0 57 -34 57q-55 0 -55 -148q0 -58 16.5 -92t60.5 -34q29 0 50 15t31 42q25 -9 25 -36q0 -45 -37 -69.5
t-88 -24.5q-87 0 -132.5 51t-45.5 142q0 94 47.5 146.5t137.5 52.5q55 0 91 -21z" />
    <glyph glyph-name="ordfeminine" unicode="&#xaa;" horiz-adv-x="450" 
d="M336.5 644q37.5 -30 37.5 -105v-170q0 -40 22 -62q-20 -23 -59 -23q-57 0 -69 46q-12 -26 -38 -38.5t-59 -12.5q-57 0 -95 28.5t-38 79.5q0 68 60 92t155 24v60q0 33 -8 49.5t-34 16.5q-25 0 -35.5 -14t-10.5 -41q0 -12 4 -36q-11 -7 -38 -7q-32 0 -52.5 14.5t-20.5 41.5
q0 45 48.5 66t112.5 21q80 0 117.5 -30zM160 391q0 -24 11 -39t33 -15q25 0 37 19.5t12 48.5v54q-93 0 -93 -68zM390 201q0 -22 -11.5 -31.5t-35.5 -9.5h-278q-7 21 -7 33q0 22 12 31.5t35 9.5h278q7 -16 7 -33z" />
    <glyph glyph-name="guillemotleft" unicode="&#xab;" horiz-adv-x="506" 
d="M148 510h107l-84 -193l82 -191h-106l-125 191zM363 510h109l-87 -193l82 -191h-106l-125 191z" />
    <glyph glyph-name="logicalnot" unicode="&#xac;" 
d="M497 10q-26 -12 -45 -12q-28 0 -43.5 16.5t-15.5 45.5v135h-329q-10 18 -10 40q0 25 14.5 38.5t40.5 13.5h388v-277z" />
    <glyph glyph-name="uni00AD" unicode="&#xad;" horiz-adv-x="391" 
d="M40.5 205.5q-2.5 11.5 -2.5 19.5q0 30 16.5 44t47.5 16l242 10q4 -8 6.5 -19.5t2.5 -19.5q0 -56 -65 -59l-241 -10q-4 7 -6.5 18.5z" />
    <glyph glyph-name="registered" unicode="&#xae;" horiz-adv-x="775" 
d="M570.5 635q81.5 -45 127.5 -125.5t46 -181.5q0 -102 -45.5 -179.5t-126 -120t-184.5 -42.5t-184.5 42.5t-126 120t-45.5 179.5q0 101 46 181.5t127.5 125.5t182.5 45t182.5 -45zM249 575.5q-58 -36.5 -88 -100.5t-30 -147q0 -127 66.5 -200.5t190.5 -73.5
q123 0 189.5 73.5t66.5 200.5q0 83 -30 147t-88 100.5t-138 36.5q-81 0 -139 -36.5zM499.5 507q40.5 -24 40.5 -86q0 -39 -18.5 -66.5t-52.5 -38.5l90 -164h-111l-74 174q-4 10 -4 17q34 0 48.5 18t14.5 56q0 71 -54 71q-7 0 -14 -1t-12 -2v-333h-106v373q86 6 137 6
q75 0 115.5 -24z" />
    <glyph glyph-name="macron" unicode="&#xaf;" horiz-adv-x="312" 
d="M302 665q0 -22 -15.5 -35t-42.5 -13h-226q-8 14 -8 37t14.5 36.5t39.5 13.5h229q9 -18 9 -39z" />
    <glyph glyph-name="degree" unicode="&#xb0;" horiz-adv-x="363" 
d="M96 390q-38 20 -60 56t-22 83q0 72 46.5 113.5t120.5 41.5q75 0 121.5 -41.5t46.5 -113.5q0 -71 -47.5 -115t-120.5 -44q-47 0 -85 20zM235.5 457.5q17.5 27.5 17.5 71.5q0 41 -18 68t-54 27q-35 0 -53 -27t-18 -68q0 -43 17 -71t54 -28t54.5 27.5z" />
    <glyph glyph-name="plusminus" unicode="&#xb1;" 
d="M114 253q-10 18 -10 39q0 26 14.5 39.5t40.5 13.5h81v70q0 29 15 44.5t43 15.5q27 0 44 -10v-120h125q10 -18 10 -40q0 -25 -14.5 -38.5t-40.5 -13.5h-80v-65q0 -28 -15.5 -44t-43.5 -16q-26 0 -43 10v115h-126zM458 96q9 -20 9 -38q0 -51 -54 -51h-292q-9 20 -9 38
q0 51 54 51h292z" />
    <glyph glyph-name="uni00B2" unicode="&#xb2;" horiz-adv-x="359" 
d="M273 645.5q38 -28.5 38 -85.5q0 -43 -26.5 -78t-92.5 -94q-25 -20 -34 -27l156 3l-2 -79h-268l-4 51l74 73q38 37 58.5 68.5t20.5 66.5q0 26 -14 40t-40 14q-54 0 -77 -51q-11 5 -17 16t-6 25q0 42 40 64t92 22q64 0 102 -28.5z" />
    <glyph glyph-name="uni00B3" unicode="&#xb3;" horiz-adv-x="356" 
d="M257 651q35 -22 35 -69q0 -34 -18 -57.5t-53 -35.5q43 -7 67 -30.5t24 -63.5q0 -59 -43.5 -91t-111.5 -32q-50 0 -85 20t-35 60q0 28 16 37q14 -21 36 -31.5t48 -10.5t42 13.5t16 38.5q0 26 -16 39.5t-45 13.5q-19 0 -29 -2v51q37 0 60.5 13.5t23.5 44.5q0 21 -13.5 32.5
t-36.5 11.5q-48 0 -72 -52q-22 11 -22 42q0 40 36 60t85 20q56 0 91 -22z" />
    <glyph glyph-name="acute" unicode="&#xb4;" horiz-adv-x="266" 
d="M206 765q21 -8 35.5 -26.5t14.5 -39.5q0 -31 -26 -48.5t-72 -33.5l-125 -44l-23 41z" />
    <glyph glyph-name="uni00B5" unicode="&#xb5;" horiz-adv-x="575" 
d="M62 0zM520 51q7 -21 24 -37q-11 -14 -32.5 -21.5t-43.5 -7.5q-37 0 -62 15.5t-34 44.5q-20 -33 -55 -49.5t-77 -16.5q-17 0 -25 1v-160l-153 -13v703l155 16v-285q0 -64 3.5 -102t18.5 -63.5t48 -25.5q39 0 56 32t17 80v348h153v-410q0 -28 7 -49z" />
    <glyph glyph-name="paragraph" unicode="&#xb6;" horiz-adv-x="674" 
d="M228 -126q52 0 71.5 34.5t19.5 98.5v258q-38 -11 -76 -11q-94 0 -144.5 56t-50.5 153q0 112 68.5 159.5t195.5 47.5q62 0 111 -10v-625q0 -110 -40 -172.5t-135 -62.5q-50 0 -83.5 20t-33.5 52q0 10 4 18t11 12q32 -28 82 -28zM696.5 601.5q-16.5 -18.5 -55.5 -18.5
q-25 0 -42 5v-588l-98 -15v675h212q0 -40 -16.5 -58.5z" />
    <glyph glyph-name="periodcentered" unicode="&#xb7;" horiz-adv-x="247" 
d="M190.5 308q24.5 -19 24.5 -53q0 -35 -26 -53.5t-67 -18.5q-40 0 -65 18t-25 52q0 35 26.5 54.5t67.5 19.5q40 0 64.5 -19z" />
    <glyph glyph-name="cedilla" unicode="&#xb8;" horiz-adv-x="259" 
d="M217.5 -83q31.5 -23 31.5 -71q0 -47 -41 -74.5t-97 -27.5q-39 0 -70 13.5t-31 45.5q0 21 11 32q26 -30 75 -30q22 0 37 11t15 30q0 44 -74 44q-21 0 -41 -3l46 124h54l-29 -72q10 1 28 1q54 0 85.5 -23z" />
    <glyph glyph-name="uni00B9" unicode="&#xb9;" horiz-adv-x="341" 
d="M311 343v-58h-261v58h74v224q-10 -9 -24.5 -14.5t-27.5 -5.5q-23 0 -32.5 15.5t-9.5 42.5q44 13 89.5 33t80.5 42l41 -12v-325h70z" />
    <glyph glyph-name="ordmasculine" unicode="&#xba;" horiz-adv-x="434" 
d="M349.5 624.5q44.5 -49.5 44.5 -141.5q0 -94 -44.5 -148.5t-132.5 -54.5q-86 0 -132 53t-46 143q0 93 44.5 145.5t133.5 52.5q88 0 132.5 -49.5zM260.5 370.5q9.5 41.5 9.5 108.5q0 63 -10 105t-43 42q-34 0 -44 -41.5t-10 -105.5q0 -67 9.5 -108.5t44.5 -41.5
q34 0 43.5 41.5zM51 193q0 22 11.5 31.5t34.5 9.5h278q7 -16 7 -33q0 -22 -11.5 -31.5t-34.5 -9.5h-278q-7 16 -7 33z" />
    <glyph glyph-name="guillemotright" unicode="&#xbb;" horiz-adv-x="506" 
d="M143 510l127 -193l-125 -191h-107l83 191l-87 193h109zM358 510l126 -193l-125 -191h-107l83 191l-84 193h107z" />
    <glyph glyph-name="onequarter" unicode="&#xbc;" horiz-adv-x="816" 
d="M515 710.5q13 -9.5 13 -28.5q0 -14 -5 -32l-182 -737q-14 -4 -31 -4q-22 0 -35 9.5t-13 28.5q0 7 2 17.5t3 14.5l182 737q16 4 32 4q21 0 34 -9.5zM232 668v-325h70v-58h-261v58h74v224q-10 -9 -24.5 -14.5t-27.5 -5.5q-23 0 -32.5 15.5t-9.5 42.5q43 13 89 33t81 42z
M743 138h57l-5 -67h-52v-71h-118v71h-150q-19 6 -19 30q0 14 14 38l152 242h121v-243zM627 290l-91 -152h91v152z" />
    <glyph glyph-name="onehalf" unicode="&#xbd;" horiz-adv-x="816" 
d="M524 710.5q13 -9.5 13 -28.5q0 -14 -5 -32l-182 -737q-14 -4 -31 -4q-21 0 -34 9.5t-13 28.5q0 14 5 32l182 737q14 4 31 4q21 0 34 -9.5zM241 668v-325h70v-58h-261v58h74v224q-10 -9 -24.5 -14.5t-27.5 -5.5q-23 0 -32.5 15.5t-9.5 42.5q44 13 89.5 33t80.5 42z
M730 360.5q38 -28.5 38 -85.5q0 -31 -14 -57t-38 -51t-72 -69l-30 -22l157 3l-2 -79h-268l-4 51l72 72q38 36 59.5 68.5t21.5 67.5q0 26 -14.5 40t-40.5 14t-46 -13t-30 -38q-23 10 -23 41q0 42 40 64t92 22q64 0 102 -28.5z" />
    <glyph glyph-name="threequarters" unicode="&#xbe;" horiz-adv-x="816" 
d="M515 710.5q13 -9.5 13 -28.5q0 -14 -5 -32l-182 -737q-14 -4 -31 -4q-22 0 -35 9.5t-13 28.5q0 7 2 17.5t3 14.5l182 737q16 4 32 4q21 0 34 -9.5zM253 651q35 -22 35 -69q0 -34 -18 -57.5t-53 -35.5q43 -7 67 -30.5t24 -63.5q0 -59 -43.5 -91t-111.5 -32q-50 0 -85 20
t-35 60q0 28 16 37q14 -21 36 -31.5t48 -10.5t42 13.5t16 38.5q0 26 -16 39.5t-45 13.5q-19 0 -29 -2v51q37 0 60.5 13.5t23.5 44.5q0 21 -13.5 32.5t-36.5 11.5q-48 0 -72 -52q-22 11 -22 42q0 40 36 60t85 20q56 0 91 -22zM743 138h57l-5 -67h-52v-71h-118v71h-150
q-19 6 -19 30q0 14 14 38l152 242h121v-243zM627 290l-91 -152h91v152z" />
    <glyph glyph-name="questiondown" unicode="&#xbf;" horiz-adv-x="461" 
d="M327.5 511q24.5 -19 24.5 -53q0 -35 -26 -53.5t-67 -18.5q-40 0 -65 18t-25 52q0 35 26.5 54.5t67.5 19.5q40 0 64.5 -19zM307.5 292.5q14.5 -16.5 14.5 -44.5q0 -27 -16.5 -52.5t-51.5 -65.5q-42 -48 -63.5 -83t-21.5 -77q0 -36 16.5 -58t52.5 -22q33 0 51 23t18 60
q0 24 -7 57q19 10 47 10q47 0 75.5 -22.5t28.5 -67.5q0 -65 -63.5 -92.5t-152.5 -27.5q-100 0 -162 34.5t-62 116.5q0 56 31 97t89 90q47 39 70.5 68t23.5 64q5 4 17 6.5t23 2.5q28 0 42.5 -16.5z" />
    <glyph glyph-name="Agrave" unicode="&#xc0;" horiz-adv-x="547" 
d="M0 0zM377 660l169 -660h-169l-38 163h-185l-37 -163h-121l182 660h199zM173 242h148l-75 320zM221 720q-56 4 -87.5 17t-31.5 51q0 17 9 33.5t24 28.5l230 -93l-12 -47z" />
    <glyph glyph-name="Aacute" unicode="&#xc1;" horiz-adv-x="547" 
d="M0 0zM377 660l169 -660h-169l-38 163h-185l-37 -163h-121l182 660h199zM173 242h148l-75 320zM412 850q15 -12 24 -28.5t9 -33.5q0 -38 -31.5 -51t-87.5 -17l-132 -10l-12 47z" />
    <glyph glyph-name="Acircumflex" unicode="&#xc2;" horiz-adv-x="547" 
d="M0 0zM377 660l169 -660h-169l-38 163h-185l-37 -163h-121l182 660h199zM173 242h148l-75 320zM147 677l-34 41l148 124h24l151 -124l-34 -41l-128 62z" />
    <glyph glyph-name="Atilde" unicode="&#xc3;" horiz-adv-x="547" 
d="M0 0zM377 660l169 -660h-169l-38 163h-185l-37 -163h-121l182 660h199zM173 242h148l-75 320zM443 802q7 -15 7 -30q0 -57 -81 -57q-20 0 -52.5 5t-42.5 6q-62 11 -91 11q-41 0 -59 -17q-11 10 -18 25t-7 30q0 57 81 57q20 0 52 -5t42 -6q62 -11 92 -11q41 0 59 18
q11 -11 18 -26z" />
    <glyph glyph-name="Adieresis" unicode="&#xc4;" horiz-adv-x="547" 
d="M0 0zM377 660l169 -660h-169l-38 163h-185l-37 -163h-121l182 660h199zM173 242h148l-75 320zM447.5 836q24.5 -19 24.5 -53q0 -35 -26 -53.5t-67 -18.5q-40 0 -65.5 18.5t-25.5 51.5q0 35 26.5 54.5t67.5 19.5t65.5 -19zM233.5 836q24.5 -19 24.5 -53q0 -35 -26 -53.5
t-67 -18.5q-40 0 -65.5 18.5t-25.5 51.5q0 35 26.5 54.5t67.5 19.5t65.5 -19z" />
    <glyph glyph-name="Aring" unicode="&#xc5;" horiz-adv-x="547" 
d="M0 0zM377 660l169 -660h-169l-38 163h-185l-37 -163h-121l182 660h199zM173 242h148l-75 320zM196.5 725q-30.5 25 -30.5 66q0 42 30 65t78 23t78 -23t30 -65q0 -41 -30.5 -66t-77.5 -25t-77.5 25zM307 752.5q11 14.5 11 38.5q0 22 -11.5 36.5t-32.5 14.5t-32.5 -14.5
t-11.5 -36.5q0 -24 11 -38.5t33 -14.5t33 14.5z" />
    <glyph glyph-name="AE" unicode="&#xc6;" horiz-adv-x="705" 
d="M676 660v-79h-181v-202h151v-80h-151v-220h195l-7 -79h-353v163h-167l-67 -163h-125l295 660h410zM330 572l-134 -330h134v330z" />
    <glyph glyph-name="Ccedilla" unicode="&#xc7;" horiz-adv-x="550" 
d="M526 128q0 -48 -31 -82t-79.5 -51t-101.5 -17h-1l-16 -39q10 1 28 1q54 0 85.5 -23t31.5 -71q0 -47 -41 -74.5t-97 -27.5q-39 0 -70 13.5t-31 45.5q0 21 11 32q25 -30 75 -30q22 0 37 11t15 30q0 44 -74 44q-21 0 -41 -3l35 95q-122 17 -178 109t-56 235q0 165 72 259.5
t222 94.5q91 0 150 -33t59 -107q0 -44 -28.5 -71t-72.5 -27q-33 0 -52 11q7 32 7 53q0 102 -74 102q-65 0 -85 -75.5t-20 -183.5q0 -116 30.5 -184t112.5 -68q49 0 84 25t55 72q39 -19 39 -66z" />
    <glyph glyph-name="Egrave" unicode="&#xc8;" horiz-adv-x="447" 
d="M55 0zM418 660v-79h-197v-202h167v-80h-167v-220h211l-7 -79h-370v660h363zM183 720q-56 4 -87.5 17t-31.5 51q0 17 9 33.5t24 28.5l230 -93l-12 -47z" />
    <glyph glyph-name="Eacute" unicode="&#xc9;" horiz-adv-x="447" 
d="M55 0zM418 660v-79h-197v-202h167v-80h-167v-220h211l-7 -79h-370v660h363zM375 849q15 -12 24 -28.5t9 -33.5q0 -38 -31.5 -51t-87.5 -17l-132 -10l-12 47z" />
    <glyph glyph-name="Ecircumflex" unicode="&#xca;" horiz-adv-x="447" 
d="M55 0zM418 660v-79h-197v-202h167v-80h-167v-220h211l-7 -79h-370v660h363zM111 677l-34 41l148 124h24l151 -124l-34 -41l-128 62z" />
    <glyph glyph-name="Edieresis" unicode="&#xcb;" horiz-adv-x="447" 
d="M38 0zM418 660v-79h-197v-202h167v-80h-167v-220h211l-7 -79h-370v660h363zM411.5 836q24.5 -19 24.5 -53q0 -35 -26 -53.5t-67 -18.5q-40 0 -65.5 18.5t-25.5 51.5q0 35 26.5 54.5t67.5 19.5t65.5 -19zM197.5 836q24.5 -19 24.5 -53q0 -35 -26 -53.5t-67 -18.5
q-40 0 -65.5 18.5t-25.5 51.5q0 35 26.5 54.5t67.5 19.5t65.5 -19z" />
    <glyph glyph-name="Igrave" unicode="&#xcc;" horiz-adv-x="275" 
d="M0 0zM221 660v-660h-166v660h166zM85 720q-56 4 -87.5 17t-31.5 51q0 17 9 33.5t24 28.5l230 -93l-12 -47z" />
    <glyph glyph-name="Iacute" unicode="&#xcd;" horiz-adv-x="275" 
d="M47 0zM221 660v-660h-166v660h166zM277 849q15 -12 24 -28.5t9 -33.5q0 -38 -31.5 -51t-87.5 -17l-132 -10l-12 47z" />
    <glyph glyph-name="Icircumflex" unicode="&#xce;" horiz-adv-x="275" 
d="M0 0zM221 660v-660h-166v660h166zM11 677l-34 41l148 124h24l151 -124l-34 -41l-128 62z" />
    <glyph glyph-name="Idieresis" unicode="&#xcf;" horiz-adv-x="275" 
d="M0 0zM221 660v-660h-166v660h166zM311.5 836q24.5 -19 24.5 -53q0 -35 -26 -53.5t-67 -18.5q-40 0 -65.5 18.5t-25.5 51.5q0 35 26.5 54.5t67.5 19.5t65.5 -19zM97.5 836q24.5 -19 24.5 -53q0 -35 -26 -53.5t-67 -18.5q-40 0 -65.5 18.5t-25.5 51.5q0 35 26.5 54.5
t67.5 19.5t65.5 -19z" />
    <glyph glyph-name="Eth" unicode="&#xd0;" horiz-adv-x="619" 
d="M520 583q72 -82 72 -241q0 -169 -77.5 -260.5t-236.5 -91.5q-103 0 -218 14v289h-64q-6 12 -6 34q0 53 60 53h10v274q128 11 236 11q152 0 224 -82zM390 135q26 73 26 198q0 114 -25.5 186.5t-97.5 72.5q-31 0 -67 -6v-206h112q6 -15 6 -34q0 -27 -16 -40t-45 -13h-57
v-224q28 -7 59 -7q79 0 105 73z" />
    <glyph glyph-name="Ntilde" unicode="&#xd1;" horiz-adv-x="618" 
d="M55 0zM394 0l-235 471v-471h-104v660h170l235 -471v471h103v-660h-169zM477 802q7 -15 7 -30q0 -57 -81 -57q-20 0 -52.5 5t-42.5 6q-62 11 -91 11q-41 0 -59 -17q-11 10 -18 25t-7 30q0 57 81 57q20 0 52 -5t42 -6q62 -11 92 -11q41 0 59 18q11 -11 18 -26z" />
    <glyph glyph-name="Ograve" unicode="&#xd2;" horiz-adv-x="626" 
d="M27 0zM530 590q69 -90 69 -251q0 -165 -69.5 -263t-216.5 -98q-145 0 -215.5 94t-70.5 254q0 163 69.5 258.5t216.5 95.5q148 0 217 -90zM400 129.5q20 79.5 20 203.5q0 119 -20.5 197t-86.5 78t-87 -78.5t-21 -196.5q0 -123 20.5 -203t87.5 -80t87 79.5zM260 720
q-56 4 -87.5 17t-31.5 51q0 17 9 33.5t24 28.5l230 -93l-12 -47z" />
    <glyph glyph-name="Oacute" unicode="&#xd3;" horiz-adv-x="626" 
d="M27 0zM530 590q69 -90 69 -251q0 -165 -69.5 -263t-216.5 -98q-145 0 -215.5 94t-70.5 254q0 163 69.5 258.5t216.5 95.5q148 0 217 -90zM400 129.5q20 79.5 20 203.5q0 119 -20.5 197t-86.5 78t-87 -78.5t-21 -196.5q0 -123 20.5 -203t87.5 -80t87 79.5zM452 849
q15 -12 24 -28.5t9 -33.5q0 -38 -31.5 -51t-87.5 -17l-132 -10l-12 47z" />
    <glyph glyph-name="Ocircumflex" unicode="&#xd4;" horiz-adv-x="626" 
d="M27 0zM530 590q69 -90 69 -251q0 -165 -69.5 -263t-216.5 -98q-145 0 -215.5 94t-70.5 254q0 163 69.5 258.5t216.5 95.5q148 0 217 -90zM400 129.5q20 79.5 20 203.5q0 119 -20.5 197t-86.5 78t-87 -78.5t-21 -196.5q0 -123 20.5 -203t87.5 -80t87 79.5zM186 677l-34 41
l148 124h24l151 -124l-34 -41l-128 62z" />
    <glyph glyph-name="Otilde" unicode="&#xd5;" horiz-adv-x="626" 
d="M27 0zM530 590q69 -90 69 -251q0 -165 -69.5 -263t-216.5 -98q-145 0 -215.5 94t-70.5 254q0 163 69.5 258.5t216.5 95.5q148 0 217 -90zM400 129.5q20 79.5 20 203.5q0 119 -20.5 197t-86.5 78t-87 -78.5t-21 -196.5q0 -123 20.5 -203t87.5 -80t87 79.5zM482 802
q7 -15 7 -30q0 -57 -81 -57q-20 0 -52.5 5t-42.5 6q-62 11 -91 11q-41 0 -59 -17q-11 10 -18 25t-7 30q0 57 81 57q20 0 52 -5t42 -6q62 -11 92 -11q41 0 59 18q11 -11 18 -26z" />
    <glyph glyph-name="Odieresis" unicode="&#xd6;" horiz-adv-x="626" 
d="M27 0zM530 590q69 -90 69 -251q0 -165 -69.5 -263t-216.5 -98q-145 0 -215.5 94t-70.5 254q0 163 69.5 258.5t216.5 95.5q148 0 217 -90zM400 129.5q20 79.5 20 203.5q0 119 -20.5 197t-86.5 78t-87 -78.5t-21 -196.5q0 -123 20.5 -203t87.5 -80t87 79.5zM486.5 836
q24.5 -19 24.5 -53q0 -35 -26 -53.5t-67 -18.5q-40 0 -65.5 18.5t-25.5 51.5q0 35 26.5 54.5t67.5 19.5t65.5 -19zM272.5 836q24.5 -19 24.5 -53q0 -35 -26 -53.5t-67 -18.5q-40 0 -65.5 18.5t-25.5 51.5q0 35 26.5 54.5t67.5 19.5t65.5 -19z" />
    <glyph glyph-name="multiply" unicode="&#xd7;" 
d="M485 97q7 -12 7 -26q0 -28 -18 -42.5t-47 -14.5l-133 158l-98 -123q-27 -36 -61 -36q-22 0 -36.5 12t-18.5 34l152 183l-91 102q-15 17 -22.5 29.5t-7.5 27.5q0 27 18.5 42t47.5 15l117 -142l82 99q28 37 60 37q22 0 36.5 -12t17.5 -34l-135 -160l108 -118q15 -19 22 -31
z" />
    <glyph glyph-name="Oslash" unicode="&#xd8;" horiz-adv-x="626" 
d="M599 339q0 -165 -69.5 -263t-216.5 -98q-100 0 -167 48l-56 -81q-21 1 -41.5 12t-20.5 31q0 14 16 38l42 62q-59 90 -59 238q0 163 69.5 258.5t216.5 95.5q91 0 155 -36l50 73q21 -1 41.5 -12.5t20.5 -30.5q0 -14 -16 -38l-33 -48q68 -85 68 -249zM206 263l190 276
q-27 69 -83 69q-66 0 -87 -78.5t-21 -196.5q0 -46 1 -70zM400 129.5q20 79.5 20 203.5q0 59 -3 89l-194 -283q26 -89 90 -89q67 0 87 79.5z" />
    <glyph glyph-name="Ugrave" unicode="&#xd9;" horiz-adv-x="579" 
d="M48 0zM509.5 109.5q-20.5 -64.5 -72 -98t-142.5 -33.5q-133 0 -190 63t-57 200v419h166v-408q0 -67 6 -108t27 -65t62 -24q42 0 62.5 25.5t26.5 68.5t6 114v397h126v-386q0 -100 -20.5 -164.5zM256 720q-56 4 -87.5 17t-31.5 51q0 17 9 33.5t24 28.5l230 -93l-12 -47z
" />
    <glyph glyph-name="Uacute" unicode="&#xda;" horiz-adv-x="579" 
d="M48 0zM509.5 109.5q-20.5 -64.5 -72 -98t-142.5 -33.5q-133 0 -190 63t-57 200v419h166v-408q0 -67 6 -108t27 -65t62 -24q42 0 62.5 25.5t26.5 68.5t6 114v397h126v-386q0 -100 -20.5 -164.5zM448 849q15 -12 24 -28.5t9 -33.5q0 -38 -31.5 -51t-87.5 -17l-132 -10
l-12 47z" />
    <glyph glyph-name="Ucircumflex" unicode="&#xdb;" horiz-adv-x="579" 
d="M48 0zM509.5 109.5q-20.5 -64.5 -72 -98t-142.5 -33.5q-133 0 -190 63t-57 200v419h166v-408q0 -67 6 -108t27 -65t62 -24q42 0 62.5 25.5t26.5 68.5t6 114v397h126v-386q0 -100 -20.5 -164.5zM182 677l-34 41l148 124h24l151 -124l-34 -41l-128 62z" />
    <glyph glyph-name="Udieresis" unicode="&#xdc;" horiz-adv-x="579" 
d="M48 0zM509.5 109.5q-20.5 -64.5 -72 -98t-142.5 -33.5q-133 0 -190 63t-57 200v419h166v-408q0 -67 6 -108t27 -65t62 -24q42 0 62.5 25.5t26.5 68.5t6 114v397h126v-386q0 -100 -20.5 -164.5zM482.5 836q24.5 -19 24.5 -53q0 -35 -26 -53.5t-67 -18.5q-40 0 -65.5 18.5
t-25.5 51.5q0 35 26.5 54.5t67.5 19.5t65.5 -19zM268.5 836q24.5 -19 24.5 -53q0 -35 -26 -53.5t-67 -18.5q-40 0 -65.5 18.5t-25.5 51.5q0 35 26.5 54.5t67.5 19.5t65.5 -19z" />
    <glyph glyph-name="Yacute" unicode="&#xdd;" horiz-adv-x="528" 
d="M1 0zM343 302v-302h-166v291l-176 369h174l110 -266l100 266h139zM415 849q15 -12 24 -28.5t9 -33.5q0 -38 -31.5 -51t-87.5 -17l-132 -10l-12 47z" />
    <glyph glyph-name="Thorn" unicode="&#xde;" horiz-adv-x="557" 
d="M221 537h56q125 0 196.5 -44t71.5 -151q0 -89 -54 -143.5t-142 -54.5q-41 0 -68 14.5t-27 46.5q66 0 95.5 32.5t29.5 101.5q0 126 -106 126q-25 0 -52 -5v-460h-166v660h166v-123z" />
    <glyph glyph-name="germandbls" unicode="&#xdf;" horiz-adv-x="681" 
d="M319 720q86 0 158 -26t72 -85q0 -29 -17 -51.5t-51 -53.5q-30 -27 -44 -45t-14 -39q0 -38 28 -63t84 -55q45 -25 72 -43.5t46 -47t19 -68.5q0 -83 -60 -124t-154 -41q-78 0 -134.5 25t-56.5 84q0 38 27 57t69 19q33 0 47 -10q-6 -22 -6 -47q0 -34 16 -53.5t47 -19.5
q32 0 49 18.5t17 51.5q0 38 -28 63t-84 55q-45 24 -72.5 43t-46.5 48t-19 69q0 29 18 54t53 58q30 28 45 48t15 41q0 41 -28.5 64t-72.5 23q-55 0 -76.5 -28t-21.5 -87v-484q0 -108 -33 -174.5t-118 -66.5q-33 0 -59.5 11.5t-32.5 36.5q54 3 72 47.5t18 119.5v495
q0 181 257 181z" />
    <glyph glyph-name="agrave" unicode="&#xe0;" horiz-adv-x="540" 
d="M26 0zM290 -6q-36 -16 -81 -16q-77 0 -130 40t-53 111q0 94 87 128t219 34v87q0 47 -13 72t-51 25q-36 0 -56 -21.5t-20 -58.5q0 -16 6 -48q-7 -5 -21 -7.5t-26 -2.5q-41 0 -68 19.5t-27 56.5q0 57 64.5 87t154.5 30q108 0 159 -43t51 -145v-242q0 -28 7 -49t24 -37
q-11 -14 -32.5 -21.5t-43.5 -7.5q-37 0 -62 15.5t-34 44.5q-18 -35 -54 -51zM313.5 79q18.5 32 18.5 78v84q-148 0 -148 -108q0 -38 18.5 -62t53.5 -24q39 0 57.5 32zM209 617q-46 17 -72 34.5t-26 47.5q0 21 14.5 39.5t36.5 26.5l195 -151l-23 -41z" />
    <glyph glyph-name="aacute" unicode="&#xe1;" horiz-adv-x="540" 
d="M26 0zM290 -6q-36 -16 -81 -16q-77 0 -130 40t-53 111q0 94 87 128t219 34v87q0 47 -13 72t-51 25q-36 0 -56 -21.5t-20 -58.5q0 -16 6 -48q-7 -5 -21 -7.5t-26 -2.5q-41 0 -68 19.5t-27 56.5q0 57 64.5 87t154.5 30q108 0 159 -43t51 -145v-242q0 -28 7 -49t24 -37
q-11 -14 -32.5 -21.5t-43.5 -7.5q-37 0 -62 15.5t-34 44.5q-18 -35 -54 -51zM313.5 79q18.5 32 18.5 78v84q-148 0 -148 -108q0 -38 18.5 -62t53.5 -24q39 0 57.5 32zM369 765q21 -8 35.5 -26.5t14.5 -39.5q0 -31 -26 -48.5t-72 -33.5l-125 -44l-23 41z" />
    <glyph glyph-name="acircumflex" unicode="&#xe2;" horiz-adv-x="540" 
d="M26 0zM290 -6q-36 -16 -81 -16q-77 0 -130 40t-53 111q0 94 87 128t219 34v87q0 47 -13 72t-51 25q-36 0 -56 -21.5t-20 -58.5q0 -16 6 -48q-7 -5 -21 -7.5t-26 -2.5q-41 0 -68 19.5t-27 56.5q0 57 64.5 87t154.5 30q108 0 159 -43t51 -145v-242q0 -28 7 -49t24 -37
q-11 -14 -32.5 -21.5t-43.5 -7.5q-37 0 -62 15.5t-34 44.5q-18 -35 -54 -51zM313.5 79q18.5 32 18.5 78v84q-148 0 -148 -108q0 -38 18.5 -62t53.5 -24q39 0 57.5 32zM138 580l-34 41l148 124h24l151 -124l-34 -41l-128 62z" />
    <glyph glyph-name="atilde" unicode="&#xe3;" horiz-adv-x="540" 
d="M26 0zM290 -6q-36 -16 -81 -16q-77 0 -130 40t-53 111q0 94 87 128t219 34v87q0 47 -13 72t-51 25q-36 0 -56 -21.5t-20 -58.5q0 -16 6 -48q-7 -5 -21 -7.5t-26 -2.5q-41 0 -68 19.5t-27 56.5q0 57 64.5 87t154.5 30q108 0 159 -43t51 -145v-242q0 -28 7 -49t24 -37
q-11 -14 -32.5 -21.5t-43.5 -7.5q-37 0 -62 15.5t-34 44.5q-18 -35 -54 -51zM313.5 79q18.5 32 18.5 78v84q-148 0 -148 -108q0 -38 18.5 -62t53.5 -24q39 0 57.5 32zM434 687q7 -15 7 -30q0 -57 -81 -57q-20 0 -52.5 5t-42.5 6q-62 11 -91 11q-41 0 -59 -18q-11 11 -18 26
t-7 30q0 57 81 57q20 0 52 -5t42 -6q62 -11 92 -11q41 0 59 18q11 -11 18 -26z" />
    <glyph glyph-name="adieresis" unicode="&#xe4;" horiz-adv-x="540" 
d="M26 0zM290 -6q-36 -16 -81 -16q-77 0 -130 40t-53 111q0 94 87 128t219 34v87q0 47 -13 72t-51 25q-36 0 -56 -21.5t-20 -58.5q0 -16 6 -48q-7 -5 -21 -7.5t-26 -2.5q-41 0 -68 19.5t-27 56.5q0 57 64.5 87t154.5 30q108 0 159 -43t51 -145v-242q0 -28 7 -49t24 -37
q-11 -14 -32.5 -21.5t-43.5 -7.5q-37 0 -62 15.5t-34 44.5q-18 -35 -54 -51zM313.5 79q18.5 32 18.5 78v84q-148 0 -148 -108q0 -38 18.5 -62t53.5 -24q39 0 57.5 32zM439.5 717q24.5 -19 24.5 -53q0 -35 -26 -53.5t-67 -18.5q-40 0 -65.5 18.5t-25.5 51.5q0 35 26.5 54.5
t67.5 19.5t65.5 -19zM224.5 717q24.5 -19 24.5 -53q0 -35 -26 -53.5t-67 -18.5q-40 0 -65.5 18.5t-25.5 51.5q0 35 26.5 54.5t67.5 19.5t65.5 -19z" />
    <glyph glyph-name="aring" unicode="&#xe5;" horiz-adv-x="540" 
d="M26 0zM290 -6q-36 -16 -81 -16q-77 0 -130 40t-53 111q0 94 87 128t219 34v87q0 47 -13 72t-51 25q-36 0 -56 -21.5t-20 -58.5q0 -16 6 -48q-7 -5 -21 -7.5t-26 -2.5q-41 0 -68 19.5t-27 56.5q0 57 64.5 87t154.5 30q108 0 159 -43t51 -145v-242q0 -28 7 -49t24 -37
q-11 -14 -32.5 -21.5t-43.5 -7.5q-37 0 -62 15.5t-34 44.5q-18 -35 -54 -51zM313.5 79q18.5 32 18.5 78v84q-148 0 -148 -108q0 -38 18.5 -62t53.5 -24q39 0 57.5 32zM185 598.5q-32 26.5 -32 70.5t31 69t81 25q49 0 80 -24.5t31 -69.5q0 -44 -31.5 -70.5t-79.5 -26.5
t-80 26.5zM300.5 625.5q11.5 16.5 11.5 43.5q0 25 -12 41t-35 16q-24 0 -36 -16t-12 -41q0 -27 12 -43.5t36 -16.5t35.5 16.5z" />
    <glyph glyph-name="ae" unicode="&#xe6;" horiz-adv-x="796" 
d="M754 107q0 -41 -27 -70t-69.5 -44t-87.5 -15q-63 0 -110 21t-77 61q-48 -82 -165 -82q-83 0 -137.5 39t-54.5 112q0 94 86 126t220 32v91q0 47 -13 72t-51 25q-36 0 -56 -21.5t-20 -58.5q0 -16 6 -48q-7 -5 -21 -7.5t-26 -2.5q-41 0 -68 19.5t-27 56.5q0 57 64.5 87
t154.5 30q54 0 92 -10t64 -33q61 43 155 43q81 0 134 -37t53 -109q0 -88 -62 -120.5t-172 -32.5q-35 0 -53 3q3 -73 27 -115t82 -42q43 0 79 20.5t54 58.5q26 -12 26 -49zM505 415q-19 -56 -20 -135h20q65 -1 96.5 21.5t31.5 79.5q0 38 -15 64t-47 26q-47 0 -66 -56z
M332 237q-70 0 -109 -23t-39 -81q0 -38 18.5 -62t53.5 -24q39 0 57.5 32t18.5 78v80z" />
    <glyph glyph-name="ccedilla" unicode="&#xe7;" horiz-adv-x="476" 
d="M439 141.5q9 -13.5 9 -31.5q0 -42 -25 -71.5t-65 -45t-85 -15.5h-6l-16 -39q10 1 28 1q54 0 85.5 -23t31.5 -71q0 -47 -41 -74.5t-97 -27.5q-39 0 -70 13.5t-31 45.5q0 21 11 32q26 -30 75 -30q22 0 37 11t15 30q0 44 -74 44q-22 0 -41 -3l36 96q-92 17 -139 87.5
t-47 180.5q0 130 65 204.5t190 74.5q76 0 125.5 -28.5t49.5 -91.5q0 -38 -27 -57t-69 -19q-12 0 -25.5 2.5t-20.5 7.5q6 30 6 47q0 79 -54 79q-82 0 -82 -211q0 -84 23 -133t87 -49q42 0 71.5 22t43.5 62q17 -6 26 -19.5z" />
    <glyph glyph-name="egrave" unicode="&#xe8;" horiz-adv-x="498" 
d="M30 0zM457 107q0 -41 -27 -70t-69.5 -44t-87.5 -15q-120 0 -181.5 73t-61.5 200q0 131 66.5 205t192.5 74q81 0 134 -37t53 -109q0 -89 -63 -123t-172 -34q-34 0 -53 3q3 -71 27.5 -112t82.5 -41q43 0 78.5 20.5t54.5 58.5q26 -12 26 -49zM207.5 412.5
q-18.5 -58.5 -19.5 -136.5h20q63 -1 95.5 23t32.5 82q0 38 -15.5 64t-46.5 26q-48 0 -66.5 -58.5zM217 617q-46 17 -72 34.5t-26 47.5q0 21 14.5 39.5t36.5 26.5l195 -151l-23 -41z" />
    <glyph glyph-name="eacute" unicode="&#xe9;" horiz-adv-x="498" 
d="M30 0zM457 107q0 -41 -27 -70t-69.5 -44t-87.5 -15q-120 0 -181.5 73t-61.5 200q0 131 66.5 205t192.5 74q81 0 134 -37t53 -109q0 -89 -63 -123t-172 -34q-34 0 -53 3q3 -71 27.5 -112t82.5 -41q43 0 78.5 20.5t54.5 58.5q26 -12 26 -49zM207.5 412.5
q-18.5 -58.5 -19.5 -136.5h20q63 -1 95.5 23t32.5 82q0 38 -15.5 64t-46.5 26q-48 0 -66.5 -58.5zM377 765q21 -8 35.5 -26.5t14.5 -39.5q0 -31 -26 -48.5t-72 -33.5l-125 -44l-23 41z" />
    <glyph glyph-name="ecircumflex" unicode="&#xea;" horiz-adv-x="498" 
d="M30 0zM457 107q0 -41 -27 -70t-69.5 -44t-87.5 -15q-120 0 -181.5 73t-61.5 200q0 131 66.5 205t192.5 74q81 0 134 -37t53 -109q0 -89 -63 -123t-172 -34q-34 0 -53 3q3 -71 27.5 -112t82.5 -41q43 0 78.5 20.5t54.5 58.5q26 -12 26 -49zM207.5 412.5
q-18.5 -58.5 -19.5 -136.5h20q63 -1 95.5 23t32.5 82q0 38 -15.5 64t-46.5 26q-48 0 -66.5 -58.5zM146 580l-34 41l148 124h24l151 -124l-34 -41l-128 62z" />
    <glyph glyph-name="edieresis" unicode="&#xeb;" horiz-adv-x="498" 
d="M30 0zM457 107q0 -41 -27 -70t-69.5 -44t-87.5 -15q-120 0 -181.5 73t-61.5 200q0 131 66.5 205t192.5 74q81 0 134 -37t53 -109q0 -89 -63 -123t-172 -34q-34 0 -53 3q3 -71 27.5 -112t82.5 -41q43 0 78.5 20.5t54.5 58.5q26 -12 26 -49zM207.5 412.5
q-18.5 -58.5 -19.5 -136.5h20q63 -1 95.5 23t32.5 82q0 38 -15.5 64t-46.5 26q-48 0 -66.5 -58.5zM447.5 717q24.5 -19 24.5 -53q0 -35 -26 -53.5t-67 -18.5q-40 0 -65.5 18.5t-25.5 51.5q0 35 26.5 54.5t67.5 19.5t65.5 -19zM232.5 717q24.5 -19 24.5 -53q0 -35 -26 -53.5
t-67 -18.5q-40 0 -65.5 18.5t-25.5 51.5q0 35 26.5 54.5t67.5 19.5t65.5 -19z" />
    <glyph glyph-name="igrave" unicode="&#xec;" horiz-adv-x="270" 
d="M0 0zM208 100q0 -28 7 -49t24 -37q-11 -14 -33.5 -21.5t-44.5 -7.5q-52 0 -79 26.5t-27 78.5v420h153v-410zM76 617q-46 17 -72 34.5t-26 47.5q0 21 14.5 39.5t36.5 26.5l195 -151l-23 -41z" />
    <glyph glyph-name="iacute" unicode="&#xed;" horiz-adv-x="270" 
d="M40 0zM208 100q0 -28 7 -49t24 -37q-11 -14 -33.5 -21.5t-44.5 -7.5q-52 0 -79 26.5t-27 78.5v420h153v-410zM236 765q21 -8 35.5 -26.5t14.5 -39.5q0 -31 -26 -48.5t-72 -33.5l-125 -44l-23 41z" />
    <glyph glyph-name="icircumflex" unicode="&#xee;" horiz-adv-x="270" 
d="M0 0zM208 100q0 -28 7 -49t24 -37q-11 -14 -33.5 -21.5t-44.5 -7.5q-52 0 -79 26.5t-27 78.5v420h153v-410zM5 580l-34 41l148 124h24l151 -124l-34 -41l-128 62z" />
    <glyph glyph-name="idieresis" unicode="&#xef;" horiz-adv-x="270" 
d="M0 0zM208 100q0 -28 7 -49t24 -37q-11 -14 -33.5 -21.5t-44.5 -7.5q-52 0 -79 26.5t-27 78.5v420h153v-410zM306.5 717q24.5 -19 24.5 -53q0 -35 -26 -53.5t-67 -18.5q-40 0 -65.5 18.5t-25.5 51.5q0 35 26.5 54.5t67.5 19.5t65.5 -19zM91.5 717q24.5 -19 24.5 -53
q0 -35 -26 -53.5t-67 -18.5q-40 0 -65.5 18.5t-25.5 51.5q0 35 26.5 54.5t67.5 19.5t65.5 -19z" />
    <glyph glyph-name="eth" unicode="&#xf0;" horiz-adv-x="566" 
d="M425 650l85 30q5 -5 9 -13t5 -14q2 -8 2 -11q0 -23 -35 -36l-28 -10q31 -56 45.5 -128.5t14.5 -152.5q0 -152 -58 -244t-188 -92q-74 0 -130 31t-86.5 87t-30.5 130q0 88 34.5 147.5t92 89t125.5 29.5q40 0 67 -9q-3 36 -12 66l-84 -31q-5 5 -9.5 13t-5.5 14q-1 4 -1 10
q0 25 31 36l38 14q-28 26 -73 26q-33 0 -54 -15q-5 8 -8 20t-3 23q0 31 25.5 45.5t66.5 14.5q100 0 165 -70zM345 109q16 70 16 187q0 55 -6 111q-34 26 -73 26q-56 0 -72.5 -57.5t-16.5 -141.5q0 -77 17.5 -136t66.5 -59q52 0 68 70z" />
    <glyph glyph-name="ntilde" unicode="&#xf1;" horiz-adv-x="561" 
d="M56 0zM56 510l125 12l7 -90q38 98 157 98q87 0 123.5 -47t36.5 -141v-242q0 -28 7 -49t24 -37q-11 -14 -33.5 -21.5t-44.5 -7.5q-52 0 -79 26.5t-27 78.5v244q0 59 -11 89.5t-52 30.5q-49 0 -64.5 -45t-15.5 -119v-290h-153v510zM469 687q7 -15 7 -30q0 -57 -81 -57
q-20 0 -52.5 5t-42.5 6q-62 11 -91 11q-41 0 -59 -18q-11 11 -18 26t-7 30q0 57 81 57q20 0 52 -5t42 -6q62 -11 92 -11q41 0 59 18q11 -11 18 -26z" />
    <glyph glyph-name="ograve" unicode="&#xf2;" horiz-adv-x="543" 
d="M30 0zM452.5 459q60.5 -71 60.5 -197q0 -130 -61 -207t-180 -77q-118 0 -180 74t-62 200q0 128 61.5 203t180.5 75q120 0 180.5 -71zM339 99q15 61 15 158q0 92 -16 152.5t-66 60.5t-66 -61t-16 -152q0 -97 15 -158t67 -61t67 61zM216 617q-46 17 -72 34.5t-26 47.5
q0 21 14.5 39.5t36.5 26.5l195 -151l-23 -41z" />
    <glyph glyph-name="oacute" unicode="&#xf3;" horiz-adv-x="543" 
d="M30 0zM452.5 459q60.5 -71 60.5 -197q0 -130 -61 -207t-180 -77q-118 0 -180 74t-62 200q0 128 61.5 203t180.5 75q120 0 180.5 -71zM339 99q15 61 15 158q0 92 -16 152.5t-66 60.5t-66 -61t-16 -152q0 -97 15 -158t67 -61t67 61zM376 765q21 -8 35.5 -26.5t14.5 -39.5
q0 -31 -26 -48.5t-72 -33.5l-125 -44l-23 41z" />
    <glyph glyph-name="ocircumflex" unicode="&#xf4;" horiz-adv-x="543" 
d="M30 0zM452.5 459q60.5 -71 60.5 -197q0 -130 -61 -207t-180 -77q-118 0 -180 74t-62 200q0 128 61.5 203t180.5 75q120 0 180.5 -71zM339 99q15 61 15 158q0 92 -16 152.5t-66 60.5t-66 -61t-16 -152q0 -97 15 -158t67 -61t67 61zM145 580l-34 41l148 124h24l151 -124
l-34 -41l-128 62z" />
    <glyph glyph-name="otilde" unicode="&#xf5;" horiz-adv-x="543" 
d="M30 0zM452.5 459q60.5 -71 60.5 -197q0 -130 -61 -207t-180 -77q-118 0 -180 74t-62 200q0 128 61.5 203t180.5 75q120 0 180.5 -71zM339 99q15 61 15 158q0 92 -16 152.5t-66 60.5t-66 -61t-16 -152q0 -97 15 -158t67 -61t67 61zM441 687q7 -15 7 -30q0 -57 -81 -57
q-20 0 -52.5 5t-42.5 6q-62 11 -91 11q-41 0 -59 -18q-11 11 -18 26t-7 30q0 57 81 57q20 0 52 -5t42 -6q62 -11 92 -11q41 0 59 18q11 -11 18 -26z" />
    <glyph glyph-name="odieresis" unicode="&#xf6;" horiz-adv-x="543" 
d="M30 0zM452.5 459q60.5 -71 60.5 -197q0 -130 -61 -207t-180 -77q-118 0 -180 74t-62 200q0 128 61.5 203t180.5 75q120 0 180.5 -71zM339 99q15 61 15 158q0 92 -16 152.5t-66 60.5t-66 -61t-16 -152q0 -97 15 -158t67 -61t67 61zM446.5 717q24.5 -19 24.5 -53
q0 -35 -26 -53.5t-67 -18.5q-40 0 -65.5 18.5t-25.5 51.5q0 35 26.5 54.5t67.5 19.5t65.5 -19zM231.5 717q24.5 -19 24.5 -53q0 -35 -26 -53.5t-67 -18.5q-40 0 -65.5 18.5t-25.5 51.5q0 35 26.5 54.5t67.5 19.5t65.5 -19z" />
    <glyph glyph-name="divide" unicode="&#xf7;" 
d="M342 357q-20 -15 -51 -15t-50.5 15t-19.5 41q0 28 21 44t52 16q30 0 49 -15.5t19 -42.5q0 -28 -20 -43zM81 234q0 25 14.5 39t40.5 14h354q10 -24 10 -40q0 -25 -14.5 -39t-40.5 -14h-354q-10 24 -10 40zM342 38q-20 -15 -51 -15t-50.5 15t-19.5 41q0 28 21 44t52 16
q30 0 49 -15.5t19 -42.5q0 -28 -20 -43z" />
    <glyph glyph-name="oslash" unicode="&#xf8;" horiz-adv-x="543" 
d="M513 262q0 -130 -61 -207t-180 -77q-74 0 -127 31l-44 -64q-21 1 -41 12t-20 31q0 16 15 38l27 39q-52 70 -52 187q0 128 61.5 203t180.5 75q64 0 114 -22l59 86q20 -1 40.5 -12.5t20.5 -30.5q0 -15 -15 -38l-38 -55q60 -67 60 -196zM190 223l140 204q-20 43 -58 43
q-50 0 -66 -61t-16 -152v-34zM339 99q15 61 15 158q0 36 -1 55l-147 -214q21 -60 66 -60q52 0 67 61z" />
    <glyph glyph-name="ugrave" unicode="&#xf9;" horiz-adv-x="568" 
d="M55 0zM507 100q0 -28 7 -49t24 -37q-12 -14 -33.5 -21.5t-43.5 -7.5q-36 0 -61 15.5t-34 44.5q-20 -34 -55.5 -50.5t-79.5 -16.5q-73 0 -111.5 31t-51.5 86t-13 141v274h155v-269q0 -63 3.5 -101.5t19 -64t48.5 -25.5q38 0 55.5 32t17.5 80v348h153v-410zM225 617
q-46 17 -72 34.5t-26 47.5q0 21 14.5 39.5t36.5 26.5l195 -151l-23 -41z" />
    <glyph glyph-name="uacute" unicode="&#xfa;" horiz-adv-x="568" 
d="M55 0zM507 100q0 -28 7 -49t24 -37q-12 -14 -33.5 -21.5t-43.5 -7.5q-36 0 -61 15.5t-34 44.5q-20 -34 -55.5 -50.5t-79.5 -16.5q-73 0 -111.5 31t-51.5 86t-13 141v274h155v-269q0 -63 3.5 -101.5t19 -64t48.5 -25.5q38 0 55.5 32t17.5 80v348h153v-410zM385 765
q21 -8 35.5 -26.5t14.5 -39.5q0 -31 -26 -48.5t-72 -33.5l-125 -44l-23 41z" />
    <glyph glyph-name="ucircumflex" unicode="&#xfb;" horiz-adv-x="568" 
d="M55 0zM507 100q0 -28 7 -49t24 -37q-12 -14 -33.5 -21.5t-43.5 -7.5q-36 0 -61 15.5t-34 44.5q-20 -34 -55.5 -50.5t-79.5 -16.5q-73 0 -111.5 31t-51.5 86t-13 141v274h155v-269q0 -63 3.5 -101.5t19 -64t48.5 -25.5q38 0 55.5 32t17.5 80v348h153v-410zM154 580l-34 41
l148 124h24l151 -124l-34 -41l-128 62z" />
    <glyph glyph-name="udieresis" unicode="&#xfc;" horiz-adv-x="568" 
d="M55 0zM507 100q0 -28 7 -49t24 -37q-12 -14 -33.5 -21.5t-43.5 -7.5q-36 0 -61 15.5t-34 44.5q-20 -34 -55.5 -50.5t-79.5 -16.5q-73 0 -111.5 31t-51.5 86t-13 141v274h155v-269q0 -63 3.5 -101.5t19 -64t48.5 -25.5q38 0 55.5 32t17.5 80v348h153v-410zM455.5 717
q24.5 -19 24.5 -53q0 -35 -26 -53.5t-67 -18.5q-40 0 -65.5 18.5t-25.5 51.5q0 35 26.5 54.5t67.5 19.5t65.5 -19zM240.5 717q24.5 -19 24.5 -53q0 -35 -26 -53.5t-67 -18.5q-40 0 -65.5 18.5t-25.5 51.5q0 35 26.5 54.5t67.5 19.5t65.5 -19z" />
    <glyph glyph-name="yacute" unicode="&#xfd;" horiz-adv-x="478" 
d="M9 0zM480 510l-237 -703l-153 13l108 234h-62l-127 456h160l86 -384l93 384h132zM359 765q21 -8 35.5 -26.5t14.5 -39.5q0 -31 -26 -48.5t-72 -33.5l-125 -44l-23 41z" />
    <glyph glyph-name="thorn" unicode="&#xfe;" horiz-adv-x="562" 
d="M215 600q0 -102 -10 -145q43 75 145 75q98 0 140 -74.5t42 -193.5q0 -132 -63.5 -208t-188.5 -76q-37 0 -65 8v-166l-153 -13v893l153 16v-116zM231.5 414.5q-16.5 -39.5 -16.5 -101.5v-251q34 -24 71 -24q54 0 70 61t16 158q0 90 -14.5 143.5t-64.5 53.5
q-45 0 -61.5 -39.5z" />
    <glyph glyph-name="ydieresis" unicode="&#xff;" horiz-adv-x="478" 
d="M9 0zM480 510l-237 -703l-153 13l108 234h-62l-127 456h160l86 -384l93 384h132zM429.5 717q24.5 -19 24.5 -53q0 -35 -26 -53.5t-67 -18.5q-40 0 -65.5 18.5t-25.5 51.5q0 35 26.5 54.5t67.5 19.5t65.5 -19zM214.5 717q24.5 -19 24.5 -53q0 -35 -26 -53.5t-67 -18.5
q-40 0 -65.5 18.5t-25.5 51.5q0 35 26.5 54.5t67.5 19.5t65.5 -19z" />
    <glyph glyph-name="dotlessi" unicode="&#x131;" horiz-adv-x="270" 
d="M208 100q0 -28 7 -49t24 -37q-11 -14 -33.5 -21.5t-44.5 -7.5q-52 0 -79 26.5t-27 78.5v420h153v-410z" />
    <glyph glyph-name="OE" unicode="&#x152;" horiz-adv-x="783" 
d="M760 0h-328q-53 -22 -119 -22q-145 0 -215.5 94t-70.5 254q0 163 69.5 258.5t216.5 95.5q66 0 117 -20h323v-79h-187v-202h157v-80h-157v-220h202zM421 146v367q-40 95 -108 95q-66 0 -87 -78.5t-21 -196.5q0 -123 20.5 -203t87.5 -80q68 0 108 96z" />
    <glyph glyph-name="oe" unicode="&#x153;" horiz-adv-x="822" 
d="M774 136.5q6 -13.5 6 -29.5q0 -41 -27 -70t-69 -44t-87 -15q-101 0 -165 59q-62 -59 -160 -59q-118 0 -180 74t-62 200q0 128 61.5 203t180.5 75q103 0 166 -60q71 60 175 60q81 0 134 -37t53 -109q0 -89 -63 -123t-172 -34q-33 0 -53 3q3 -71 27.5 -112t82.5 -41
q43 0 78.5 20.5t54.5 58.5q13 -6 19 -19.5zM531.5 412.5q-18.5 -58.5 -19.5 -136.5h20q63 -1 95 23t32 82q0 38 -15 64t-46 26q-48 0 -66.5 -58.5zM337 412q-16 58 -65 58q-50 0 -66 -61t-16 -152q0 -97 15 -158t67 -61q50 0 65.5 59t16.5 153v15q-1 89 -17 147z" />
    <glyph glyph-name="uni02BC" unicode="&#x2bc;" horiz-adv-x="199" 
d="M149.5 699.5q19.5 -22.5 19.5 -68.5q0 -34 -16 -65.5t-43.5 -51t-59.5 -19.5q-20 0 -38 6q40 58 40 118q0 50 -21 89q9 6 25.5 10t31.5 4q42 0 61.5 -22.5z" />
    <glyph glyph-name="circumflex" unicode="&#x2c6;" horiz-adv-x="343" 
d="M44 580l-34 41l148 124h24l151 -124l-34 -41l-128 62z" />
    <glyph glyph-name="ring" unicode="&#x2da;" horiz-adv-x="243" 
d="M42 598.5q-32 26.5 -32 70.5t31 69t81 25q49 0 80 -24.5t31 -69.5q0 -44 -31.5 -70.5t-79.5 -26.5t-80 26.5zM157.5 625.5q11.5 16.5 11.5 43.5q0 25 -12 41t-35 16q-24 0 -36 -16t-12 -41q0 -27 12 -43.5t36 -16.5t35.5 16.5z" />
    <glyph glyph-name="tilde" unicode="&#x2dc;" horiz-adv-x="393" 
d="M370 687q7 -15 7 -30q0 -57 -81 -57q-20 0 -52.5 5t-42.5 6q-62 11 -91 11q-41 0 -59 -18q-11 11 -18 26t-7 30q0 57 81 57q20 0 52 -5t42 -6q62 -11 92 -11q41 0 59 18q11 -11 18 -26z" />
    <glyph glyph-name="uni2002" unicode="&#x2002;" horiz-adv-x="504" 
 />
    <glyph glyph-name="endash" unicode="&#x2013;" horiz-adv-x="478" 
d="M7 230q0 58 67 58h390q7 -14 7 -36q0 -59 -68 -59h-390q-6 13 -6 37z" />
    <glyph glyph-name="emdash" unicode="&#x2014;" horiz-adv-x="940" 
d="M7 230q0 58 67 58h852q7 -14 7 -36q0 -59 -68 -59h-852q-6 13 -6 37z" />
    <glyph glyph-name="quoteleft" unicode="&#x2018;" horiz-adv-x="276" 
d="M94 498.5q-25 25.5 -25 73.5q0 38 19 72.5t51 55.5t70 21q23 0 41 -7q-42 -62 -42 -130q0 -52 24 -94q-11 -8 -29.5 -12.5t-35.5 -4.5q-48 0 -73 25.5z" />
    <glyph glyph-name="quoteright" unicode="&#x2019;" horiz-adv-x="240" 
d="M182 695.5q25 -25.5 25 -73.5q0 -38 -19 -72.5t-51.5 -55.5t-69.5 -21q-23 0 -41 7q42 62 42 131q0 50 -24 94q11 7 29.5 11.5t35.5 4.5q48 0 73 -25.5z" />
    <glyph glyph-name="quotesinglbase" unicode="&#x201a;" horiz-adv-x="240" 
d="M182 93.5q25 -25.5 25 -73.5q0 -38 -19 -72.5t-51 -55.5t-70 -21q-23 0 -41 7q42 62 42 131q0 50 -24 94q11 7 29.5 11.5t35.5 4.5q48 0 73 -25.5z" />
    <glyph glyph-name="quotedblleft" unicode="&#x201c;" horiz-adv-x="452" 
d="M57.5 498.5q-24.5 25.5 -24.5 73.5q0 38 19 72.5t51 55.5t70 21q23 0 41 -7q-42 -62 -42 -130q0 -52 24 -94q-11 -8 -29.5 -12.5t-36.5 -4.5q-48 0 -72.5 25.5zM269.5 498.5q-24.5 25.5 -24.5 73.5q0 38 19 72.5t51 55.5t69 21q24 0 42 -7q-42 -60 -42 -130q0 -52 24 -94
q-11 -8 -29.5 -12.5t-36.5 -4.5q-48 0 -72.5 25.5z" />
    <glyph glyph-name="quotedblright" unicode="&#x201d;" horiz-adv-x="452" 
d="M182 695.5q25 -25.5 25 -73.5q0 -38 -19 -72.5t-51.5 -55.5t-69.5 -21q-23 0 -41 7q42 62 42 131q0 50 -24 94q11 7 29.5 11.5t35.5 4.5q48 0 73 -25.5zM393.5 695.5q24.5 -25.5 24.5 -73.5q0 -38 -19 -72.5t-51 -55.5t-69 -21q-24 0 -42 7q42 60 42 131q0 50 -24 94
q11 7 30 11.5t36 4.5q48 0 72.5 -25.5z" />
    <glyph glyph-name="quotedblbase" unicode="&#x201e;" horiz-adv-x="452" 
d="M182 93.5q25 -25.5 25 -73.5q0 -38 -19 -72t-51.5 -55t-69.5 -21q-21 0 -41 6q42 62 42 131q0 50 -24 94q11 7 29.5 11.5t35.5 4.5q48 0 73 -25.5zM393.5 93.5q24.5 -25.5 24.5 -73.5q0 -38 -19 -72t-51 -55t-69 -21q-22 0 -42 6q42 60 42 131q0 50 -24 94q11 7 30 11.5
t36 4.5q48 0 72.5 -25.5z" />
    <glyph glyph-name="bullet" unicode="&#x2022;" horiz-adv-x="282" 
d="M212 327q30 -24 30 -67q0 -45 -31.5 -69.5t-81.5 -24.5q-49 0 -79 23.5t-30 66.5q0 45 32.5 70t81.5 25q48 0 78 -24z" />
    <glyph glyph-name="ellipsis" unicode="&#x2026;" horiz-adv-x="714" 
d="M32 0zM428.5 105q24.5 -19 24.5 -53q0 -35 -26 -53.5t-67 -18.5q-40 0 -65 18t-25 52q0 35 26.5 54.5t67.5 19.5q40 0 64.5 -19zM663.5 105q24.5 -19 24.5 -53q0 -35 -26 -53.5t-67 -18.5q-40 0 -65 18t-25 52q0 35 26.5 54.5t67.5 19.5q40 0 64.5 -19zM190.5 105
q24.5 -19 24.5 -53q0 -35 -26 -53.5t-67 -18.5q-40 0 -65 18t-25 52q0 35 26.5 54.5t67.5 19.5q40 0 64.5 -19z" />
    <glyph glyph-name="guilsinglleft" unicode="&#x2039;" horiz-adv-x="289" 
d="M148 510h107l-84 -193l82 -191h-106l-125 191z" />
    <glyph glyph-name="guilsinglright" unicode="&#x203a;" horiz-adv-x="289" 
d="M268 317l-126 -191h-106l82 191l-84 193h108z" />
    <glyph glyph-name="fraction" unicode="&#x2044;" horiz-adv-x="311" 
d="M240 720q22 0 35 -9.5t13 -28.5q0 -7 -2 -17.5t-3 -14.5l-182 -737q-14 -4 -31 -4q-22 0 -35 9.5t-13 28.5q0 7 2 17.5t3 14.5l182 737q14 4 31 4z" />
    <glyph glyph-name="Euro" unicode="&#x20ac;" 
d="M567 118q0 -45 -32 -77t-82 -47.5t-103 -15.5q-124 0 -189 64t-84 169h-75q-5 13 -5 27q0 21 13 31.5t36 10.5h23q-1 13 -1 38q0 18 1 27h-67q-5 13 -5 27q0 21 13 31.5t36 10.5h31q22 111 94.5 178.5t194.5 67.5q201 0 201 -118q0 -42 -29 -65t-72 -23q-32 0 -52 12
q7 24 7 52q0 37 -15.5 53.5t-51.5 16.5q-55 0 -78 -49t-28 -125h173q4 -9 4 -26q0 -43 -49 -43h-130v-5q0 -40 2 -60h173q4 -9 4 -26q0 -43 -49 -43h-119q25 -114 126 -114q52 0 87.5 21t57.5 66q39 -19 39 -66z" />
    <glyph glyph-name="trademark" unicode="&#x2122;" horiz-adv-x="756" 
d="M274 660l-4 -53h-78v-310h-105v310h-80v53h267zM674 660l35 -363h-102l-22 284l-73 -284h-73l-71 285l-22 -285h-68l37 363h126l54 -230l55 230h124z" />
    <glyph glyph-name="minus" unicode="&#x2212;" 
d="M81 235q0 25 14.5 38.5t40.5 13.5h354q10 -22 10 -40q0 -25 -14.5 -38.5t-40.5 -13.5h-354q-10 22 -10 40z" />
    <glyph glyph-name="uni2215" unicode="&#x2215;" horiz-adv-x="112" 
d="M184 710.5q13 -9.5 13 -28.5q0 -14 -5 -32l-182 -737q-14 -4 -31 -4q-21 0 -34 9.5t-13 28.5q0 14 5 32l182 737q14 4 31 4q21 0 34 -9.5z" />
    <glyph glyph-name="Ldot" horiz-adv-x="444" 
d="M55 660h166v-578h198l-8 -82h-356v660zM391.5 383q17.5 -17 17.5 -46t-18.5 -47t-46.5 -18t-45 17.5t-17 45.5q0 30 18.5 47.5t46.5 17.5q27 0 44.5 -17z" />
    <glyph glyph-name="uni1E9E" horiz-adv-x="702" 
d="M44 326q-1 177 71 265.5t237 88.5q80 0 143 -31t101 -95q-60 -13 -97 -36t-37 -66q0 -28 23 -52t71 -60q43 -31 70 -55t46 -57.5t19 -73.5q0 -89 -60 -132.5t-159 -43.5q-83 0 -142 30.5t-59 96.5q0 38 27.5 60t68.5 22q14 0 29 -3t23 -9q-6 -32 -6 -50q0 -86 67 -86
q34 0 53 20.5t19 56.5q0 29 -14 53t-34.5 42t-57.5 45q-39 29 -62 49.5t-39 49t-16 64.5q0 52 35.5 85t91.5 50q-41 53 -108 53q-58 0 -87.5 -34t-39.5 -92.5t-10 -148.5l1 -332h-167z" />
    <glyph glyph-name="Y.loclGUA" horiz-adv-x="599" 
d="M544 135q0 -166 -59 -250.5t-206 -84.5q-82 0 -143 30t-61 95q0 44 29 66.5t76 22.5q30 0 47 -9q-7 -35 -7 -57q0 -37 17.5 -57.5t53.5 -20.5q45 0 67 33.5t27.5 84t5.5 128.5q-18 -30 -55 -43t-80 -13q-80 0 -124 30.5t-61 87t-17 145.5v337h166v-326q0 -74 3.5 -111
t21.5 -61t58 -24t59 25.5t24 67t5 114.5v315h153v-525z" />
    <glyph glyph-name="Yacute.loclGUA" horiz-adv-x="599" 
d="M54 0zM544 135q0 -166 -59 -250.5t-206 -84.5q-82 0 -143 30t-61 95q0 44 29 66.5t76 22.5q30 0 47 -9q-7 -35 -7 -57q0 -37 17.5 -57.5t53.5 -20.5q45 0 67 33.5t27.5 84t5.5 128.5q-18 -30 -55 -43t-80 -13q-80 0 -124 30.5t-61 87t-17 145.5v337h166v-326
q0 -74 3.5 -111t21.5 -61t58 -24t59 25.5t24 67t5 114.5v315h153v-525zM437 850q15 -12 24 -28.5t9 -33.5q0 -38 -31.5 -51t-87.5 -17l-132 -10l-12 47z" />
    <glyph glyph-name="uni1EF8.loclGUA" horiz-adv-x="599" 
d="M54 0zM544 135q0 -166 -59 -250.5t-206 -84.5q-82 0 -143 30t-61 95q0 44 29 66.5t76 22.5q30 0 47 -9q-7 -35 -7 -57q0 -37 17.5 -57.5t53.5 -20.5q45 0 67 33.5t27.5 84t5.5 128.5q-18 -30 -55 -43t-80 -13q-80 0 -124 30.5t-61 87t-17 145.5v337h166v-326
q0 -74 3.5 -111t21.5 -61t58 -24t59 25.5t24 67t5 114.5v315h153v-525zM468 802q7 -15 7 -30q0 -57 -81 -57q-20 0 -52.5 5t-42.5 6q-62 11 -91 11q-41 0 -59 -17q-11 10 -18 25t-7 30q0 57 81 57q20 0 52 -5t42 -6q62 -11 92 -11q41 0 59 18q11 -11 18 -26z" />
    <glyph glyph-name="Oacute.loclPLK" horiz-adv-x="626" 
d="M27 0zM530 590q69 -90 69 -251q0 -165 -69.5 -263t-216.5 -98q-145 0 -215.5 94t-70.5 254q0 163 69.5 258.5t216.5 95.5q148 0 217 -90zM400 129.5q20 79.5 20 203.5q0 119 -20.5 197t-86.5 78t-87 -78.5t-21 -196.5q0 -123 20.5 -203t87.5 -80t87 79.5zM332 863
q44 0 66.5 -14.5t22.5 -40.5q0 -17 -17 -46.5t-53 -77.5l-68 16z" />
    <glyph glyph-name="i.loclTRK" horiz-adv-x="270" 
d="M41 0zM208 100q0 -28 7 -49t24 -37q-11 -14 -33.5 -21.5t-44.5 -7.5q-52 0 -79 26.5t-27 78.5v420h153v-410zM200.5 717q24.5 -19 24.5 -53q0 -35 -26 -53.5t-67 -18.5q-40 0 -65.5 18.5t-25.5 51.5q0 35 26.5 54.5t67.5 19.5t65.5 -19z" />
    <glyph glyph-name="ldot" horiz-adv-x="316" 
d="M210 716v-616q0 -28 7 -49t24 -37q-11 -14 -33.5 -21.5t-44.5 -7.5q-52 0 -79 26.5t-27 78.5v610zM336 379q17 -17 17 -46q0 -30 -18 -47.5t-46 -17.5t-45 17t-17 45q0 30 18.5 48t46.5 18q27 0 44 -17z" />
    <glyph glyph-name="y.loclGUA" horiz-adv-x="562" 
d="M503 101q0 -101 -22 -166.5t-75.5 -100t-147.5 -34.5q-46 0 -90 12.5t-72.5 39.5t-28.5 67q0 38 27 57t69 19q33 0 47 -10q-6 -23 -6 -47q0 -37 15 -58.5t47 -21.5q41 0 59.5 29.5t23 72.5t4.5 117v32q-21 -28 -54 -41.5t-72 -13.5q-71 0 -108.5 27.5t-50.5 77.5t-13 132
v219h155v-214q0 -59 3 -92t17.5 -56t46.5 -23q38 0 55.5 32.5t17.5 80.5v272h153v-409z" />
    <glyph glyph-name="yacute.loclGUA" horiz-adv-x="562" 
d="M55 0zM503 101q0 -101 -22 -166.5t-75.5 -100t-147.5 -34.5q-46 0 -90 12.5t-72.5 39.5t-28.5 67q0 38 27 57t69 19q33 0 47 -10q-6 -23 -6 -47q0 -37 15 -58.5t47 -21.5q41 0 59.5 29.5t23 72.5t4.5 117v32q-21 -28 -54 -41.5t-72 -13.5q-71 0 -108.5 27.5t-50.5 77.5
t-13 132v219h155v-214q0 -59 3 -92t17.5 -56t46.5 -23q38 0 55.5 32.5t17.5 80.5v272h153v-409zM386 765q21 -8 35.5 -26.5t14.5 -39.5q0 -31 -26 -48.5t-72 -33.5l-125 -44l-23 41z" />
    <glyph glyph-name="ydieresis.loclGUA" horiz-adv-x="562" 
d="M55 0zM503 101q0 -101 -22 -166.5t-75.5 -100t-147.5 -34.5q-46 0 -90 12.5t-72.5 39.5t-28.5 67q0 38 27 57t69 19q33 0 47 -10q-6 -23 -6 -47q0 -37 15 -58.5t47 -21.5q41 0 59.5 29.5t23 72.5t4.5 117v32q-21 -28 -54 -41.5t-72 -13.5q-71 0 -108.5 27.5t-50.5 77.5
t-13 132v219h155v-214q0 -59 3 -92t17.5 -56t46.5 -23q38 0 55.5 32.5t17.5 80.5v272h153v-409zM456.5 717q24.5 -19 24.5 -53q0 -35 -26 -53.5t-67 -18.5q-40 0 -65.5 18.5t-25.5 51.5q0 35 26.5 54.5t67.5 19.5t65.5 -19zM241.5 717q24.5 -19 24.5 -53q0 -35 -26 -53.5
t-67 -18.5q-40 0 -65.5 18.5t-25.5 51.5q0 35 26.5 54.5t67.5 19.5t65.5 -19z" />
    <glyph glyph-name="uni1EF9.loclGUA" horiz-adv-x="562" 
d="M55 0zM503 101q0 -101 -22 -166.5t-75.5 -100t-147.5 -34.5q-46 0 -90 12.5t-72.5 39.5t-28.5 67q0 38 27 57t69 19q33 0 47 -10q-6 -23 -6 -47q0 -37 15 -58.5t47 -21.5q41 0 59.5 29.5t23 72.5t4.5 117v32q-21 -28 -54 -41.5t-72 -13.5q-71 0 -108.5 27.5t-50.5 77.5
t-13 132v219h155v-214q0 -59 3 -92t17.5 -56t46.5 -23q38 0 55.5 32.5t17.5 80.5v272h153v-409zM451 687q7 -15 7 -30q0 -57 -81 -57q-20 0 -52.5 5t-42.5 6q-62 11 -91 11q-41 0 -59 -18q-11 11 -18 26t-7 30q0 57 81 57q20 0 52 -5t42 -6q62 -11 92 -11q41 0 59 18
q11 -11 18 -26z" />
    <glyph glyph-name="oacute.loclPLK" horiz-adv-x="543" 
d="M30 0zM452.5 459q60.5 -71 60.5 -197q0 -130 -61 -207t-180 -77q-118 0 -180 74t-62 200q0 128 61.5 203t180.5 75q120 0 180.5 -71zM339 99q15 61 15 158q0 92 -16 152.5t-66 60.5t-66 -61t-16 -152q0 -97 15 -158t67 -61t67 61zM296 787q43 0 65.5 -15t22.5 -40
q0 -28 -49 -95l-47 -65l-48 20z" />
    <glyph glyph-name="uni03BC" horiz-adv-x="575" 
d="M520 51q7 -21 24 -37q-11 -14 -32.5 -21.5t-43.5 -7.5q-37 0 -62 15.5t-34 44.5q-20 -33 -55 -49.5t-77 -16.5q-17 0 -25 1v-160l-153 -13v703l155 16v-285q0 -64 3.5 -102t18.5 -63.5t48 -25.5q39 0 56 32t17 80v348h153v-410q0 -28 7 -49z" />
    <glyph glyph-name="uni2153" horiz-adv-x="816" 
d="M545 677q0 -14 -5 -32l-182 -737q-14 -4 -31 -4q-22 0 -35 9.5t-13 28.5q0 7 5 32l182 738q10 3 32 3q47 0 47 -38zM241 668v-325h70v-58h-261v58h74v224q-10 -9 -24.5 -14.5t-27.5 -5.5q-23 0 -32.5 15.5t-9.5 42.5q44 13 89.5 33t80.5 42zM720.5 368q35.5 -22 35.5 -69
q0 -34 -18.5 -58t-53.5 -35q43 -7 67 -30.5t24 -63.5q0 -60 -43.5 -91.5t-111.5 -31.5q-50 0 -85 20t-35 60q0 27 16 36q14 -20 36 -30.5t48 -10.5t42 13.5t16 38.5q0 26 -16 39.5t-44 13.5q-20 0 -29 -2v50q36 0 59.5 14t23.5 45q0 21 -13.5 32.5t-35.5 11.5q-49 0 -73 -52
q-22 11 -22 42q0 40 36.5 60t84.5 20q56 0 91.5 -22z" />
    <glyph glyph-name="uni2154" horiz-adv-x="816" 
d="M541 677q0 -7 -2 -17.5t-3 -14.5l-182 -737q-14 -4 -32 -4q-21 0 -34 9.5t-13 28.5q0 15 5 32l182 738q11 3 31 3q48 0 48 -38zM278 645.5q38 -28.5 38 -85.5q0 -43 -26.5 -78t-93.5 -95l-34 -26l157 3l-2 -79h-268l-4 51l48 48l24 24q38 36 59 68t21 68q0 26 -14 40
t-40 14t-46 -13t-30 -38q-23 10 -23 41q0 42 40 64t92 22q64 0 102 -28.5zM716 368q35 -22 35 -69q0 -34 -18.5 -58t-53.5 -35q44 -7 68 -30.5t24 -63.5q0 -60 -43.5 -91.5t-112.5 -31.5q-49 0 -84 20t-35 60q0 26 15 36q29 -41 85 -41q26 0 42 13.5t16 38.5q0 26 -16 39.5
t-45 13.5q-19 0 -29 -2v50q37 0 60.5 14t23.5 45q0 21 -13.5 32.5t-36.5 11.5q-49 0 -72 -52q-22 11 -22 42q0 40 36 60t85 20q56 0 91 -22z" />
    <glyph glyph-name="oneeighth" horiz-adv-x="816" 
d="M519 710.5q13 -9.5 13 -28.5q0 -14 -5 -32l-182 -737q-14 -4 -31 -4q-21 0 -34 9.5t-13 28.5q0 14 5 32l182 737q14 4 31 4q21 0 34 -9.5zM236 668v-325h70v-58h-260v58h73v224q-11 -9 -25 -14.5t-27 -5.5q-23 0 -32.5 15.5t-9.5 42.5q43 13 89 33t82 42zM741.5 368
q35.5 -22 35.5 -68q0 -53 -69 -88q42 -27 65.5 -53.5t23.5 -62.5q0 -52 -43 -79.5t-106 -27.5q-60 0 -102 27.5t-42 79.5q0 28 21.5 52.5t53.5 43.5q-32 23 -49.5 46t-17.5 54q0 49 40 73.5t98 24.5q56 0 91.5 -22zM625 331.5q-10 -10.5 -10 -28.5q0 -19 13 -33.5t41 -32.5
q10 13 15.5 30t5.5 33q0 19 -10 30t-27 12q-18 0 -28 -10.5zM597 93q0 -25 13 -40.5t36 -15.5q45 0 45 48q0 22 -16.5 38t-54.5 40q-23 -29 -23 -70z" />
    <glyph glyph-name="quotesingle.loclGUA" horiz-adv-x="136" 
d="M20 531q0 113 -16 183q30 6 50 6q45 0 64.5 -24.5t19.5 -75.5q0 -45 -15 -102.5t-35 -86.5h-72q4 41 4 100z" />
    <glyph glyph-name="uni20B2" 
d="M413 283l132 14v-278q-77 -35 -180 -40v-37q0 -28 -12.5 -44t-38.5 -16q-22 0 -42 11v89q-122 18 -179 107t-57 227q0 148 62.5 237t191.5 104v38q0 28 12.5 44.5t38.5 16.5q20 0 42 -11v-87q79 -6 127 -38.5t48 -99.5q0 -44 -28.5 -71t-72.5 -27q-31 0 -52 11q7 32 7 53
q0 46 -20 74t-62 28q-115 0 -115 -249q0 -117 26.5 -188t108.5 -71q39 0 68 11z" />
    <glyph glyph-name="dotaccent" horiz-adv-x="191" 
d="M163.5 717q24.5 -19 24.5 -53q0 -35 -26 -53.5t-67 -18.5q-40 0 -65.5 18.5t-25.5 51.5q0 35 26.5 54.5t67.5 19.5t65.5 -19z" />
    <glyph glyph-name="acute.case" horiz-adv-x="283" 
d="M240 850q15 -12 24 -28.5t9 -33.5q0 -38 -31.5 -51t-87.5 -17l-132 -10l-12 47z" />
    <glyph glyph-name="circumflex.case" horiz-adv-x="330" 
d="M38 677l-34 41l148 124h24l151 -124l-34 -41l-128 62z" />
    <glyph glyph-name="grave.case" horiz-adv-x="283" 
d="M129 720q-56 4 -87.5 17t-31.5 51q0 17 9 33.5t24 28.5l230 -93l-12 -47z" />
    <glyph glyph-name="acute.loclPLK.case" horiz-adv-x="283" 
d="M114 863q44 0 66.5 -14.5t22.5 -40.5q0 -17 -17 -46.5t-53 -77.5l-68 16z" />
    <glyph glyph-name="ring.case" horiz-adv-x="236" 
d="M40.5 725q-30.5 25 -30.5 66q0 42 30 65t78 23t78 -23t30 -65q0 -41 -30.5 -66t-77.5 -25t-77.5 25zM151 752.5q11 14.5 11 38.5q0 22 -11.5 36.5t-32.5 14.5t-32.5 -14.5t-11.5 -36.5q0 -24 11 -38.5t33 -14.5t33 14.5z" />
    <glyph glyph-name="tilde.case" horiz-adv-x="371" 
d="M354 802q7 -15 7 -30q0 -57 -81 -57q-20 0 -52.5 5t-42.5 6q-62 11 -91 11q-41 0 -59 -17q-11 10 -18 25t-7 30q0 57 81 57q20 0 52 -5t42 -6q62 -11 92 -11q41 0 59 18q11 -11 18 -26z" />
    <glyph glyph-name="acute.loclPLK" horiz-adv-x="266" 
d="M113 777q43 0 65.5 -15t22.5 -40q0 -28 -49 -95l-47 -65l-48 20z" />
    <glyph glyph-name=".ttfautohint" horiz-adv-x="177" 
d="M0 0z" />
    </font>
</defs>
</svg>
