<?xml version="1.0" standalone="no"?>
<!DOCTYPE svg PUBLIC "-//W3C//DTD SVG 1.1//EN" "http://www.w3.org/Graphics/SVG/1.1/DTD/svg11.dtd" >
<svg xmlns="http://www.w3.org/2000/svg" xmlns:xlink="http://www.w3.org/1999/xlink" version="1.1">
<metadata>
Created by FontForge 20170731 at Sun Dec  4 11:51:21 2016
 By Aleksey,,,
Copyright 2016 The Sansita Project Authors (omnibus.type@gmail.com)
</metadata>
<defs>
<font id="Sansita-BoldItalic" horiz-adv-x="563" >
  <font-face 
    font-family="Sansita"
    font-weight="700"
    font-style="italic"
    font-stretch="normal"
    units-per-em="1000"
    panose-1="3 6 6 2 3 7 5 6 5 6"
    ascent="800"
    descent="-200"
    x-height="526"
    cap-height="660"
    bbox="-120 -256 949 857"
    underline-thickness="50"
    underline-position="-150"
    slope="-11"
    unicode-range="U+000D-2215"
  />
<missing-glyph horiz-adv-x="514" 
d="M-41 0l136 700h500l-136 -700h-500zM286 395l218 255h-340zM126 605l-100 -510l221 255zM307 350l119 -255l100 510zM49 50h340l-122 255z" />
    <glyph glyph-name="f_f" unicode="ff" horiz-adv-x="620" 
d="M211.5 680.5q63.5 34.5 159.5 34.5q99 0 145 -29q55 34 147 34q65 0 110.5 -18t45.5 -62q0 -33 -25.5 -51t-61.5 -18q-32 0 -51 11q14 23 14 55q0 39 -36 39q-31 0 -48 -26t-24 -72l-12 -68h91l-6 -45h-94l-85 -465l-161 -16l93 481h-154l-87 -465l-159 -16l94 481h-71
l9 45h70l13 52q20 84 83.5 118.5zM444 619q0 26 -16.5 39t-46.5 13q-81 0 -101 -98l-12 -63h155l10 46q11 48 11 63z" />
    <glyph glyph-name="fi" unicode="fi" horiz-adv-x="599" 
d="M503 127q-5 -27 -5 -42q0 -19 9.5 -31t29.5 -13q-9 -30 -37.5 -45.5t-64.5 -15.5q-41 0 -66 22.5t-25 62.5q0 26 10 83t18 96l44 221h-157l-87 -465l-159 -16l94 481h-71l9 45h71l16 58q25 88 90 120t176 32q211 0 211 -88q0 -34 -29.5 -50t-69.5 -16q-25 0 -45 6t-30 16
q13 19 13 41q0 23 -18 34.5t-47 11.5q-42 0 -66.5 -23.5t-34.5 -71.5l-14 -70h311z" />
    <glyph glyph-name="fl" unicode="fl" horiz-adv-x="601" 
d="M450 629.5q2 7.5 2 14.5q0 13 -19.5 22t-48.5 9q-43 0 -67.5 -23.5t-34.5 -71.5l-14 -70h80l-8 -45h-81l-87 -465l-159 -16l94 481h-71l9 45h71l16 58q24 85 88.5 118.5t168.5 33.5q76 0 123 -18l109 14l-116 -589q-5 -27 -5 -42q0 -19 9.5 -31t29.5 -13
q-9 -30 -37.5 -45.5t-64.5 -15.5q-41 0 -66 22.5t-25 62.5q0 26 10 83t18 96l73 371q1 7 3 14.5z" />
    <glyph glyph-name=".notdef" horiz-adv-x="514" 
d="M-41 0l136 700h500l-136 -700h-500zM286 395l218 255h-340zM126 605l-100 -510l221 255zM307 350l119 -255l100 510zM49 50h340l-122 255z" />
    <glyph glyph-name=".null" horiz-adv-x="0" 
 />
    <glyph glyph-name="nonmarkingreturn" unicode="&#xd;" horiz-adv-x="169" 
 />
    <glyph glyph-name="NULL" horiz-adv-x="0" 
 />
    <glyph glyph-name="NULL" horiz-adv-x="0" 
 />
    <glyph glyph-name="space" unicode=" " horiz-adv-x="169" 
 />
    <glyph glyph-name="exclam" unicode="!" horiz-adv-x="290" 
d="M211 680q78 0 78 -83q0 -34 -11.5 -75.5t-34.5 -106.5q-25 -71 -38.5 -119.5t-14.5 -92.5q-19 -23 -57 -23q-32 0 -49 16.5t-17 44.5q0 9 4 27l77 400q29 12 63 12zM173 100q24 -18 24 -51t-25.5 -51.5t-64.5 -18.5t-63.5 18t-24.5 50q0 34 26 52.5t65 18.5t63 -18z" />
    <glyph glyph-name="quotedbl" unicode="&#x22;" horiz-adv-x="414" 
d="M101 594q9 64 10 120q30 6 51 6q37 0 57 -18t20 -53q0 -38 -22 -93t-47 -80h-92q14 54 23 118zM291 595q9 64 10 119q28 6 50 6q37 0 57 -18t20 -53q0 -39 -21.5 -94t-47.5 -79h-92q15 55 24 119z" />
    <glyph glyph-name="numbersign" unicode="#" 
d="M543 222q0 -70 -68 -70h-59l-17 -95q-4 -26 -24 -41.5t-47 -15.5q-23 0 -46 12l26 140h-105l-17 -95q-5 -26 -24.5 -41.5t-46.5 -15.5q-23 0 -47 12l26 140h-93q-6 21 -6 38q0 35 17.5 53t50.5 18h51l21 121h-104q-6 21 -6 38q0 34 18 52.5t50 18.5h63l19 115
q10 56 67 56q20 0 48 -11l-28 -160h107l20 115q5 26 22 41t45 15q19 0 46 -11l-26 -160h93q4 -26 4 -39q0 -33 -17.5 -51.5t-49.5 -18.5h-50l-21 -121h102q6 -21 6 -39zM328 261l21 121h-107l-20 -121h106z" />
    <glyph glyph-name="dollar" unicode="$" 
d="M383 460q7 16 11 36.5t4 37.5q0 34 -16 53t-47 19q-40 0 -68 -28t-28 -67q0 -28 15 -50t36.5 -38.5t60.5 -41.5l18 -11q59 -39 92 -78.5t33 -98.5q0 -57 -31.5 -101.5t-85 -72t-118.5 -36.5l-6 -31q-7 -40 -20.5 -54.5t-45.5 -14.5q-26 0 -39 4l18 94q-66 7 -109 37
t-43 87q0 46 28.5 73t74.5 27q31 0 60 -13q-15 -36 -15 -78q0 -34 17.5 -51.5t51.5 -17.5q43 0 74 25t31 66q0 38 -26.5 65t-80.5 63l-19 13q-60 40 -93 80.5t-33 101.5q0 81 59.5 135t156.5 69l6 32q8 40 21 54.5t42 14.5q16 0 40 -4l-19 -93q68 -4 110 -31.5t42 -84.5
q0 -49 -31.5 -76t-74.5 -27q-27 0 -53 12z" />
    <glyph glyph-name="percent" unicode="%" horiz-adv-x="987" 
d="M187 -22q-51 0 -64 36l604 633q34 36 85 36t64 -36l-604 -633q-34 -36 -85 -36zM401.5 407q-25.5 -55 -75 -88t-118.5 -33q-71 0 -106 37t-35 113q0 67 25.5 121.5t75.5 87t119 32.5q71 0 105.5 -36.5t34.5 -112.5q0 -66 -25.5 -121zM272.5 376q21.5 35 31.5 85t10 92
q0 33 -9 51t-30 18q-31 0 -52.5 -34.5t-31.5 -83.5t-10 -92q0 -35 9 -53t30 -18q31 0 52.5 35zM923.5 102q-25.5 -55 -75 -88t-118.5 -33q-71 0 -106 37t-35 113q0 67 25.5 121.5t75.5 87t119 32.5q71 0 105.5 -36.5t34.5 -112.5q0 -66 -25.5 -121zM794.5 71
q21.5 35 31.5 85t10 92q0 33 -9 51t-30 18q-31 0 -52.5 -34.5t-31.5 -83.5t-10 -92q0 -35 9 -53t30 -18q31 0 52.5 35z" />
    <glyph glyph-name="ampersand" unicode="&#x26;" horiz-adv-x="700" 
d="M671 61q0 -40 -27.5 -60.5t-74.5 -20.5q-65 0 -135 40q-74 -40 -168 -40q-69 0 -124.5 22.5t-87.5 66t-32 105.5q0 131 151 180q-19 60 -19 110q0 113 69.5 164.5t177.5 51.5q72 0 122.5 -24.5t50.5 -83.5q0 -42 -27.5 -69.5t-73.5 -27.5q-26 0 -43 6q6 21 6 51
q0 79 -57 79q-40 0 -59.5 -31.5t-19.5 -88.5q0 -93 44 -183.5t112 -150.5q26 46 26 95q0 32 -11.5 60t-33.5 48q14 11 37.5 17.5t45.5 6.5q46 0 69 -27.5t23 -75.5q0 -44 -20 -91t-55 -86q35 -15 67 -15q17 0 34 3t25 8q8 -20 8 -39zM364 70q-51 43 -94 100.5t-72 120.5
q-36 -33 -36 -92q0 -58 36.5 -99.5t100.5 -41.5q37 0 65 12z" />
    <glyph glyph-name="quotesingle" unicode="'" horiz-adv-x="209" 
d="M109 595q9 64 10 119q28 6 50 6q37 0 57 -18t20 -53q0 -39 -21.5 -94t-47.5 -79h-92q15 55 24 119z" />
    <glyph glyph-name="parenleft" unicode="(" horiz-adv-x="374" 
d="M281 511q-71 -180 -71 -403q0 -108 16.5 -170t65.5 -118q-6 -20 -36 -20q-49 0 -91 50.5t-66.5 135.5t-24.5 184q0 148 54 295t139.5 241t171.5 94q36 0 50 -20q-137 -89 -208 -269z" />
    <glyph glyph-name="parenright" unicode=")" horiz-adv-x="389" 
d="M135 800q48 0 89.5 -51t66 -136t24.5 -183q0 -147 -54.5 -294t-139.5 -241.5t-172 -94.5q-37 0 -48 20q92 59 155.5 163t95 228t31.5 247q0 225 -86 322q7 20 38 20z" />
    <glyph glyph-name="asterisk" unicode="*" horiz-adv-x="414" 
d="M447 531q4 -11 4 -20q0 -29 -37 -41q-29 -9 -68 -9q-12 0 -38 2l67 -104q-12 -26 -33 -42q-14 -11 -29 -11q-21 0 -39 25q-25 31 -41 102l-81 -99q-31 5 -49 19q-22 17 -22 36q0 16 13 34q26 35 84 68l-113 45q-2 14 -2 21q0 13 4 31q12 34 41 34q41 0 113 -61l7 122
q26 14 51 14q48 0 48 -51q0 -40 -26 -101l118 30q23 -23 28 -44z" />
    <glyph glyph-name="plus" unicode="+" 
d="M241 405q5 27 26 44t52 17q21 0 35 -6l-33 -172h153q5 -14 5 -29q0 -30 -21.5 -47.5t-56.5 -17.5h-99l-26 -131q-5 -27 -23.5 -42t-48.5 -15q-21 0 -39 7l36 181h-148q-4 11 -4 25q0 31 19 50t49 19h102z" />
    <glyph glyph-name="comma" unicode="," horiz-adv-x="208" 
d="M124.5 -41.5q-24.5 -38.5 -63.5 -62.5t-81 -24q-22 0 -41 6q37 41 54 84.5t17 85.5q0 32 -10 55q10 7 31 11.5t39 4.5q36 0 57.5 -20.5t21.5 -59.5q0 -42 -24.5 -80.5z" />
    <glyph glyph-name="hyphen" unicode="-" horiz-adv-x="336" 
d="M288 294.5q14 3.5 20 10.5q9 -8 14 -24t5 -30q0 -27 -16 -43.5t-43 -16.5h-187q-16 0 -30 -4t-21 -12q-10 9 -15 25t-5 32q0 26 15 42.5t41 16.5h193q15 0 29 3.5z" />
    <glyph glyph-name="period" unicode="." horiz-adv-x="217" 
d="M137 100q24 -18 24 -51t-25.5 -51.5t-64.5 -18.5t-63.5 18t-24.5 50q0 34 26 52.5t65 18.5t63 -18z" />
    <glyph glyph-name="slash" unicode="/" horiz-adv-x="315" 
d="M-1 -200q-35 0 -51 10.5t-16 32.5q0 13 9 42l331 913q17 3 38 3q40 0 56.5 -9t16.5 -32q0 -18 -13 -59l-325 -897q-12 -4 -46 -4z" />
    <glyph glyph-name="zero" unicode="0" 
d="M499 617.5q44 -62.5 44 -181.5q0 -115 -35.5 -220t-109.5 -171t-182 -66q-104 0 -148 63t-44 182q0 115 35.5 219.5t109.5 170.5t182 66q104 0 148 -62.5zM249 543.5q-30 -58.5 -52 -187.5q-22 -115 -22 -194q0 -50 13 -77t50 -27q51 0 81 58.5t52 187.5q22 117 22 195
q0 50 -13 76.5t-50 26.5q-51 0 -81 -58.5z" />
    <glyph glyph-name="one" unicode="1" 
d="M519 67q0 -38 -25 -55t-79 -17l-141 2q-50 1 -103.5 2t-95.5 1q-48 0 -72 -8q-7 15 -7 37q0 35 20.5 55.5t60.5 20.5h115l86 410q-29 -18 -66 -29t-70 -11q-36 0 -56 24t-24 64q77 12 162.5 39t194.5 72l39 -23l-103 -548h79q50 0 70 14q15 -21 15 -50z" />
    <glyph glyph-name="two" unicode="2" 
d="M336 401.5q27 39.5 27 81.5q0 39 -27.5 60t-77.5 21q-55 0 -93.5 -27.5t-58.5 -72.5q-20 6 -34.5 22.5t-14.5 41.5q0 46 36 81t92.5 53.5t116.5 18.5q96 0 156 -43t60 -129q0 -63 -32.5 -114.5t-97.5 -103.5q-28 -22 -148 -107l-58 -41q90 -18 185 -18q38 0 63.5 6
t44.5 21q20 -31 20 -66q0 -98 -141 -98q-32 0 -69 4.5t-71 10.5q-78 12 -109 12q-40 0 -61 -13q-13 11 -21.5 31.5t-8.5 40.5q0 27 14 48t40 42l188 153q53 45 80 84.5z" />
    <glyph glyph-name="three" unicode="3" 
d="M319.5 415q49.5 31 49.5 81q0 34 -30 51t-84 17q-82 0 -146 -72q-33 12 -33 53q0 44 35.5 74.5t90 46t110.5 15.5q94 0 153 -35t59 -106q0 -65 -45 -113t-120 -71q70 -15 106.5 -53.5t36.5 -99.5q0 -64 -40 -114.5t-111 -79.5t-158 -29t-141.5 33t-54.5 89q0 46 36 69
q25 -39 64.5 -58.5t89.5 -19.5q70 0 110.5 26t40.5 76q0 55 -41 78.5t-119 23.5l14 77q78 10 127.5 41z" />
    <glyph glyph-name="four" unicode="4" 
d="M515 660q-32 -143 -84 -419h34q48 2 64 14q16 -20 16 -49q0 -34 -24.5 -54t-66.5 -20h-42l-24 -132h-151l25 133h-267q-11 25 -11 48q0 38 34 77l355 402h142zM344 513l-239 -270h179q22 107 60 270z" />
    <glyph glyph-name="five" unicode="5" 
d="M487.5 662.5q23.5 2.5 36.5 11.5q14 -21 14 -48q0 -93 -123 -93h-205l-31 -127q58 4 87 4q111 0 176 -41t65 -133q0 -70 -39 -128.5t-110 -93t-162 -34.5q-79 0 -135.5 30.5t-56.5 91.5q0 45 33 69q53 -78 155 -78q72 0 112 29t40 85q0 59 -41.5 82t-121.5 23
q-67 0 -121 -6l87 354h283q34 0 57.5 2.5z" />
    <glyph glyph-name="six" unicode="6" 
d="M484 660q41 -21 41 -68q0 -19 -8 -35.5t-23 -27.5q-41 41 -105 41q-79 0 -127 -56.5t-67 -148.5q53 84 155 84q80 0 120.5 -49.5t40.5 -136.5q0 -81 -35 -145.5t-97.5 -101t-143.5 -36.5q-105 0 -156.5 62.5t-51.5 176.5q0 111 45 218.5t127 175.5t187 68q57 0 98 -21z
M228.5 329q-25.5 -30 -37.5 -74t-12 -86q0 -45 15 -70t51 -25q40 0 65.5 30.5t37 75t11.5 86.5q0 93 -66 93q-39 0 -64.5 -30z" />
    <glyph glyph-name="seven" unicode="7" 
d="M577 582q-77 -94 -123 -165q-106 -162 -137.5 -251t-31.5 -144q0 -15 1 -24q-21 -8 -46.5 -13t-45.5 -5q-42 0 -65.5 22.5t-23.5 63.5q0 28 12 58t31 56l255 355h-229q-57 0 -90 17.5t-33 62.5q0 31 21 59q14 -8 36.5 -11t59.5 -3h400z" />
    <glyph glyph-name="eight" unicode="8" 
d="M486.5 647q48.5 -33 48.5 -99q0 -108 -141 -186q39 -32 59.5 -53t31.5 -46.5t11 -59.5q0 -66 -36.5 -116.5t-98 -78.5t-133.5 -28q-88 0 -147 42t-59 120q0 63 40.5 113.5t114.5 85.5q-35 29 -52.5 60t-17.5 73q0 62 36 109t95 72t125 25q75 0 123.5 -33zM386.5 456.5
q19.5 32.5 19.5 67.5q0 33 -17.5 51t-50.5 18q-35 0 -59.5 -20.5t-24.5 -55.5q0 -45 46 -82l37 -28q30 17 49.5 49.5zM176 238.5q-19 -33.5 -19 -73.5q0 -44 21.5 -69t60.5 -25q41 0 66.5 27t25.5 67q0 47 -49 87l-50 41q-37 -21 -56 -54.5z" />
    <glyph glyph-name="nine" unicode="9" 
d="M485.5 618.5q51.5 -62.5 51.5 -176.5q0 -111 -45 -218.5t-127 -175.5t-187 -68q-57 0 -98 21t-41 68q0 19 8 35.5t23 27.5q41 -41 105 -41q79 0 127 56.5t67 148.5q-53 -84 -155 -84q-80 0 -120.5 49.5t-40.5 136.5q0 81 35 145.5t97.5 101t143.5 36.5q105 0 156.5 -62.5
zM253.5 556.5q-25.5 -30.5 -37 -75t-11.5 -86.5q0 -93 66 -93q39 0 64.5 30t37.5 74t12 86q0 45 -15 70t-51 25q-40 0 -65.5 -30.5z" />
    <glyph glyph-name="colon" unicode=":" horiz-adv-x="273" 
d="M6 0zM236 511q24 -18 24 -51t-25.5 -51.5t-64.5 -18.5t-63.5 18t-24.5 50q0 34 26 52.5t65 18.5t63 -18zM160 100q24 -18 24 -51t-25.5 -51.5t-64.5 -18.5t-63.5 18t-24.5 50q0 34 26 52.5t65 18.5t63 -18z" />
    <glyph glyph-name="semicolon" unicode=";" horiz-adv-x="276" 
d="M0 0zM246 511q24 -18 24 -51t-25.5 -51.5t-64.5 -18.5t-63.5 18t-24.5 50q0 34 26 52.5t65 18.5t63 -18zM144.5 -41.5q-24.5 -38.5 -63.5 -62.5t-81 -24q-22 0 -41 6q37 41 54 84.5t17 85.5q0 32 -10 55q10 7 31 11.5t39 4.5q36 0 57.5 -20.5t21.5 -59.5
q0 -42 -24.5 -80.5z" />
    <glyph glyph-name="less" unicode="&#x3c;" 
d="M344 110q11 -11 11 -32q0 -27 -20.5 -49t-57.5 -23l-228 234l274 218q31 25 64 25q23 0 40.5 -14t23.5 -38l-229 -192z" />
    <glyph glyph-name="equal" unicode="=" 
d="M483 328q0 -28 -19.5 -46t-56.5 -18h-338q-3 15 -3 26q0 30 19 48.5t48 18.5h345q5 -15 5 -29zM483 161q0 -29 -19.5 -47t-56.5 -18h-338q-3 14 -3 25q0 30 19 49t48 19h345q5 -15 5 -28z" />
    <glyph glyph-name="greater" unicode="&#x3e;" 
d="M486 250l-274 -218q-32 -26 -64 -26q-22 0 -38 14.5t-21 37.5l226 191l-125 130q-11 11 -11 33q0 26 20.5 48.5t57.5 23.5l228 -234h1z" />
    <glyph glyph-name="question" unicode="?" horiz-adv-x="453" 
d="M463 473.5q-26 -37.5 -62.5 -66.5t-96.5 -68q-51 -33 -80 -55t-49 -49t-20 -56q-28 0 -45 22.5t-17 57.5q0 48 31.5 82t92.5 77q40 29 63 48t39 44.5t16 55.5q0 54 -57 54q-40 0 -65.5 -25t-25.5 -66q0 -26 9 -45q-23 -6 -55 -6q-44 0 -71.5 17.5t-27.5 56.5
q0 67 76.5 97.5t170.5 30.5q92 0 146 -30t54 -94q0 -45 -26 -82.5zM198 100q24 -18 24 -51t-25.5 -51.5t-64.5 -18.5t-63.5 18t-24.5 50q0 34 26 52.5t65 18.5t63 -18z" />
    <glyph glyph-name="at" unicode="@" horiz-adv-x="797" 
d="M536 147q0 -14 6 -21.5t22 -7.5q32 0 59 24.5t42.5 68t15.5 98.5q0 108 -62 167t-166 59q-95 0 -168 -48.5t-112.5 -127.5t-39.5 -169q0 -216 242 -216q109 0 170 46q13 -11 13 -29q0 -42 -63.5 -65.5t-150.5 -23.5q-142 0 -228 67.5t-86 206.5q0 114 58 211.5t159 155.5
t224 58q89 0 158.5 -31.5t109 -93t39.5 -147.5q0 -75 -29.5 -135t-80.5 -93.5t-113 -33.5q-39 0 -66.5 14t-39.5 42q-15 -27 -42 -41.5t-62 -14.5q-56 0 -85 36.5t-29 106.5q0 63 24 117.5t69 87.5t106 33q18 0 33 -3t33 -11l93 11l-46 -251q-7 -35 -7 -47zM431 401
q-29 0 -50 -34t-31.5 -85.5t-10.5 -101.5q0 -28 7 -43t26 -15q47 0 65 88l33 176q-18 15 -39 15z" />
    <glyph glyph-name="A" unicode="A" horiz-adv-x="562" 
d="M487 148q8 -88 46 -113q-10 -26 -34.5 -40.5t-57.5 -14.5q-46 0 -69.5 30t-33.5 83q-6 35 -9 71h-180q-30 -72 -65 -164h-128l307 660h185zM217 333q-9 -22 -18.5 -45.5t-20.5 -48.5h146l-17 310q-39 -91 -90 -216z" />
    <glyph glyph-name="B" unicode="B" horiz-adv-x="573" 
d="M317 667q72 0 122 -9.5t82 -38.5t32 -85q0 -57 -32.5 -98.5t-88.5 -64.5q111 -29 111 -146q0 -116 -96.5 -174t-254.5 -58q-79 0 -183 7l126 660q101 7 182 7zM274 385q66 0 99.5 37t33.5 96q0 44 -19.5 64t-62.5 20q-14 0 -38 -4l-41 -211zM228 64q75 0 115 41.5
t40 106.5q0 43 -18 65.5t-50 30.5t-83 9l-48 -249q17 -4 44 -4z" />
    <glyph glyph-name="C" unicode="C" horiz-adv-x="558" 
d="M528 649q52 -31 52 -95q0 -51 -32.5 -81.5t-79.5 -30.5q-31 0 -48 11q11 35 11 76q0 34 -14.5 57t-47.5 23q-54 0 -93.5 -60.5t-60 -144.5t-20.5 -152q0 -71 28 -109t91 -38q51 0 91 25.5t69 69.5q29 -18 29 -60q0 -44 -32.5 -81t-89 -58t-124.5 -21q-115 0 -174 65
t-59 194q0 114 43.5 215t128 163.5t201.5 62.5q79 0 131 -31z" />
    <glyph glyph-name="D" unicode="D" horiz-adv-x="637" 
d="M320 667q107 0 170 -23.5t92 -77.5t29 -148q0 -126 -47 -222t-141 -149.5t-231 -53.5q-36 0 -87 2t-98 5l128 660q101 7 185 7zM242 64q76 0 119 61t66 172q24 114 24 182q0 61 -25 89.5t-83 28.5q-27 0 -57 -5l-102 -523q30 -5 58 -5z" />
    <glyph glyph-name="E" unicode="E" horiz-adv-x="469" 
d="M486 578q-29 -28 -84 -28q-53 0 -119 27l-34 -195h179q0 -48 -26 -72.5t-73 -24.5q-28 0 -54 7.5t-41 15.5l-37 -203h105q63 0 89 11q6 -9 10 -23t4 -27q0 -38 -32 -52t-82 -14h-281l125 660h380q0 -54 -29 -82z" />
    <glyph glyph-name="F" unicode="F" horiz-adv-x="471" 
d="M410 548q-31 0 -66 7.5t-61 19.5l-33 -189h186q0 -48 -26 -74.5t-76 -26.5t-100 24l-55 -309h-169l125 660h387q0 -112 -112 -112z" />
    <glyph glyph-name="G" unicode="G" horiz-adv-x="584" 
d="M521.5 173q-16.5 -89 -18.5 -176q-18 -17 -48 -17q-35 0 -56 16.5t-23 40.5q-28 -25 -70 -41t-87 -16q-97 0 -146 68t-49 188q0 116 43.5 217.5t128.5 164t202 62.5q79 0 131.5 -31.5t52.5 -94.5q0 -51 -32.5 -81.5t-79.5 -30.5q-32 0 -48 11q11 35 11 76
q0 33 -14.5 56.5t-46.5 23.5q-55 0 -95.5 -59t-61.5 -144t-21 -159q0 -159 105 -159q21 0 42 5t33 16l32 206l164 18q-32 -71 -48.5 -160z" />
    <glyph glyph-name="H" unicode="H" horiz-adv-x="647" 
d="M544 127q-7 -33 -7 -64q0 -33 12 -54q-39 -29 -90 -29q-83 0 -83 83q0 23 11 88l23 137h-184l-56 -288h-162l127 660h164l-58 -297h183l55 297h165z" />
    <glyph glyph-name="I" unicode="I" horiz-adv-x="313" 
d="M304 660l-129 -660h-167l127 660h169z" />
    <glyph glyph-name="J" unicode="J" horiz-adv-x="313" 
d="M197 113q-28 -147 -73.5 -217.5t-122.5 -70.5q-33 0 -57 11.5t-34 33.5q33 13 54 40t35.5 71.5t29.5 121.5l107 557h167z" />
    <glyph glyph-name="K" unicode="K" horiz-adv-x="600" 
d="M175 0h-165l125 660h166zM407 336q42 -122 86 -195t85 -94q-10 -33 -35.5 -50t-62.5 -17q-56 0 -93 38t-63.5 107.5t-64.5 202.5l243 332h174q-169 -196 -269 -324z" />
    <glyph glyph-name="L" unicode="L" horiz-adv-x="409" 
d="M135 660h168l-105 -555h107q63 0 89 11q6 -9 10 -23t4 -27q0 -38 -31.5 -52t-81.5 -14h-284z" />
    <glyph glyph-name="M" unicode="M" horiz-adv-x="780" 
d="M767 660l-42 -511q-3 -27 -3 -47q0 -54 27 -77q-14 -22 -39.5 -34t-58.5 -12q-46 0 -64.5 25.5t-18.5 76.5q0 30 4 60l34 343l-220 -484h-99l-84 484l-102 -484h-107l154 660h178l74 -416l191 416h176z" />
    <glyph glyph-name="N" unicode="N" horiz-adv-x="668" 
d="M121 0h-107l121 660h179l150 -485l81 485h107l-121 -660h-179l-150 486z" />
    <glyph glyph-name="O" unicode="O" horiz-adv-x="640" 
d="M560 616.5q56 -63.5 56 -191.5q0 -112 -41 -214t-123.5 -166.5t-200.5 -64.5q-114 0 -170.5 63.5t-56.5 192.5q0 113 41 214.5t124 165.5t201 64q114 0 170 -63.5zM273.5 546q-35.5 -64 -56.5 -189q-9 -47 -15.5 -101.5t-6.5 -93.5q0 -53 17 -82t58 -29q62 0 97.5 65.5
t55.5 187.5q9 48 15.5 102.5t6.5 93.5q0 52 -16.5 81t-58.5 29q-61 0 -96.5 -64z" />
    <glyph glyph-name="P" unicode="P" horiz-adv-x="565" 
d="M8 0l127 660q24 2 34 2q92 6 142 6q98 0 158.5 -13t93.5 -50.5t33 -107.5q0 -66 -28 -117t-78 -78.5t-114 -27.5q-41 0 -71 12.5t-38 41.5l13 -1q7 0 19 2q64 5 101.5 50t37.5 119q0 54 -22.5 79t-72.5 25q-25 0 -53 -5l-115 -597h-167z" />
    <glyph glyph-name="Q" unicode="Q" horiz-adv-x="642" 
d="M627 428q0 -107 -42.5 -208t-120 -166.5t-175.5 -70.5q88 -24 165 -24t122 26q13 -23 13 -55q0 -50 -36.5 -73t-87.5 -23q-36 0 -69 7.5t-82 23.5q-46 15 -73.5 21.5t-56.5 6.5q-48 0 -80 -19q-27 30 -27 69q0 32 17.5 49.5t43.5 24.5t70 13q58 7 99 31t73.5 82t53.5 162
q22 116 22 190q0 54 -15 84.5t-55 30.5q-56 0 -93.5 -60t-59.5 -151q-11 -46 -18.5 -96.5t-7.5 -87.5q0 -33 9.5 -52t36.5 -22q0 -23 -22.5 -38t-62.5 -15q-133 0 -133 169q0 98 41.5 196t125 162.5t200.5 64.5q225 0 225 -252z" />
    <glyph glyph-name="R" unicode="R" horiz-adv-x="603" 
d="M173 662q21 1 72.5 3t88.5 2q83 0 138 -13t86.5 -49.5t31.5 -105.5q0 -84 -45 -141.5t-120 -71.5q37 -101 77 -161.5t78 -77.5q-10 -34 -36 -50.5t-62 -16.5q-55 0 -91.5 38.5t-62.5 109t-64 206.5q7 -1 17 -1q73 0 111.5 41.5t38.5 117.5q0 55 -22 82.5t-72 27.5
q-23 0 -47 -4l-115 -598h-165l125 660z" />
    <glyph glyph-name="S" unicode="S" horiz-adv-x="542" 
d="M482 652q50 -28 50 -91q0 -50 -31.5 -77.5t-74.5 -27.5q-27 0 -53 12q7 16 11 37t4 39q0 34 -16 53.5t-47 19.5q-40 0 -68 -28.5t-28 -68.5t28 -68t83 -62q2 -2 19 -13q60 -41 92.5 -80.5t32.5 -100.5q0 -65 -40 -114.5t-106.5 -76t-143.5 -26.5q-78 0 -134 30.5
t-56 97.5q0 47 28.5 74.5t74.5 27.5q31 0 60 -13q-15 -37 -15 -80q0 -34 17.5 -52t51.5 -18q43 0 74 26t31 67q0 38 -26 65t-80 64q-6 5 -11 8t-9 6q-60 41 -93 82t-33 104q0 64 37 112t101 74t143 26q77 0 127 -28z" />
    <glyph glyph-name="T" unicode="T" horiz-adv-x="429" 
d="M456.5 663q24.5 3 38.5 8q7 -9 10.5 -23t3.5 -28q0 -37 -28.5 -50.5t-77.5 -13.5h-60l-85 -429q-7 -44 -7 -64q0 -31 13 -54q-39 -29 -91 -29q-82 0 -82 84q0 46 17 131l73 361h-65q-47 0 -74 -8q-4 8 -6.5 20.5t-2.5 22.5q0 39 27.5 54t73.5 15h272q26 0 50.5 3z" />
    <glyph glyph-name="U" unicode="U" horiz-adv-x="608" 
d="M537 263q-28 -145 -96.5 -214t-196.5 -69q-97 0 -153.5 39.5t-56.5 120.5q0 45 14 115l78 405h169l-78 -417q-13 -63 -13 -100q0 -38 19 -58.5t56 -20.5q60 0 87.5 48t44.5 141l74 407h128z" />
    <glyph glyph-name="V" unicode="V" horiz-adv-x="515" 
d="M20 625q11 27 35.5 41t59.5 14q63 0 86.5 -42t25.5 -120l15 -416l238 558h119l-307 -660h-195l-31 509q-6 86 -46 116z" />
    <glyph glyph-name="W" unicode="W" horiz-adv-x="855" 
d="M20 625q11 27 35.5 41t59.5 14q63 0 86.5 -42t25.5 -120l15 -416l221 558h99l33 -558l226 558h119l-295 -660h-185l-18 365l-150 -365h-195l-31 509q-6 86 -46 116z" />
    <glyph glyph-name="X" unicode="X" horiz-adv-x="538" 
d="M39 625q16 25 44 39.5t65 14.5q47 0 72.5 -25.5t45.5 -80.5l50 -137l160 224h124l-246 -328l71 -193q13 -35 34 -63.5t42 -32.5q-12 -30 -41 -46.5t-65 -16.5q-50 0 -78 31t-50 90l-47 126l-156 -227h-124l242 331l-73 198q-29 79 -70 96z" />
    <glyph glyph-name="Y" unicode="Y" horiz-adv-x="462" 
d="M378 603.5q55 69.5 120 69.5q59 0 71 -48q-73 -39 -144.5 -130t-120.5 -213l-55 -282h-168l61 308q-27 147 -58.5 217t-74.5 93q14 26 41 40.5t64 14.5q45 0 73 -23t43.5 -73t24.5 -137l6 -67q62 161 117 230.5z" />
    <glyph glyph-name="Z" unicode="Z" horiz-adv-x="494" 
d="M187 537q-64 0 -106 -22q-20 32 -20 70q0 90 124 90q34 0 72 -6t45 -7q72 -13 113 -13q43 0 78 11q16 -14 24.5 -34t8.5 -41q0 -46 -41 -81l-342 -361q38 -9 85.5 -14t90.5 -5q38 0 64 5.5t46 20.5q19 -27 19 -65q0 -99 -136 -99q-30 0 -66.5 4.5t-69.5 10.5
q-71 13 -103 13q-36 0 -61 -14q-14 11 -23 34t-9 46q0 46 39 79l338 359q-115 19 -170 19z" />
    <glyph glyph-name="bracketleft" unicode="[" horiz-adv-x="375" 
d="M454.5 749q-22.5 -15 -66.5 -15h-60l-162 -867h40q45 0 64.5 -12t19.5 -40q0 -11 -1 -15h-270l188 1000h277q-7 -36 -29.5 -51z" />
    <glyph glyph-name="backslash" unicode="\" horiz-adv-x="301" 
d="M118.5 764q7.5 21 26.5 30t58 9q27 0 36 -3l-46 -919q-3 -46 -22 -63.5t-65 -17.5q-14 0 -28 1.5t-15 2.5l46 897q2 42 9.5 63z" />
    <glyph glyph-name="bracketright" unicode="]" horiz-adv-x="375" 
d="M220 733h-47q-43 0 -61.5 12t-18.5 41q0 10 1 14h273l-188 -1000h-276q7 37 29 51.5t65 14.5h61z" />
    <glyph glyph-name="asciicircum" unicode="^" horiz-adv-x="478" 
d="M393.5 448.5q32.5 -94.5 84.5 -128.5q-10 -13 -41.5 -23t-60.5 -10q-39 0 -64 24.5t-41 80t-27 153.5q-46 -131 -92 -195t-102 -64q-25 0 -40.5 10.5t-19.5 29.5q59 25 116.5 115t99.5 219h153q2 -117 34.5 -211.5z" />
    <glyph glyph-name="underscore" unicode="_" horiz-adv-x="498" 
d="M459 -71q0 -29 -20 -48t-57 -19h-419q-4 13 -4 26q0 31 19.5 50t50.5 19h425q5 -15 5 -28z" />
    <glyph glyph-name="grave" unicode="`" horiz-adv-x="255" 
d="M189 614q-57 13 -89 34.5t-32 63.5q0 21 8 37.5t26 23.5l223 -141l-19 -45z" />
    <glyph glyph-name="a" unicode="a" horiz-adv-x="564" 
d="M469 127q-5 -30 -5 -42q0 -19 9.5 -31t28.5 -13q-8 -30 -37 -45.5t-63 -15.5q-31 0 -54 14.5t-30 42.5q-23 -28 -61.5 -42.5t-83.5 -14.5q-81 0 -117 49t-36 143q0 96 33.5 177.5t100.5 131t161 49.5q54 0 101 -20l129 16zM343 464q-19 6 -36 6q-47 0 -74 -47.5
t-44 -146.5q-18 -88 -18 -150q0 -39 12 -61.5t43 -22.5q43 0 68 42.5t35 100.5l47 261q-14 12 -33 18z" />
    <glyph glyph-name="b" unicode="b" horiz-adv-x="544" 
d="M269 601q-7 -36 -17.5 -75.5t-21.5 -66.5q27 34 67 52.5t87 18.5q76 0 108.5 -47.5t32.5 -137.5q0 -98 -34 -181t-101.5 -133.5t-163.5 -50.5q-56 0 -119.5 15t-98.5 44l127 661l156 16zM199.5 46q19.5 -6 36.5 -6q46 0 73.5 46.5t45.5 145.5q18 90 18 149q0 36 -11.5 56
t-39.5 20q-47 0 -74 -48.5t-40 -114.5l-43 -230q15 -12 34.5 -18z" />
    <glyph glyph-name="c" unicode="c" horiz-adv-x="460" 
d="M437 504q41 -26 41 -80q0 -46 -29 -70t-72 -24q-30 0 -43 11q7 18 11.5 42t4.5 42q0 46 -39 46q-41 0 -72.5 -48.5t-48 -115t-16.5 -117.5q0 -50 19.5 -77.5t64.5 -27.5q42 0 75.5 24t48.5 64q19 -8 27.5 -21.5t8.5 -34.5q0 -40 -28 -71t-75 -48.5t-103 -17.5
q-93 0 -141.5 52.5t-48.5 157.5q0 92 36.5 170t105.5 124t163 46q69 0 110 -26z" />
    <glyph glyph-name="d" unicode="d" horiz-adv-x="564" 
d="M469 127q-5 -30 -5 -42q0 -19 9.5 -31t28.5 -13q-8 -30 -37 -45.5t-63 -15.5q-31 0 -54 14.5t-30 42.5q-23 -28 -61.5 -42.5t-83.5 -14.5q-81 0 -117 49t-36 143q0 95 33.5 177t100.5 131.5t161 49.5q40 0 77 -12l34 182l155 16zM343 464q-19 6 -36 6q-47 0 -74 -47.5
t-44 -146.5q-18 -88 -18 -150q0 -39 12 -61.5t43 -22.5q43 0 68 42.5t35 100.5l47 261q-14 12 -33 18z" />
    <glyph glyph-name="e" unicode="e" horiz-adv-x="471" 
d="M484 412q0 -83 -73.5 -129t-199.5 -46h-35q-3 -27 -3 -51q0 -50 20 -75.5t68 -25.5q42 0 78 18.5t55 52.5q24 -11 24 -44q0 -36 -27.5 -66.5t-74.5 -48t-103 -17.5q-93 0 -142 51.5t-49 157.5q0 89 34.5 167t104 126t170.5 48q153 0 153 -118zM232 423q-33 -53 -49 -140
q72 0 121 37t49 100q0 56 -44 56t-77 -53z" />
    <glyph glyph-name="f" unicode="f" horiz-adv-x="314" 
d="M208 684.5q58 35.5 147 35.5q66 0 112 -19t46 -63q0 -33 -25.5 -51t-62.5 -18q-31 0 -50 11q14 26 14 56q0 40 -36 40q-31 0 -48 -26t-25 -72l-12 -68h91l-6 -45h-94l-85 -465l-161 -16l94 481h-71l9 45h70l14 57q21 82 79 117.5z" />
    <glyph glyph-name="g" unicode="g" horiz-adv-x="541" 
d="M470 139q-24 -124 -56.5 -196.5t-87 -108t-143.5 -35.5q-80 0 -137 29.5t-57 90.5q0 40 27 62t64 22q25 0 46.5 -9.5t34.5 -27.5q-9 -10 -15 -23.5t-6 -26.5q0 -23 13.5 -38t36.5 -15q52 0 81.5 62.5t51.5 192.5q-24 -29 -63.5 -44.5t-83.5 -15.5q-69 0 -106.5 39.5
t-37.5 120.5q0 80 35.5 152t101 116t150.5 44q49 0 96 -19l131 15zM347.5 464.5q-17.5 5.5 -32.5 5.5q-44 0 -73 -45.5t-42.5 -108.5t-13.5 -113q0 -37 12 -56.5t41 -19.5q77 0 104 141l35 180q-13 11 -30.5 16.5z" />
    <glyph glyph-name="h" unicode="h" horiz-adv-x="571" 
d="M285 601q-7 -36 -17.5 -75.5t-21.5 -66.5q28 37 70 54t91 17q131 0 131 -123q0 -35 -8.5 -80t-24.5 -107q-13 -52 -19 -82t-6 -50q0 -21 8.5 -33t29.5 -14q-9 -30 -37.5 -45.5t-64.5 -15.5q-42 0 -66 22.5t-24 66.5q0 27 7 62t24 107q29 118 29 157q0 27 -12.5 42.5
t-37.5 15.5q-45 0 -72 -47.5t-40 -114.5l-57 -291l-156 -16l140 716l156 16z" />
    <glyph glyph-name="i" unicode="i" horiz-adv-x="288" 
d="M287.5 718.5q24.5 -18.5 24.5 -52.5q0 -35 -25.5 -53.5t-66.5 -18.5q-40 0 -65 18t-25 52q0 35 26 54t67 19q40 0 64.5 -18.5zM193 127q-5 -27 -5 -42q0 -19 9.5 -31t28.5 -13q-9 -30 -37 -45.5t-64 -15.5q-42 0 -66.5 22t-24.5 63q0 26 10 83t18 96l53 266l157 16z" />
    <glyph glyph-name="j" unicode="j" horiz-adv-x="283" 
d="M285.5 718.5q24.5 -18.5 24.5 -52.5q0 -35 -25.5 -53.5t-66.5 -18.5q-40 0 -65 18t-25 52q0 35 26 54t67 19q40 0 64.5 -18.5zM183 61q-27 -136 -73.5 -198.5t-119.5 -62.5q-38 0 -63 16.5t-32 49.5q39 1 64.5 25.5t43.5 75t35 139.5l80 404l157 16z" />
    <glyph glyph-name="k" unicode="k" horiz-adv-x="508" 
d="M269 601q-17 -93 -38 -142q28 36 69.5 53.5t87.5 17.5q64 0 97.5 -31.5t33.5 -89.5q0 -66 -42.5 -111.5t-110.5 -66.5l43 -112q26 -66 72 -71q-8 -32 -34.5 -50t-62.5 -18q-48 0 -78.5 31.5t-48 85.5t-34.5 141q59 16 101.5 58t42.5 98q0 29 -13 44t-37 15
q-45 0 -70 -45.5t-39 -116.5l-56 -291l-157 -16l140 716l157 16z" />
    <glyph glyph-name="l" unicode="l" horiz-adv-x="273" 
d="M178 127q-5 -27 -5 -42q0 -19 9.5 -31t28.5 -13q-9 -30 -37 -45.5t-64 -15.5q-42 0 -66.5 22t-24.5 63q0 26 10 83t18 96l89 456l158 16z" />
    <glyph glyph-name="m" unicode="m" horiz-adv-x="859" 
d="M399 530q52 0 83.5 -20.5t43.5 -64.5q27 44 70.5 64.5t97.5 20.5q66 0 101 -31t35 -92q0 -34 -8.5 -74t-26.5 -113q-14 -52 -20.5 -82t-6.5 -49q0 -22 9 -34t29 -14q-9 -30 -37.5 -45.5t-64.5 -15.5q-42 0 -66 22.5t-24 66.5q0 28 7.5 65.5t23.5 104.5q14 59 21.5 95
t7.5 60q0 27 -12.5 43t-37.5 16q-76 0 -107 -162l-56 -291l-157 -16l54 259q1 4 2 8.5t2 11.5t11 55.5t10 76.5q0 27 -12.5 42.5t-38.5 15.5q-46 0 -70.5 -47t-37.5 -115l-57 -291l-156 -16l103 526l128 16l-14 -94q51 98 171 98z" />
    <glyph glyph-name="n" unicode="n" horiz-adv-x="571" 
d="M300.5 506q45.5 24 104.5 24q133 0 133 -122q0 -35 -8.5 -80t-24.5 -109q-13 -53 -19 -82t-6 -49q0 -21 8.5 -33t29.5 -14q-9 -30 -37.5 -45.5t-64.5 -15.5q-42 0 -66 22.5t-24 66.5q0 27 7 62t24 107q29 118 29 157q0 27 -12.5 42.5t-37.5 15.5q-45 0 -72 -47.5
t-40 -114.5l-57 -291l-156 -16l103 526l128 16l-14 -94q27 50 72.5 74z" />
    <glyph glyph-name="o" unicode="o" horiz-adv-x="537" 
d="M471.5 478q44.5 -52 44.5 -149q0 -95 -34.5 -174.5t-103.5 -127t-166 -47.5q-101 0 -145.5 52.5t-44.5 150.5q0 95 34.5 174t103 126t166.5 47q101 0 145.5 -52zM234 421.5q-27 -48.5 -44 -145.5q-17 -87 -17 -151q0 -40 12.5 -62.5t44.5 -22.5q47 0 73.5 48.5
t43.5 146.5q18 92 18 150q0 41 -13 63t-45 22q-46 0 -73 -48.5z" />
    <glyph glyph-name="p" unicode="p" horiz-adv-x="556" 
d="M297.5 507.5q42.5 23.5 94.5 23.5q77 0 110.5 -48.5t33.5 -141.5q0 -97 -33.5 -179t-100 -132t-160.5 -50q-39 0 -77 12l-32 -172l-156 -16l136 706l128 16l-12 -83q26 41 68.5 64.5zM213 47q19 -6 37 -6q47 0 73.5 47t43.5 144q18 90 18 148q0 38 -11.5 57.5t-40.5 19.5
q-43 0 -69.5 -40t-36.5 -95l-47 -257q14 -12 33 -18z" />
    <glyph glyph-name="q" unicode="q" horiz-adv-x="547" 
d="M414 -185l-158 -16l21 110q18 99 37 143q-27 -34 -67 -53t-87 -19q-76 0 -108.5 48t-32.5 138q0 98 33.5 181t101 133t163.5 50q55 0 100 -20l128 16zM345 463.5q-19 6.5 -37 6.5q-46 0 -73.5 -46t-45.5 -146q-18 -90 -18 -148q0 -37 11.5 -56.5t39.5 -19.5q47 0 74 48
t40 114l42 230q-14 11 -33 17.5z" />
    <glyph glyph-name="r" unicode="r" horiz-adv-x="456" 
d="M286.5 504q38.5 26 88.5 26q53 0 81 -29t28 -79q0 -57 -33 -95t-84 -38q-16 0 -30.5 4.5t-21.5 14.5q15 20 25 50t10 54q0 41 -34 41q-36 0 -59.5 -47t-36.5 -120l-48 -286l-161 -16l101 526l129 16l-14 -94q21 46 59.5 72z" />
    <glyph glyph-name="s" unicode="s" horiz-adv-x="432" 
d="M234.5 151.5q-21.5 20.5 -71.5 54.5q-55 36 -81 68t-26 78q0 52 31.5 92.5t86 63t121.5 22.5q65 0 105.5 -22.5t40.5 -73.5q0 -41 -26.5 -64t-69.5 -23q-29 0 -42 11q14 37 14 65q0 27 -13.5 41.5t-37.5 14.5q-32 0 -52.5 -21.5t-20.5 -49.5q0 -29 21.5 -50t72.5 -55
q54 -36 80 -67t26 -79q0 -51 -30.5 -91.5t-84 -63.5t-119.5 -23q-70 0 -121.5 25.5t-51.5 76.5q0 38 29 58.5t69 20.5q33 0 54 -14q-14 -33 -14 -57q0 -27 14 -42.5t41 -15.5q33 0 55 20.5t22 50.5q0 29 -21.5 49.5z" />
    <glyph glyph-name="t" unicode="t" horiz-adv-x="314" 
d="M281 510h78l-9 -45h-78l-66 -338q-5 -27 -5 -42q0 -19 9.5 -31t28.5 -13q-9 -30 -37 -45.5t-64 -15.5q-42 0 -66.5 22t-24.5 64q0 38 16 119t19 96l8 38l28 146h-65l4 30q109 36 206 119h40z" />
    <glyph glyph-name="u" unicode="u" horiz-adv-x="569" 
d="M473 127q-5 -30 -5 -42q0 -19 9.5 -31t29.5 -13q-9 -30 -37.5 -45.5t-62.5 -15.5q-32 0 -54.5 14.5t-29.5 42.5q-47 -57 -149 -57q-70 0 -106 33.5t-36 100.5q0 52 27 181l44 215l155 16l-53 -244q-25 -120 -25 -169q0 -71 51 -71q42 0 67 42t36 101l60 325l156 16z" />
    <glyph glyph-name="v" unicode="v" horiz-adv-x="497" 
d="M60 400q-7 46 -15.5 66.5t-25.5 31.5q33 32 89 32q57 0 80 -30.5t29 -99.5q4 -60 4 -179q0 -85 -1 -146q58 67 99 173t41 193q0 29 -7 57q14 15 35.5 23.5t47.5 8.5q72 0 72 -74q0 -58 -35.5 -139.5t-84.5 -149.5q-31 -42 -73 -88t-86 -79l-143 -16q-7 291 -26 416z" />
    <glyph glyph-name="w" unicode="w" horiz-adv-x="766" 
d="M60 400q-7 46 -15.5 66.5t-25.5 31.5q33 32 90 32q58 0 80.5 -31t27.5 -99q4 -64 4 -165l-1 -160q56 63 92 169.5t36 195.5q0 30 -7 58q30 32 80 32q44 0 58.5 -27.5t18.5 -84.5q5 -75 5 -194l-1 -115q-1 -11 -1 -34q57 63 92.5 169t35.5 196q0 30 -7 58q14 15 35.5 23.5
t47.5 8.5q72 0 72 -74q0 -58 -35 -139t-85 -150q-81 -108 -154 -167l-122 -15q-2 129 -5 198q-27 -54 -68.5 -101.5t-89.5 -81.5l-132 -16q-7 291 -26 416z" />
    <glyph glyph-name="x" unicode="x" horiz-adv-x="472" 
d="M75 442q-16 17 -42 20q7 33 34.5 50.5t64.5 17.5q43 0 68.5 -25t46.5 -75l46 -109q62 44 62 114q0 38 -20 72q33 23 77 23q39 0 59 -20.5t20 -57.5q0 -50 -34 -90t-94 -75l-47 -25l58 -148q23 -61 70 -66q-8 -32 -35 -50t-65 -18q-43 0 -69 25.5t-46 74.5l-46 118
q-32 -23 -50.5 -55t-18.5 -68q0 -37 20 -71q-32 -24 -77 -24q-39 0 -59.5 21t-20.5 58q0 97 141 177l41 21l-56 139q-12 29 -28 46z" />
    <glyph glyph-name="y" unicode="y" horiz-adv-x="475" 
d="M145 26l-64 -2l-2 56q-4 125 -7.5 193t-10.5 127q-5 44 -14 65.5t-27 32.5q35 32 90 32q57 0 79 -30.5t26 -99.5q2 -44 2 -106v-73l-1 -117q61 80 97.5 167.5t36.5 169.5q0 34 -7 57q15 15 36.5 23.5t46.5 8.5q72 0 72 -74q0 -83 -69.5 -195.5t-166.5 -204.5
q-38 -36 -55 -63t-17 -66q0 -23 11 -47.5t27 -41.5q-18 -19 -45 -28.5t-57 -9.5q-38 0 -59 21t-21 59q0 71 99 146z" />
    <glyph glyph-name="z" unicode="z" horiz-adv-x="424" 
d="M222.5 399q-40.5 5 -66.5 5q-30 0 -50.5 -8.5t-33.5 -26.5q-12 14 -19 35t-7 42q0 44 30.5 64t80.5 20q33 0 107 -12q72 -12 102 -12q36 0 55 10q22 -21 22 -52q0 -47 -46 -86l-260 -246q31 -8 73 -13.5t69 -5.5q28 0 53 8t41 25q23 -26 23 -68q0 -49 -32.5 -72.5
t-86.5 -23.5q-35 0 -103 14q-7 1 -38.5 7t-57.5 6q-34 0 -59 -11q-13 9 -21.5 25.5t-8.5 37.5q0 51 49 96l256 230q-31 7 -71.5 12z" />
    <glyph glyph-name="braceleft" unicode="{" horiz-adv-x="372" 
d="M454 793l-9 -52h-27q-40 0 -60.5 -24.5t-29.5 -76.5l-38 -214q-9 -51 -36 -78.5t-76 -33.5q42 -5 59 -21t17 -47q0 -17 -6 -51l-42 -209q-7 -37 -7 -62q0 -64 55 -64h27l-12 -53q-56 -7 -92 -7q-61 0 -90.5 19.5t-29.5 61.5q0 16 7 58l45 228q6 26 6 49q0 29 -17.5 45.5
t-51.5 16.5l12 64q86 0 104 106l40 228q13 67 49 95.5t113 28.5q44 0 90 -7z" />
    <glyph glyph-name="bar" unicode="|" horiz-adv-x="278" 
d="M305 800l-190 -1000h-127l194 1000h123z" />
    <glyph glyph-name="braceright" unicode="}" horiz-adv-x="388" 
d="M34 -116.5q21 24.5 30 76.5l42 235q9 51 35.5 78t76.5 34q-42 4 -58.5 20.5t-16.5 46.5q0 27 6 52l38 193q6 32 6 55q0 33 -13 49.5t-42 16.5h-27l12 53q56 7 91 7q58 0 88.5 -19.5t30.5 -65.5q0 -16 -4.5 -43t-16.5 -89l-25 -129q-6 -34 -6 -49q2 -62 70 -62l-13 -64
q-84 0 -103 -107l-45 -248q-13 -67 -49 -95.5t-113 -28.5q-45 0 -91 7l10 52h26q40 0 61 24.5z" />
    <glyph glyph-name="asciitilde" unicode="~" 
d="M460 235q0 -29 -28 -47.5t-76 -18.5q-40 0 -114 18q-62 15 -91 15q-23 0 -43 -7t-30 -19q-20 28 -20 50q0 30 28 48t75 18q40 0 114 -18q62 -15 91 -15q24 0 44 7.5t29 19.5q21 -27 21 -51z" />
    <glyph glyph-name="uni00A0" unicode="&#xa0;" horiz-adv-x="169" 
 />
    <glyph glyph-name="exclamdown" unicode="&#xa1;" horiz-adv-x="275" 
d="M251 512q24 -18 24 -51t-25.5 -51.5t-64.5 -18.5t-63.5 18t-24.5 50q0 34 26 52.5t65 18.5t63 -18zM67 -171q-40 0 -59.5 21.5t-19.5 61.5q0 34 11.5 74.5t35.5 108.5q25 73 38.5 121t14.5 91q19 22 57 22q32 0 49 -16.5t17 -44.5q0 -9 -4 -27l-77 -400q-29 -12 -63 -12z
" />
    <glyph glyph-name="cent" unicode="&#xa2;" 
d="M499.5 558q29.5 -28 29.5 -71q0 -45 -29.5 -69t-72.5 -24q-31 0 -44 11q7 18 11.5 42t4.5 43q0 45 -38 45q-41 0 -72.5 -48.5t-48 -115t-16.5 -117.5q0 -50 19.5 -77.5t64.5 -27.5q42 0 75.5 24t48.5 64q19 -8 27.5 -21.5t8.5 -34.5q0 -50 -45 -86.5t-107 -46.5l-5 -27
q-8 -41 -21.5 -55.5t-44.5 -14.5q-23 0 -40 5l18 91q-79 13 -115 63t-36 141q0 86 30.5 160t89 121.5t138.5 58.5l5 27q8 40 21.5 54.5t42.5 14.5q15 0 39 -4l-18 -91q50 -6 79.5 -34z" />
    <glyph glyph-name="sterling" unicode="&#xa3;" 
d="M302 500l-17 -99h151q5 -11 5 -26q0 -20 -18 -31.5t-52 -11.5h-98l-11 -65q-8 -55 -36.5 -87t-73.5 -48q54 -7 113.5 -12t99.5 -5q36 0 61 5.5t45 18.5q16 -19 16 -51q0 -47 -36 -73.5t-93 -26.5q-45 0 -129 13q-90 12 -128 12q-20 0 -39.5 -3t-31.5 -8q-12 9 -19 24.5
t-7 31.5q0 18 10 32.5t26 29.5q3 3 17 15t25.5 30t15.5 39l24 128h-91q-4 11 -4 24q0 21 17 33t45 12h46l16 92q13 81 76.5 124t157.5 43q76 0 127 -27.5t51 -86.5q0 -46 -31.5 -70.5t-74.5 -24.5q-29 0 -53 12q17 38 17 77q0 27 -10.5 44t-34.5 17q-59 0 -74 -101z" />
    <glyph glyph-name="currency" unicode="&#xa4;" 
d="M442 251l91 -79l-58 -68l-90 88q-49 -29 -115 -29q-49 0 -85 14l-82 -80l-62 64l83 74q-14 29 -14 75q0 71 34 119l-86 78l53 72l94 -94q44 23 99 23q48 0 80 -13l87 85l63 -63l-86 -76q19 -34 19 -85q0 -60 -25 -105zM346 270.5q22 26.5 22 69.5q0 41 -20 63.5t-54 22.5
q-39 0 -62 -28.5t-23 -73.5q0 -40 18.5 -60t53.5 -20q43 0 65 26.5z" />
    <glyph glyph-name="yen" unicode="&#xa5;" 
d="M128 0l27 137h-107q-5 10 -5 24q0 21 17 33t46 12h63l13 64h-108q-5 11 -5 25q0 21 17 32.5t46 11.5h52q-26 129 -56.5 194t-70.5 92q15 27 42 41t63 14q47 0 74.5 -27t44.5 -92.5t28 -187.5q62 163 117 235t120 72q58 0 70 -48q-66 -41 -129 -117t-111 -176h99
q5 -11 5 -25q0 -21 -17.5 -32.5t-50.5 -11.5h-63l-13 -64h113q5 -11 5 -26q0 -21 -17.5 -32t-50.5 -11h-63l-26 -137h-169z" />
    <glyph glyph-name="brokenbar" unicode="&#xa6;" horiz-adv-x="278" 
d="M102 388l53 272h125l-52 -272h-126zM28 0l52 272h125l-52 -272h-125z" />
    <glyph glyph-name="section" unicode="&#xa7;" horiz-adv-x="487" 
d="M448.5 657q41.5 -23 41.5 -75q0 -40 -24.5 -63.5t-64.5 -23.5q-27 0 -42 11q15 35 15 65q0 27 -12.5 42.5t-37.5 15.5q-30 0 -50 -22t-20 -51t20.5 -52t62.5 -54q52 -37 80 -70t28 -82q0 -56 -41 -105.5t-106 -81.5q31 -28 44.5 -51t13.5 -58q0 -55 -30 -96.5
t-80.5 -63.5t-110.5 -22q-61 0 -102.5 23.5t-41.5 75.5q0 39 25 63t65 24q26 0 41 -12q-14 -35 -14 -64q0 -28 13 -43t38 -15q30 0 49.5 21t19.5 50q0 31 -20 53t-63 54q-35 26 -56.5 45.5t-37 47.5t-15.5 64q0 59 40 105t106 78q-29 27 -42.5 52.5t-13.5 60.5q0 54 30 94
t80.5 61.5t110.5 21.5t101.5 -23zM176.5 316q-18.5 -24 -18.5 -55q0 -30 20 -51.5t79 -64.5q29 15 47.5 39t18.5 55q0 21 -9.5 36.5t-26.5 30t-63 49.5q-29 -15 -47.5 -39z" />
    <glyph glyph-name="dieresis" unicode="&#xa8;" horiz-adv-x="382" 
d="M73 594zM453.5 718.5q24.5 -18.5 24.5 -52.5q0 -35 -25.5 -53.5t-66.5 -18.5q-40 0 -65 18t-25 52q0 35 26 54t67 19q40 0 64.5 -18.5zM230.5 718.5q24.5 -18.5 24.5 -52.5q0 -35 -25.5 -53.5t-66.5 -18.5q-40 0 -65 18t-25 52q0 35 26 54t67 19q40 0 64.5 -18.5z" />
    <glyph glyph-name="copyright" unicode="&#xa9;" horiz-adv-x="780" 
d="M85.5 405q56.5 97 156.5 153t225 56q134 0 209 -68t75 -201q0 -115 -55.5 -211.5t-155.5 -153t-228 -56.5q-137 0 -210 67.5t-73 198.5q0 118 56.5 215zM182 44.5q54 -55.5 155 -55.5q96 0 168 48t110 125.5t38 164.5q0 106 -56.5 163.5t-155.5 57.5q-91 0 -162 -46.5
t-111 -125t-40 -170.5q0 -106 54 -161.5zM390.5 395.5q-20.5 -31.5 -31.5 -78t-11 -88.5q0 -39 12 -59t41 -20q28 0 49 17t32 45q12 -5 18.5 -17t6.5 -27q0 -40 -39.5 -66.5t-100.5 -26.5q-67 0 -101 37t-34 113q0 68 26 123.5t75.5 88t116.5 32.5q50 0 77.5 -18.5
t27.5 -55.5q0 -33 -21 -51t-54 -18q-20 0 -28 8q5 12 8.5 30t3.5 31q0 32 -26 32q-27 0 -47.5 -31.5z" />
    <glyph glyph-name="ordfeminine" unicode="&#xaa;" horiz-adv-x="453" 
d="M392 386q-4 -16 -4 -28q0 -15 7 -24.5t19 -9.5q-5 -19 -26.5 -31.5t-46.5 -12.5q-23 0 -40.5 12t-21.5 30q-14 -19 -40 -30.5t-57 -11.5q-57 0 -87.5 39.5t-30.5 110.5q0 65 25 120.5t72.5 89.5t111.5 34q36 0 72 -14l101 11zM195 515q-16 -66 -16 -124q0 -61 37 -61
q26 0 43.5 27t24.5 69l35 185q-20 15 -43 15q-53 0 -81 -111zM381 211q0 -23 -14.5 -37t-41.5 -14h-276q-3 12 -3 22q0 23 14.5 37.5t35.5 14.5h283q2 -16 2 -23z" />
    <glyph glyph-name="guillemotleft" unicode="&#xab;" horiz-adv-x="508" 
d="M187 510h109l-122 -193l49 -191h-106l-91 191zM401 510h108l-121 -193l48 -191h-106l-91 191z" />
    <glyph glyph-name="logicalnot" unicode="&#xac;" 
d="M430.5 -1.5q-13.5 -1.5 -26.5 -1.5q-30 0 -43 11.5t-13 37.5q0 15 5 42l20 106h-324q-4 12 -4 25q0 31 19.5 50t49.5 19h387l-54 -286q-3 -2 -16.5 -3.5z" />
    <glyph glyph-name="uni00AD" unicode="&#xad;" horiz-adv-x="336" 
d="M288 294.5q14 3.5 20 10.5q9 -8 14 -24t5 -30q0 -27 -16 -43.5t-43 -16.5h-187q-16 0 -30 -4t-21 -12q-10 9 -15 25t-5 32q0 26 15 42.5t41 16.5h193q15 0 29 3.5z" />
    <glyph glyph-name="registered" unicode="&#xae;" horiz-adv-x="770" 
d="M676 611q75 -68 75 -201q0 -115 -55.5 -211.5t-155.5 -153t-228 -56.5q-137 0 -210 67.5t-73 198.5q0 118 56.5 215t156.5 153t225 56q134 0 209 -68zM278.5 566.5q-71.5 -46.5 -111.5 -125t-40 -170.5q0 -106 54.5 -161.5t155.5 -55.5q96 0 168.5 48t110.5 125.5
t38 164.5q0 106 -56.5 163.5t-156.5 57.5q-91 0 -162.5 -46.5zM518 510q37 -21 37 -73q0 -46 -26.5 -80t-71.5 -42q15 -58 32 -82.5t47 -32.5q-5 -26 -23.5 -41.5t-46.5 -15.5t-46.5 18t-30.5 60.5t-22 119.5h6q41 0 62.5 24t21.5 64q0 29 -13 43.5t-42 14.5q-11 0 -28 -3
l-61 -332h-100l71 374q70 5 127 5q70 0 107 -21z" />
    <glyph glyph-name="macron" unicode="&#xaf;" horiz-adv-x="296" 
d="M378 679q0 -27 -18.5 -44t-53.5 -17h-222q-3 9 -3 26q1 28 18.5 44.5t46.5 16.5h229q3 -10 3 -26z" />
    <glyph glyph-name="degree" unicode="&#xb0;" horiz-adv-x="346" 
d="M75 403q-36 33 -36 95q0 54 28 96.5t74.5 66t101.5 23.5q64 0 99 -32.5t35 -94.5q0 -55 -27 -97.5t-73 -66t-101 -23.5q-65 0 -101 33zM255 464.5q28 37.5 28 90.5q0 68 -52 68q-42 0 -68 -39t-26 -92q0 -65 49 -65q41 0 69 37.5z" />
    <glyph glyph-name="plusminus" unicode="&#xb1;" 
d="M279.5 449q20.5 17 50.5 17q19 0 37 -6l-23 -124h125q5 -18 5 -29q0 -29 -18.5 -45t-54.5 -16h-76l-13 -71q-12 -57 -71 -57q-20 0 -40 7l22 121h-127q-4 12 -4 22q0 29 19 48.5t48 19.5h81l14 68q5 28 25.5 45zM420 63q0 -27 -18 -41.5t-54 -14.5h-280q-4 13 -4 26
q0 28 16.5 43.5t47.5 15.5h288q4 -13 4 -29z" />
    <glyph glyph-name="uni00B2" unicode="&#xb2;" horiz-adv-x="346" 
d="M317 656.5q32 -24.5 32 -74.5q0 -34 -15 -61.5t-48 -53.5q-67 -53 -111 -86q39 -10 86 -10q43 0 62 15q11 -18 11 -39q0 -61 -79 -61q-36 0 -77 9q-6 1 -26 4t-38 3q-23 0 -36 -8q-7 6 -11.5 17.5t-4.5 21.5q0 23 26.5 51t76.5 69q25 20 46 40q18 16 28 35t10 37
q0 22 -13 32.5t-35 10.5q-26 0 -47 -13.5t-34 -38.5q-13 2 -20 12.5t-7 25.5q0 41 42.5 64t97.5 23q52 0 84 -24.5z" />
    <glyph glyph-name="uni00B3" unicode="&#xb3;" horiz-adv-x="335" 
d="M211.5 528.5q24.5 15.5 24.5 42.5q0 37 -43 37q-22 0 -43.5 -10.5t-38.5 -29.5q-19 6 -19 30q0 39 43.5 61t94.5 22q47 0 76 -20t29 -60q0 -37 -26 -64t-67 -41q81 -13 81 -87q0 -56 -45.5 -92t-115.5 -36q-50 0 -80.5 19.5t-30.5 53.5q0 26 20 39q31 -43 84 -43
q31 0 47.5 14.5t16.5 42.5q0 30 -20.5 42.5t-59.5 12.5l7 45q41 6 65.5 21.5z" />
    <glyph glyph-name="acute" unicode="&#xb4;" horiz-adv-x="255" 
d="M297 773q17 -7 25.5 -24t8.5 -37q0 -42 -32.5 -63.5t-89.5 -34.5l-117 -27l-19 45z" />
    <glyph glyph-name="uni00B5" unicode="&#xb5;" horiz-adv-x="582" 
d="M0 0zM562 526l-76 -399q-5 -30 -5 -42q0 -19 9.5 -31t29.5 -13q-9 -30 -37.5 -45.5t-62.5 -15.5q-32 0 -54.5 14.5t-29.5 42.5q-37 -45 -121 -54q-7 -1 -19 -1q-14 0 -28 3l-29 -165l-158 -16l92 475l5 26q19 90 19 119q0 42 -39 46q9 29 38 44.5t64 15.5q42 0 66.5 -22
t24.5 -66q0 -40 -27 -154q-15 -63 -22.5 -103t-7.5 -69q0 -67 50 -67q41 0 67 42t39 113l56 306z" />
    <glyph glyph-name="paragraph" unicode="&#xb6;" horiz-adv-x="768" 
d="M310.5 -161.5q-44.5 -38.5 -121.5 -38.5q-58 0 -89.5 20t-31.5 55q0 15 4 19q15 -8 39.5 -13t46.5 -5q50 0 77.5 28t37.5 81l56 283q-18 -7 -45.5 -11t-51.5 -4q-69 0 -106 38.5t-37 114.5q0 80 39.5 141t111 94.5t162.5 33.5q55 0 101 -15l-131 -704
q-17 -79 -61.5 -117.5zM799 664q-5 -44 -24.5 -62.5t-60.5 -18.5q-28 0 -43 5l-108 -588l-110 -20l134 680h113q70 0 99 4z" />
    <glyph glyph-name="periodcentered" unicode="&#xb7;" horiz-adv-x="224" 
d="M178 300q24 -18 24 -51t-25.5 -51.5t-64.5 -18.5t-63.5 18t-24.5 50q0 34 26 52.5t65 18.5t63 -18z" />
    <glyph glyph-name="cedilla" unicode="&#xb8;" horiz-adv-x="448" 
d="M340 -80q29 -19 29 -59q0 -51 -45.5 -84t-113.5 -33q-41 0 -65.5 13.5t-24.5 37.5q0 26 17 40q19 -30 67 -30q27 0 45 10.5t18 34.5q0 39 -69 39q-13 0 -39 -2l37 124h54l-22 -73l37 1q46 0 75 -19z" />
    <glyph glyph-name="uni00B9" unicode="&#xb9;" horiz-adv-x="325" 
d="M224 356h24q31 0 40 8q8 -11 8 -34q0 -25 -14.5 -34.5t-44.5 -9.5l-62 1l-96 2q-23 0 -38 -4q-4 10 -4 27q0 45 47 45h35l45 218q-10 -7 -25 -11.5t-28 -4.5q-43 0 -48 58q86 14 190 61l29 -14z" />
    <glyph glyph-name="ordmasculine" unicode="&#xba;" horiz-adv-x="452" 
d="M409 402.5q-26 -55.5 -76.5 -89t-120.5 -33.5q-71 0 -105 36t-34 110q0 64 24 120.5t73.5 92t121.5 35.5q69 0 106 -36t37 -114q0 -66 -26 -121.5zM274.5 368q21.5 38 33 92.5t11.5 100.5q0 31 -7.5 47t-26.5 16q-30 0 -51.5 -38.5t-32.5 -92t-11 -96.5q0 -34 8.5 -50.5
t26.5 -16.5q28 0 49.5 38zM40 170.5q-1 6.5 -1 12.5q0 22 14.5 36.5t35.5 14.5h273q3 -10 3 -22q0 -23 -14.5 -37.5t-41.5 -14.5h-267q-1 4 -2 10.5z" />
    <glyph glyph-name="guillemotright" unicode="&#xbb;" horiz-adv-x="509" 
d="M262 318l-161 -192h-108l120 192l-50 192h108zM475 318l-161 -192h-107l120 192l-50 192h107z" />
    <glyph glyph-name="onequarter" unicode="&#xbc;" horiz-adv-x="816" 
d="M551 720q25 0 35.5 -6t10.5 -22q0 -15 -9 -36l-324 -745q-6 -2 -29 -2q-45 0 -45 27q0 9 6 24l329 758q12 2 26 2zM223 353h24q28 0 38 7q9 -12 9 -34q0 -24 -14.5 -33.5t-43.5 -9.5l-60 1l-88 2q-29 0 -40 -5q-4 12 -4 28q0 21 11 33t34 12h32l45 221q-10 -8 -24 -12
t-26 -4q-44 0 -50 58q85 12 193 62l23 -16zM751 380q-26 -110 -49 -238q36 4 51 14q10 -17 10 -35q0 -24 -18 -37t-57 -17l-10 -67q-15 -12 -41 -12q-49 0 -49 42l1 16l4 23q-78 4 -139 19l-3 55l215 245zM607 141q24 112 39 157l-128 -152q45 -5 89 -5z" />
    <glyph glyph-name="onehalf" unicode="&#xbd;" horiz-adv-x="792" 
d="M551 720q25 0 35.5 -6t10.5 -22q0 -15 -9 -36l-324 -745q-6 -2 -29 -2q-45 0 -45 27q0 9 6 24l329 758q12 2 26 2zM223 353h24q28 0 38 7q9 -12 9 -34q0 -24 -14.5 -33.5t-43.5 -9.5l-60 1l-88 2q-29 0 -40 -5q-4 12 -4 28q0 21 11 33t34 12h32l45 221q-10 -8 -24 -12
t-26 -4q-44 0 -50 58q85 12 193 62l23 -16zM656 271q0 22 -13 32.5t-34 10.5q-26 0 -47.5 -14t-33.5 -38q-13 2 -20.5 12t-7.5 26q0 40 43 63t97 23q53 0 85 -24.5t32 -74.5q0 -37 -18.5 -66t-55.5 -59q-12 -10 -48 -36l-53 -40q41 -9 87 -9q43 0 61 14q11 -16 11 -39
q0 -61 -80 -61q-22 0 -47.5 4t-31.5 5q-44 8 -61 8q-22 0 -35 -9q-8 7 -12.5 18.5t-4.5 23.5q0 15 9 28t27 28l92 78q59 51 59 96z" />
    <glyph glyph-name="threequarters" unicode="&#xbe;" horiz-adv-x="827" 
d="M562 720q25 0 35.5 -6t10.5 -22q0 -15 -9 -36l-324 -745q-6 -2 -29 -2q-45 0 -45 27q0 9 6 24l329 758q12 2 26 2zM199.5 526.5q24.5 16.5 24.5 42.5q0 18 -11.5 27.5t-32.5 9.5q-22 0 -43.5 -10.5t-37.5 -30.5q-20 7 -20 31q0 39 44 61t95 22q47 0 76.5 -20t29.5 -60
q0 -37 -26.5 -64.5t-67.5 -41.5q39 -6 60.5 -28t21.5 -59q0 -56 -46 -92.5t-116 -36.5q-50 0 -81 19.5t-31 53.5q0 26 20 40q30 -44 84 -44q31 0 47.5 14.5t16.5 42.5q0 30 -20.5 43t-59.5 13l8 45q41 6 65.5 22.5zM762 380q-26 -110 -49 -238q36 4 51 14q10 -17 10 -35
q0 -24 -18 -37t-57 -17l-10 -67q-15 -12 -41 -12q-49 0 -49 42l1 16l4 23q-78 4 -139 19l-3 55l215 245zM618 141q24 112 39 157l-128 -152q45 -5 89 -5z" />
    <glyph glyph-name="questiondown" unicode="&#xbf;" horiz-adv-x="453" 
d="M400 512q24 -18 24 -51t-25.5 -51.5t-64.5 -18.5t-63.5 18t-24.5 50q0 34 26 52.5t65 18.5t63 -18zM-10 37q26 38 63 67t97 68q52 34 80.5 55.5t48.5 48t20 55.5q28 0 45 -22t17 -58q0 -34 -17 -61t-41 -47t-66 -50q-40 -28 -63.5 -47.5t-39.5 -45t-16 -56.5
q0 -54 58 -54q40 0 65 25t25 66q0 26 -9 45q23 6 56 6q45 0 71.5 -17.5t26.5 -56.5q0 -67 -76.5 -97.5t-169.5 -30.5t-147 30t-54 94q0 45 26 83z" />
    <glyph glyph-name="Agrave" unicode="&#xc0;" horiz-adv-x="562" 
d="M0 0zM487 148q8 -88 46 -113q-10 -26 -34.5 -40.5t-57.5 -14.5q-46 0 -69.5 30t-33.5 83q-6 35 -9 71h-180q-30 -72 -65 -164h-128l307 660h185zM217 333q-9 -22 -18.5 -45.5t-20.5 -48.5h146l-17 310q-39 -91 -90 -216zM449 712l-117 5q-61 3 -99.5 22t-38.5 65
q0 17 6 29t19 21l240 -96z" />
    <glyph glyph-name="Aacute" unicode="&#xc1;" horiz-adv-x="562" 
d="M0 0zM487 148q8 -88 46 -113q-10 -26 -34.5 -40.5t-57.5 -14.5q-46 0 -69.5 30t-33.5 83q-6 35 -9 71h-180q-30 -72 -65 -164h-128l307 660h185zM217 333q-9 -22 -18.5 -45.5t-20.5 -48.5h146l-17 310q-39 -91 -90 -216zM277 758l239 95q25 -16 25 -49q0 -83 -137 -87
l-117 -5z" />
    <glyph glyph-name="Acircumflex" unicode="&#xc2;" horiz-adv-x="562" 
d="M0 0zM487 148q8 -88 46 -113q-10 -26 -34.5 -40.5t-57.5 -14.5q-46 0 -69.5 30t-33.5 83q-6 35 -9 71h-180q-30 -72 -65 -164h-128l307 660h185zM217 333q-9 -22 -18.5 -45.5t-20.5 -48.5h146l-17 310q-39 -91 -90 -216zM515 728l-45 -47l-111 62l-139 -62l-29 48
l165 116h26z" />
    <glyph glyph-name="Atilde" unicode="&#xc3;" horiz-adv-x="562" 
d="M0 0zM487 148q8 -88 46 -113q-10 -26 -34.5 -40.5t-57.5 -14.5q-46 0 -69.5 30t-33.5 83q-6 35 -9 71h-180q-30 -72 -65 -164h-128l307 660h185zM217 333q-9 -22 -18.5 -45.5t-20.5 -48.5h146l-17 310q-39 -91 -90 -216zM544 791q0 -32 -23 -49.5t-64 -17.5q-30 0 -97 9
q-68 8 -88 8q-19 0 -35.5 -4.5t-25.5 -11.5q-19 26 -19 51q0 29 23.5 45t66.5 16q34 0 99 -9q70 -8 90 -8q41 0 55 17q18 -22 18 -46z" />
    <glyph glyph-name="Adieresis" unicode="&#xc4;" horiz-adv-x="562" 
d="M0 0zM487 148q8 -88 46 -113q-10 -26 -34.5 -40.5t-57.5 -14.5q-46 0 -69.5 30t-33.5 83q-6 35 -9 71h-180q-30 -72 -65 -164h-128l307 660h185zM217 333q-9 -22 -18.5 -45.5t-20.5 -48.5h146l-17 310q-39 -91 -90 -216zM320.5 830q23.5 -18 23.5 -51q0 -34 -25 -52
t-65 -18q-39 0 -63 17.5t-24 50.5q0 34 25.5 52.5t65.5 18.5q39 0 62.5 -18zM542.5 830q23.5 -18 23.5 -51q0 -34 -25 -52t-65 -18q-39 0 -63 17.5t-24 50.5q0 34 25.5 52.5t65.5 18.5q39 0 62.5 -18z" />
    <glyph glyph-name="Aring" unicode="&#xc5;" horiz-adv-x="562" 
d="M0 0zM487 148q8 -88 46 -113q-10 -26 -34.5 -40.5t-57.5 -14.5q-46 0 -69.5 30t-33.5 83q-6 35 -9 71h-180q-30 -72 -65 -164h-128l307 660h185zM217 333q-9 -22 -18.5 -45.5t-20.5 -48.5h146l-17 310q-39 -91 -90 -216zM442 716.5q-37 -26.5 -86 -26.5q-42 0 -66 18
t-24 51q0 43 37.5 69.5t86.5 26.5q41 0 65 -18t24 -51q0 -43 -37 -69.5zM380 818q-22 0 -36.5 -17t-14.5 -43q0 -34 34 -34q22 0 37 17t15 42q0 35 -35 35z" />
    <glyph glyph-name="AE" unicode="&#xc6;" horiz-adv-x="714" 
d="M107 80.5q-30 -60.5 -39 -80.5h-136l373 660h434q0 -54 -31.5 -82t-83.5 -28q-28 0 -63 7.5t-63 19.5l-22 -195h187q0 -48 -26.5 -72.5t-73.5 -24.5q-24 0 -50 5.5t-46 15.5q-12 -96 -12 -125q0 -49 23.5 -67.5t73.5 -18.5q53 0 93 15q8 -17 8 -39q0 -50 -46 -70.5
t-109 -20.5q-88 0 -139 39.5t-51 117.5q0 20 2 40h-155q-18 -36 -48 -96.5zM360 566q-97 -173 -167 -312h127z" />
    <glyph glyph-name="Ccedilla" unicode="&#xc7;" horiz-adv-x="558" 
d="M420 453q11 35 11 76q0 34 -14.5 57t-47.5 23q-54 0 -93.5 -60.5t-60 -144.5t-20.5 -152q0 -71 28 -109t91 -38q51 0 91 25.5t69 69.5q29 -18 29 -60q0 -40 -27.5 -74.5t-75 -56.5t-107.5 -27l-13 -44l37 1q46 0 75 -19t29 -59q0 -51 -45.5 -84t-113.5 -33
q-41 0 -65.5 13.5t-24.5 37.5q0 26 17 40q19 -30 67 -30q27 0 45 10.5t18 34.5q0 39 -69 39q-13 0 -39 -2l28 93q-106 5 -160.5 70t-54.5 189q0 114 43.5 215t128 163.5t201.5 62.5q79 0 131 -31t52 -95q0 -51 -32.5 -81.5t-79.5 -30.5q-31 0 -48 11z" />
    <glyph glyph-name="Egrave" unicode="&#xc8;" horiz-adv-x="469" 
d="M10 0zM486 578q-29 -28 -84 -28q-53 0 -119 27l-34 -195h179q0 -48 -26 -72.5t-73 -24.5q-28 0 -54 7.5t-41 15.5l-37 -203h105q63 0 89 11q6 -9 10 -23t4 -27q0 -38 -32 -52t-82 -14h-281l125 660h380q0 -54 -29 -82zM425 712l-117 5q-61 3 -99.5 22t-38.5 65q0 17 6 29
t19 21l240 -96z" />
    <glyph glyph-name="Eacute" unicode="&#xc9;" horiz-adv-x="469" 
d="M10 0zM486 578q-29 -28 -84 -28q-53 0 -119 27l-34 -195h179q0 -48 -26 -72.5t-73 -24.5q-28 0 -54 7.5t-41 15.5l-37 -203h105q63 0 89 11q6 -9 10 -23t4 -27q0 -38 -32 -52t-82 -14h-281l125 660h380q0 -54 -29 -82zM253 758l239 95q25 -16 25 -49q0 -83 -137 -87
l-117 -5z" />
    <glyph glyph-name="Ecircumflex" unicode="&#xca;" horiz-adv-x="469" 
d="M10 0zM486 578q-29 -28 -84 -28q-53 0 -119 27l-34 -195h179q0 -48 -26 -72.5t-73 -24.5q-28 0 -54 7.5t-41 15.5l-37 -203h105q63 0 89 11q6 -9 10 -23t4 -27q0 -38 -32 -52t-82 -14h-281l125 660h380q0 -54 -29 -82zM491 728l-45 -47l-111 62l-139 -62l-29 48l165 116
h26z" />
    <glyph glyph-name="Edieresis" unicode="&#xcb;" horiz-adv-x="469" 
d="M10 0zM486 578q-29 -28 -84 -28q-53 0 -119 27l-34 -195h179q0 -48 -26 -72.5t-73 -24.5q-28 0 -54 7.5t-41 15.5l-37 -203h105q63 0 89 11q6 -9 10 -23t4 -27q0 -38 -32 -52t-82 -14h-281l125 660h380q0 -54 -29 -82zM296.5 830q23.5 -18 23.5 -51q0 -34 -25 -52
t-65 -18q-39 0 -63 17.5t-24 50.5q0 34 25.5 52.5t65.5 18.5q39 0 62.5 -18zM518.5 830q23.5 -18 23.5 -51q0 -34 -25 -52t-65 -18q-39 0 -63 17.5t-24 50.5q0 34 25.5 52.5t65.5 18.5q39 0 62.5 -18z" />
    <glyph glyph-name="Igrave" unicode="&#xcc;" horiz-adv-x="313" 
d="M8 0zM304 660l-129 -660h-167l127 660h169zM325 712l-117 5q-61 3 -99.5 22t-38.5 65q0 17 6 29t19 21l240 -96z" />
    <glyph glyph-name="Iacute" unicode="&#xcd;" horiz-adv-x="313" 
d="M8 0zM304 660l-129 -660h-167l127 660h169zM153 758l239 95q25 -16 25 -49q0 -83 -137 -87l-117 -5z" />
    <glyph glyph-name="Icircumflex" unicode="&#xce;" horiz-adv-x="313" 
d="M8 0zM304 660l-129 -660h-167l127 660h169zM391 728l-45 -47l-111 62l-139 -62l-29 48l165 116h26z" />
    <glyph glyph-name="Idieresis" unicode="&#xcf;" horiz-adv-x="313" 
d="M8 0zM304 660l-129 -660h-167l127 660h169zM196.5 830q23.5 -18 23.5 -51q0 -34 -25 -52t-65 -18q-39 0 -63 17.5t-24 50.5q0 34 25.5 52.5t65.5 18.5q39 0 62.5 -18zM418.5 830q23.5 -18 23.5 -51q0 -34 -25 -52t-65 -18q-39 0 -63 17.5t-24 50.5q0 34 25.5 52.5
t65.5 18.5q39 0 62.5 -18z" />
    <glyph glyph-name="Eth" unicode="&#xd0;" horiz-adv-x="637" 
d="M0 0zM320 667q107 0 170 -23.5t92 -77.5t29 -148q0 -126 -47 -222t-141 -149.5t-231 -53.5q-36 0 -87 2t-98 5l57 293h-72q-2 9 -2 26q1 26 17.5 41t44.5 15h28l55 285q101 7 185 7zM242 64q76 0 119 61t66 172q24 114 24 182q0 61 -25 89.5t-83 28.5q-27 0 -57 -5
l-42 -217h120q3 -10 3 -26q0 -25 -17 -40.5t-52 -15.5h-70l-44 -224q30 -5 58 -5z" />
    <glyph glyph-name="Ntilde" unicode="&#xd1;" horiz-adv-x="668" 
d="M14 0zM121 0h-107l121 660h179l150 -485l81 485h107l-121 -660h-179l-150 486zM595 791q0 -32 -23 -49.5t-64 -17.5q-30 0 -97 9q-68 8 -88 8q-19 0 -35.5 -4.5t-25.5 -11.5q-19 26 -19 51q0 29 23.5 45t66.5 16q34 0 99 -9q70 -8 90 -8q41 0 55 17q18 -22 18 -46z" />
    <glyph glyph-name="Ograve" unicode="&#xd2;" horiz-adv-x="640" 
d="M24 0zM560 616.5q56 -63.5 56 -191.5q0 -112 -41 -214t-123.5 -166.5t-200.5 -64.5q-114 0 -170.5 63.5t-56.5 192.5q0 113 41 214.5t124 165.5t201 64q114 0 170 -63.5zM273.5 546q-35.5 -64 -56.5 -189q-9 -47 -15.5 -101.5t-6.5 -93.5q0 -53 17 -82t58 -29
q62 0 97.5 65.5t55.5 187.5q9 48 15.5 102.5t6.5 93.5q0 52 -16.5 81t-58.5 29q-61 0 -96.5 -64zM487 712l-117 5q-61 3 -99.5 22t-38.5 65q0 17 6 29t19 21l240 -96z" />
    <glyph glyph-name="Oacute" unicode="&#xd3;" horiz-adv-x="640" 
d="M24 0zM560 616.5q56 -63.5 56 -191.5q0 -112 -41 -214t-123.5 -166.5t-200.5 -64.5q-114 0 -170.5 63.5t-56.5 192.5q0 113 41 214.5t124 165.5t201 64q114 0 170 -63.5zM273.5 546q-35.5 -64 -56.5 -189q-9 -47 -15.5 -101.5t-6.5 -93.5q0 -53 17 -82t58 -29
q62 0 97.5 65.5t55.5 187.5q9 48 15.5 102.5t6.5 93.5q0 52 -16.5 81t-58.5 29q-61 0 -96.5 -64zM315 758l239 95q25 -16 25 -49q0 -83 -137 -87l-117 -5z" />
    <glyph glyph-name="Ocircumflex" unicode="&#xd4;" horiz-adv-x="640" 
d="M24 0zM560 616.5q56 -63.5 56 -191.5q0 -112 -41 -214t-123.5 -166.5t-200.5 -64.5q-114 0 -170.5 63.5t-56.5 192.5q0 113 41 214.5t124 165.5t201 64q114 0 170 -63.5zM273.5 546q-35.5 -64 -56.5 -189q-9 -47 -15.5 -101.5t-6.5 -93.5q0 -53 17 -82t58 -29
q62 0 97.5 65.5t55.5 187.5q9 48 15.5 102.5t6.5 93.5q0 52 -16.5 81t-58.5 29q-61 0 -96.5 -64zM553 728l-45 -47l-111 62l-139 -62l-29 48l165 116h26z" />
    <glyph glyph-name="Otilde" unicode="&#xd5;" horiz-adv-x="640" 
d="M24 0zM560 616.5q56 -63.5 56 -191.5q0 -112 -41 -214t-123.5 -166.5t-200.5 -64.5q-114 0 -170.5 63.5t-56.5 192.5q0 113 41 214.5t124 165.5t201 64q114 0 170 -63.5zM273.5 546q-35.5 -64 -56.5 -189q-9 -47 -15.5 -101.5t-6.5 -93.5q0 -53 17 -82t58 -29
q62 0 97.5 65.5t55.5 187.5q9 48 15.5 102.5t6.5 93.5q0 52 -16.5 81t-58.5 29q-61 0 -96.5 -64zM582 791q0 -32 -23 -49.5t-64 -17.5q-30 0 -97 9q-68 8 -88 8q-19 0 -35.5 -4.5t-25.5 -11.5q-19 26 -19 51q0 29 23.5 45t66.5 16q34 0 99 -9q70 -8 90 -8q41 0 55 17
q18 -22 18 -46z" />
    <glyph glyph-name="Odieresis" unicode="&#xd6;" horiz-adv-x="640" 
d="M24 0zM560 616.5q56 -63.5 56 -191.5q0 -112 -41 -214t-123.5 -166.5t-200.5 -64.5q-114 0 -170.5 63.5t-56.5 192.5q0 113 41 214.5t124 165.5t201 64q114 0 170 -63.5zM273.5 546q-35.5 -64 -56.5 -189q-9 -47 -15.5 -101.5t-6.5 -93.5q0 -53 17 -82t58 -29
q62 0 97.5 65.5t55.5 187.5q9 48 15.5 102.5t6.5 93.5q0 52 -16.5 81t-58.5 29q-61 0 -96.5 -64zM358.5 830q23.5 -18 23.5 -51q0 -34 -25 -52t-65 -18q-39 0 -63 17.5t-24 50.5q0 34 25.5 52.5t65.5 18.5q39 0 62.5 -18zM580.5 830q23.5 -18 23.5 -51q0 -34 -25 -52
t-65 -18q-39 0 -63 17.5t-24 50.5q0 34 25.5 52.5t65.5 18.5q39 0 62.5 -18z" />
    <glyph glyph-name="multiply" unicode="&#xd7;" 
d="M427 111q10 -15 10 -31q0 -29 -21 -48t-52 -20l-105 146l-120 -121q-26 -26 -58 -26q-17 0 -31 10t-21 27l178 182l-79 110q-13 18 -13 41q0 26 17 44.5t48 24.5l108 -149l117 119q27 28 61 28q31 0 44 -43l-171 -174z" />
    <glyph glyph-name="Oslash" unicode="&#xd8;" horiz-adv-x="649" 
d="M625 609l-31 -34q31 -58 31 -150q0 -112 -41 -214t-123.5 -166.5t-201.5 -64.5q-97 0 -154 48l-7 -7q-33 -34 -59 -77q-22 0 -35 14t-14 37q0 32 21 54l46 51q-24 54 -24 136q0 113 41 215t123.5 165.5t200.5 63.5q89 0 141 -37l9 10q32 36 51 64q18 0 33.5 -17t15.5 -40
q0 -26 -23 -51zM449 542q-6 33 -22 50.5t-48 17.5q-61 0 -96.5 -64t-56.5 -188q-9 -45 -13 -82zM375.5 114.5q35.5 63.5 49 135.5t22.5 161l-242 -271q5 -89 73 -89q62 0 97.5 63.5z" />
    <glyph glyph-name="Ugrave" unicode="&#xd9;" horiz-adv-x="608" 
d="M34 0zM537 263q-28 -145 -96.5 -214t-196.5 -69q-97 0 -153.5 39.5t-56.5 120.5q0 45 14 115l78 405h169l-78 -417q-13 -63 -13 -100q0 -38 19 -58.5t56 -20.5q60 0 87.5 48t44.5 141l74 407h128zM493 712l-117 5q-61 3 -99.5 22t-38.5 65q0 17 6 29t19 21l240 -96z" />
    <glyph glyph-name="Uacute" unicode="&#xda;" horiz-adv-x="608" 
d="M34 0zM537 263q-28 -145 -96.5 -214t-196.5 -69q-97 0 -153.5 39.5t-56.5 120.5q0 45 14 115l78 405h169l-78 -417q-13 -63 -13 -100q0 -38 19 -58.5t56 -20.5q60 0 87.5 48t44.5 141l74 407h128zM321 758l239 95q25 -16 25 -49q0 -83 -137 -87l-117 -5z" />
    <glyph glyph-name="Ucircumflex" unicode="&#xdb;" horiz-adv-x="608" 
d="M34 0zM537 263q-28 -145 -96.5 -214t-196.5 -69q-97 0 -153.5 39.5t-56.5 120.5q0 45 14 115l78 405h169l-78 -417q-13 -63 -13 -100q0 -38 19 -58.5t56 -20.5q60 0 87.5 48t44.5 141l74 407h128zM559 728l-45 -47l-111 62l-139 -62l-29 48l165 116h26z" />
    <glyph glyph-name="Udieresis" unicode="&#xdc;" horiz-adv-x="608" 
d="M34 0zM537 263q-28 -145 -96.5 -214t-196.5 -69q-97 0 -153.5 39.5t-56.5 120.5q0 45 14 115l78 405h169l-78 -417q-13 -63 -13 -100q0 -38 19 -58.5t56 -20.5q60 0 87.5 48t44.5 141l74 407h128zM364.5 830q23.5 -18 23.5 -51q0 -34 -25 -52t-65 -18q-39 0 -63 17.5
t-24 50.5q0 34 25.5 52.5t65.5 18.5q39 0 62.5 -18zM586.5 830q23.5 -18 23.5 -51q0 -34 -25 -52t-65 -18q-39 0 -63 17.5t-24 50.5q0 34 25.5 52.5t65.5 18.5q39 0 62.5 -18z" />
    <glyph glyph-name="Yacute" unicode="&#xdd;" horiz-adv-x="462" 
d="M9 0zM378 603.5q55 69.5 120 69.5q59 0 71 -48q-73 -39 -144.5 -130t-120.5 -213l-55 -282h-168l61 308q-27 147 -58.5 217t-74.5 93q14 26 41 40.5t64 14.5q45 0 73 -23t43.5 -73t24.5 -137l6 -67q62 161 117 230.5zM238 758l239 95q25 -16 25 -49q0 -83 -137 -87
l-117 -5z" />
    <glyph glyph-name="Thorn" unicode="&#xde;" horiz-adv-x="545" 
d="M279 537q16 1 53 1q119 0 179.5 -37t60.5 -132q0 -66 -27.5 -116.5t-77.5 -78.5t-115 -28q-41 0 -71 12.5t-38 41.5q9 -1 15 -0.5t10 0.5q70 4 108 47.5t38 116.5q0 56 -24.5 81t-76.5 25q-25 0 -48 -5l-90 -465h-167l127 660h168z" />
    <glyph glyph-name="germandbls" unicode="&#xdf;" horiz-adv-x="682" 
d="M363 720q91 0 150.5 -31.5t59.5 -95.5q0 -38 -18.5 -63.5t-52.5 -54.5q-27 -23 -39 -38t-12 -35q0 -26 18.5 -43.5t56.5 -38.5l18 -11q39 -23 63 -42t41 -46t17 -63q0 -51 -34.5 -92t-89.5 -64t-115 -23q-66 0 -117 27.5t-51 79.5q0 38 28.5 60t69.5 22q33 0 54 -14
q-14 -36 -14 -71q0 -54 50 -54q31 0 53.5 19t22.5 50t-22.5 55.5t-69.5 59.5l-17 13q-34 25 -53 41t-32 39t-13 53q0 29 14 51.5t43 54.5q32 35 48.5 62.5t16.5 66.5q0 37 -17 59.5t-52 22.5q-39 0 -64 -32t-38 -102l-99 -493q-21 -109 -64 -166t-115 -57q-33 0 -55.5 12
t-35.5 37q41 8 69 54t42 111l104 502q35 178 251 178z" />
    <glyph glyph-name="agrave" unicode="&#xe0;" horiz-adv-x="564" 
d="M20 0zM469 127q-5 -30 -5 -42q0 -19 9.5 -31t28.5 -13q-8 -30 -37 -45.5t-63 -15.5q-31 0 -54 14.5t-30 42.5q-23 -28 -61.5 -42.5t-83.5 -14.5q-81 0 -117 49t-36 143q0 96 33.5 177.5t100.5 131t161 49.5q54 0 101 -20l129 16zM343 464q-19 6 -36 6q-47 0 -74 -47.5
t-44 -146.5q-18 -88 -18 -150q0 -39 12 -61.5t43 -22.5q43 0 68 42.5t35 100.5l47 261q-14 12 -33 18zM324 614q-57 13 -89 34.5t-32 63.5q0 21 8 37.5t26 23.5l223 -141l-19 -45z" />
    <glyph glyph-name="aacute" unicode="&#xe1;" horiz-adv-x="564" 
d="M20 0zM469 127q-5 -30 -5 -42q0 -19 9.5 -31t28.5 -13q-8 -30 -37 -45.5t-63 -15.5q-31 0 -54 14.5t-30 42.5q-23 -28 -61.5 -42.5t-83.5 -14.5q-81 0 -117 49t-36 143q0 96 33.5 177.5t100.5 131t161 49.5q54 0 101 -20l129 16zM343 464q-19 6 -36 6q-47 0 -74 -47.5
t-44 -146.5q-18 -88 -18 -150q0 -39 12 -61.5t43 -22.5q43 0 68 42.5t35 100.5l47 261q-14 12 -33 18zM496 773q17 -7 25.5 -24t8.5 -37q0 -42 -32.5 -63.5t-89.5 -34.5l-117 -27l-19 45z" />
    <glyph glyph-name="acircumflex" unicode="&#xe2;" horiz-adv-x="564" 
d="M20 0zM469 127q-5 -30 -5 -42q0 -19 9.5 -31t28.5 -13q-8 -30 -37 -45.5t-63 -15.5q-31 0 -54 14.5t-30 42.5q-23 -28 -61.5 -42.5t-83.5 -14.5q-81 0 -117 49t-36 143q0 96 33.5 177.5t100.5 131t161 49.5q54 0 101 -20l129 16zM343 464q-19 6 -36 6q-47 0 -74 -47.5
t-44 -146.5q-18 -88 -18 -150q0 -39 12 -61.5t43 -22.5q43 0 68 42.5t35 100.5l47 261q-14 12 -33 18zM545 631l-45 -47l-111 62l-139 -62l-29 48l165 116h26z" />
    <glyph glyph-name="atilde" unicode="&#xe3;" horiz-adv-x="564" 
d="M20 0zM469 127q-5 -30 -5 -42q0 -19 9.5 -31t28.5 -13q-8 -30 -37 -45.5t-63 -15.5q-31 0 -54 14.5t-30 42.5q-23 -28 -61.5 -42.5t-83.5 -14.5q-81 0 -117 49t-36 143q0 96 33.5 177.5t100.5 131t161 49.5q54 0 101 -20l129 16zM343 464q-19 6 -36 6q-47 0 -74 -47.5
t-44 -146.5q-18 -88 -18 -150q0 -39 12 -61.5t43 -22.5q43 0 68 42.5t35 100.5l47 261q-14 12 -33 18zM560 678q0 -32 -23 -49.5t-63 -17.5q-18 0 -52 4t-46 5q-68 8 -87 8t-36 -4.5t-26 -11.5q-18 26 -18 51q0 29 23 45t66 16q21 0 55.5 -4t45.5 -5q68 -8 89 -8q39 0 55 17
q17 -21 17 -46z" />
    <glyph glyph-name="adieresis" unicode="&#xe4;" horiz-adv-x="564" 
d="M20 0zM469 127q-5 -30 -5 -42q0 -19 9.5 -31t28.5 -13q-8 -30 -37 -45.5t-63 -15.5q-31 0 -54 14.5t-30 42.5q-23 -28 -61.5 -42.5t-83.5 -14.5q-81 0 -117 49t-36 143q0 96 33.5 177.5t100.5 131t161 49.5q54 0 101 -20l129 16zM343 464q-19 6 -36 6q-47 0 -74 -47.5
t-44 -146.5q-18 -88 -18 -150q0 -39 12 -61.5t43 -22.5q43 0 68 42.5t35 100.5l47 261q-14 12 -33 18zM566.5 718.5q24.5 -18.5 24.5 -52.5q0 -35 -25.5 -53.5t-66.5 -18.5q-40 0 -65 18t-25 52q0 35 26 54t67 19q40 0 64.5 -18.5zM343.5 718.5q24.5 -18.5 24.5 -52.5
q0 -35 -25.5 -53.5t-66.5 -18.5q-40 0 -65 18t-25 52q0 35 26 54t67 19q40 0 64.5 -18.5z" />
    <glyph glyph-name="aring" unicode="&#xe5;" horiz-adv-x="564" 
d="M20 0zM469 127q-5 -30 -5 -42q0 -19 9.5 -31t28.5 -13q-8 -30 -37 -45.5t-63 -15.5q-31 0 -54 14.5t-30 42.5q-23 -28 -61.5 -42.5t-83.5 -14.5q-81 0 -117 49t-36 143q0 96 33.5 177.5t100.5 131t161 49.5q54 0 101 -20l129 16zM343 464q-19 6 -36 6q-47 0 -74 -47.5
t-44 -146.5q-18 -88 -18 -150q0 -39 12 -61.5t43 -22.5q43 0 68 42.5t35 100.5l47 261q-14 12 -33 18zM295 588.5q-24 20.5 -24 59.5q0 51 38.5 81.5t93.5 30.5q43 0 67 -20.5t24 -59.5q0 -51 -38.5 -81.5t-93.5 -30.5q-43 0 -67 20.5zM412 625q17 22 17 51q0 21 -10 33.5
t-28 12.5q-24 0 -39 -21.5t-15 -52.5q0 -21 8.5 -33t25.5 -12q24 0 41 22z" />
    <glyph glyph-name="ae" unicode="&#xe6;" horiz-adv-x="770" 
d="M748 503.5q42 -26.5 42 -90.5q0 -81 -65.5 -125.5t-179.5 -49.5q-20 -1 -62 -1q-3 -27 -3 -51q0 -50 20 -75.5t67 -25.5q42 0 78.5 18.5t54.5 52.5q25 -11 25 -44q0 -35 -26.5 -65.5t-74 -48.5t-106.5 -18q-54 0 -100.5 19t-72.5 62q-60 -81 -168 -81q-84 0 -120.5 47.5
t-36.5 142.5t32.5 177t97.5 132.5t157 50.5q85 0 158 -44q39 23 78.5 33.5t88.5 10.5q74 0 116 -26.5zM538 422.5q-33 -53.5 -48 -139.5q72 0 120.5 37t48.5 100q0 56 -44 56t-77 -53.5zM343 464q-19 6 -37 6q-47 0 -74 -47.5t-44 -146.5q-17 -93 -17 -150q0 -39 12 -61.5
t42 -22.5q43 0 68.5 42.5t35.5 100.5l47 261q-14 12 -33 18z" />
    <glyph glyph-name="ccedilla" unicode="&#xe7;" horiz-adv-x="460" 
d="M334 341q7 18 11.5 42t4.5 42q0 46 -39 46q-41 0 -72.5 -48.5t-48 -115t-16.5 -117.5q0 -50 19.5 -77.5t64.5 -27.5q42 0 75.5 24t48.5 64q19 -8 27.5 -21.5t8.5 -34.5q0 -54 -50 -91t-125 -45l-13 -43l37 1q46 0 75 -19t29 -59q0 -51 -45.5 -84t-113.5 -33
q-41 0 -65.5 13.5t-24.5 37.5q0 26 17 40q19 -30 67 -30q27 0 45 10.5t18 34.5q0 39 -69 39q-13 0 -39 -2l28 94q-82 6 -124.5 58t-42.5 151q0 92 36.5 170t105.5 124t163 46q69 0 110 -26t41 -80q0 -46 -29 -70t-72 -24q-30 0 -43 11z" />
    <glyph glyph-name="egrave" unicode="&#xe8;" horiz-adv-x="471" 
d="M22 0zM484 412q0 -83 -73.5 -129t-199.5 -46h-35q-3 -27 -3 -51q0 -50 20 -75.5t68 -25.5q42 0 78 18.5t55 52.5q24 -11 24 -44q0 -36 -27.5 -66.5t-74.5 -48t-103 -17.5q-93 0 -142 51.5t-49 157.5q0 89 34.5 167t104 126t170.5 48q153 0 153 -118zM232 423
q-33 -53 -49 -140q72 0 121 37t49 100q0 56 -44 56t-77 -53zM277 614q-57 13 -89 34.5t-32 63.5q0 21 8 37.5t26 23.5l223 -141l-19 -45z" />
    <glyph glyph-name="eacute" unicode="&#xe9;" horiz-adv-x="471" 
d="M22 0zM484 412q0 -83 -73.5 -129t-199.5 -46h-35q-3 -27 -3 -51q0 -50 20 -75.5t68 -25.5q42 0 78 18.5t55 52.5q24 -11 24 -44q0 -36 -27.5 -66.5t-74.5 -48t-103 -17.5q-93 0 -142 51.5t-49 157.5q0 89 34.5 167t104 126t170.5 48q153 0 153 -118zM232 423
q-33 -53 -49 -140q72 0 121 37t49 100q0 56 -44 56t-77 -53zM449 773q17 -7 25.5 -24t8.5 -37q0 -42 -32.5 -63.5t-89.5 -34.5l-117 -27l-19 45z" />
    <glyph glyph-name="ecircumflex" unicode="&#xea;" horiz-adv-x="471" 
d="M22 0zM484 412q0 -83 -73.5 -129t-199.5 -46h-35q-3 -27 -3 -51q0 -50 20 -75.5t68 -25.5q42 0 78 18.5t55 52.5q24 -11 24 -44q0 -36 -27.5 -66.5t-74.5 -48t-103 -17.5q-93 0 -142 51.5t-49 157.5q0 89 34.5 167t104 126t170.5 48q153 0 153 -118zM232 423
q-33 -53 -49 -140q72 0 121 37t49 100q0 56 -44 56t-77 -53zM498 631l-45 -47l-111 62l-139 -62l-29 48l165 116h26z" />
    <glyph glyph-name="edieresis" unicode="&#xeb;" horiz-adv-x="471" 
d="M22 0zM484 412q0 -83 -73.5 -129t-199.5 -46h-35q-3 -27 -3 -51q0 -50 20 -75.5t68 -25.5q42 0 78 18.5t55 52.5q24 -11 24 -44q0 -36 -27.5 -66.5t-74.5 -48t-103 -17.5q-93 0 -142 51.5t-49 157.5q0 89 34.5 167t104 126t170.5 48q153 0 153 -118zM232 423
q-33 -53 -49 -140q72 0 121 37t49 100q0 56 -44 56t-77 -53zM519.5 718.5q24.5 -18.5 24.5 -52.5q0 -35 -25.5 -53.5t-66.5 -18.5q-40 0 -65 18t-25 52q0 35 26 54t67 19q40 0 64.5 -18.5zM296.5 718.5q24.5 -18.5 24.5 -52.5q0 -35 -25.5 -53.5t-66.5 -18.5q-40 0 -65 18
t-25 52q0 35 26 54t67 19q40 0 64.5 -18.5z" />
    <glyph glyph-name="igrave" unicode="&#xec;" horiz-adv-x="282" 
d="M34 0zM188 85q0 -19 9.5 -31t28.5 -13q-9 -30 -37 -45.5t-64 -15.5q-42 0 -66.5 22t-24.5 63q0 26 10 83t18 96l53 266l157 16l-79 -399q-5 -27 -5 -42zM158 614q-57 13 -89 34.5t-32 63.5q0 21 8 37.5t26 23.5l223 -141l-19 -45z" />
    <glyph glyph-name="iacute" unicode="&#xed;" horiz-adv-x="282" 
d="M34 0zM188 85q0 -19 9.5 -31t28.5 -13q-9 -30 -37 -45.5t-64 -15.5q-42 0 -66.5 22t-24.5 63q0 26 10 83t18 96l53 266l157 16l-79 -399q-5 -27 -5 -42zM330 773q17 -7 25.5 -24t8.5 -37q0 -42 -32.5 -63.5t-89.5 -34.5l-117 -27l-19 45z" />
    <glyph glyph-name="icircumflex" unicode="&#xee;" horiz-adv-x="282" 
d="M34 0zM188 85q0 -19 9.5 -31t28.5 -13q-9 -30 -37 -45.5t-64 -15.5q-42 0 -66.5 22t-24.5 63q0 26 10 83t18 96l53 266l157 16l-79 -399q-5 -27 -5 -42zM379 631l-45 -47l-111 62l-139 -62l-29 48l165 116h26z" />
    <glyph glyph-name="idieresis" unicode="&#xef;" horiz-adv-x="282" 
d="M20 0zM188 85q0 -19 9.5 -31t28.5 -13q-9 -30 -37 -45.5t-64 -15.5q-42 0 -66.5 22t-24.5 63q0 26 10 83t18 96l53 266l157 16l-79 -399q-5 -27 -5 -42zM400.5 718.5q24.5 -18.5 24.5 -52.5q0 -35 -25.5 -53.5t-66.5 -18.5q-40 0 -65 18t-25 52q0 35 26 54t67 19
q40 0 64.5 -18.5zM177.5 718.5q24.5 -18.5 24.5 -52.5q0 -35 -25.5 -53.5t-66.5 -18.5q-40 0 -65 18t-25 52q0 35 26 54t67 19q40 0 64.5 -18.5z" />
    <glyph glyph-name="eth" unicode="&#xf0;" horiz-adv-x="549" 
d="M575 695q3 -9 3 -18q0 -16 -11 -27t-35 -20l-27 -9q26 -61 26 -153q0 -112 -33.5 -224t-108 -188t-190.5 -76q-178 0 -178 199q0 90 34 168.5t99.5 126t154.5 47.5q45 0 75 -11q2 42 -2 68l-101 -36q-14 14 -14 32q0 27 30 38l60 22q-18 16 -45 16q-12 0 -25 -3.5
t-20 -8.5q-5 8 -5 20q0 29 28 45.5t70 16.5q33 0 61.5 -12t49.5 -34l95 35q6 -5 9 -14zM378 437q-14 12 -34 18.5t-39 6.5q-45 0 -70 -39t-41 -115q-22 -100 -22 -175q0 -45 12 -69t40 -24q43 0 71.5 57t53.5 168q19 78 29 172z" />
    <glyph glyph-name="ntilde" unicode="&#xf1;" horiz-adv-x="571" 
d="M11 0zM300.5 506q45.5 24 104.5 24q133 0 133 -122q0 -35 -8.5 -80t-24.5 -109q-13 -53 -19 -82t-6 -49q0 -21 8.5 -33t29.5 -14q-9 -30 -37.5 -45.5t-64.5 -15.5q-42 0 -66 22.5t-24 66.5q0 27 7 62t24 107q29 118 29 157q0 27 -12.5 42.5t-37.5 15.5q-45 0 -72 -47.5
t-40 -114.5l-57 -291l-156 -16l103 526l128 16l-14 -94q27 50 72.5 74zM539 678q0 -32 -23 -49.5t-63 -17.5q-18 0 -52 4t-46 5q-68 8 -87 8t-36 -4.5t-26 -11.5q-18 26 -18 51q0 29 23 45t66 16q21 0 55.5 -4t45.5 -5q68 -8 89 -8q39 0 55 17q17 -21 17 -46z" />
    <glyph glyph-name="ograve" unicode="&#xf2;" horiz-adv-x="537" 
d="M22 0zM471.5 478q44.5 -52 44.5 -149q0 -95 -34.5 -174.5t-103.5 -127t-166 -47.5q-101 0 -145.5 52.5t-44.5 150.5q0 95 34.5 174t103 126t166.5 47q101 0 145.5 -52zM234 421.5q-27 -48.5 -44 -145.5q-17 -87 -17 -151q0 -40 12.5 -62.5t44.5 -22.5q47 0 73.5 48.5
t43.5 146.5q18 92 18 150q0 41 -13 63t-45 22q-46 0 -73 -48.5zM298 614q-57 13 -89 34.5t-32 63.5q0 21 8 37.5t26 23.5l223 -141l-19 -45z" />
    <glyph glyph-name="oacute" unicode="&#xf3;" horiz-adv-x="537" 
d="M22 0zM471.5 478q44.5 -52 44.5 -149q0 -95 -34.5 -174.5t-103.5 -127t-166 -47.5q-101 0 -145.5 52.5t-44.5 150.5q0 95 34.5 174t103 126t166.5 47q101 0 145.5 -52zM234 421.5q-27 -48.5 -44 -145.5q-17 -87 -17 -151q0 -40 12.5 -62.5t44.5 -22.5q47 0 73.5 48.5
t43.5 146.5q18 92 18 150q0 41 -13 63t-45 22q-46 0 -73 -48.5zM470 773q17 -7 25.5 -24t8.5 -37q0 -42 -32.5 -63.5t-89.5 -34.5l-117 -27l-19 45z" />
    <glyph glyph-name="ocircumflex" unicode="&#xf4;" horiz-adv-x="537" 
d="M22 0zM471.5 478q44.5 -52 44.5 -149q0 -95 -34.5 -174.5t-103.5 -127t-166 -47.5q-101 0 -145.5 52.5t-44.5 150.5q0 95 34.5 174t103 126t166.5 47q101 0 145.5 -52zM234 421.5q-27 -48.5 -44 -145.5q-17 -87 -17 -151q0 -40 12.5 -62.5t44.5 -22.5q47 0 73.5 48.5
t43.5 146.5q18 92 18 150q0 41 -13 63t-45 22q-46 0 -73 -48.5zM519 631l-45 -47l-111 62l-139 -62l-29 48l165 116h26z" />
    <glyph glyph-name="otilde" unicode="&#xf5;" horiz-adv-x="537" 
d="M22 0zM471.5 478q44.5 -52 44.5 -149q0 -95 -34.5 -174.5t-103.5 -127t-166 -47.5q-101 0 -145.5 52.5t-44.5 150.5q0 95 34.5 174t103 126t166.5 47q101 0 145.5 -52zM234 421.5q-27 -48.5 -44 -145.5q-17 -87 -17 -151q0 -40 12.5 -62.5t44.5 -22.5q47 0 73.5 48.5
t43.5 146.5q18 92 18 150q0 41 -13 63t-45 22q-46 0 -73 -48.5zM534 678q0 -32 -23 -49.5t-63 -17.5q-18 0 -52 4t-46 5q-68 8 -87 8t-36 -4.5t-26 -11.5q-18 26 -18 51q0 29 23 45t66 16q21 0 55.5 -4t45.5 -5q68 -8 89 -8q39 0 55 17q17 -21 17 -46z" />
    <glyph glyph-name="odieresis" unicode="&#xf6;" horiz-adv-x="537" 
d="M22 0zM471.5 478q44.5 -52 44.5 -149q0 -95 -34.5 -174.5t-103.5 -127t-166 -47.5q-101 0 -145.5 52.5t-44.5 150.5q0 95 34.5 174t103 126t166.5 47q101 0 145.5 -52zM234 421.5q-27 -48.5 -44 -145.5q-17 -87 -17 -151q0 -40 12.5 -62.5t44.5 -22.5q47 0 73.5 48.5
t43.5 146.5q18 92 18 150q0 41 -13 63t-45 22q-46 0 -73 -48.5zM540.5 718.5q24.5 -18.5 24.5 -52.5q0 -35 -25.5 -53.5t-66.5 -18.5q-40 0 -65 18t-25 52q0 35 26 54t67 19q40 0 64.5 -18.5zM317.5 718.5q24.5 -18.5 24.5 -52.5q0 -35 -25.5 -53.5t-66.5 -18.5
q-40 0 -65 18t-25 52q0 35 26 54t67 19q40 0 64.5 -18.5z" />
    <glyph glyph-name="divide" unicode="&#xf7;" 
d="M353 357q-20 -15 -51 -15t-50 15t-19 41q0 28 20.5 44t52.5 16q30 0 48.5 -15.5t18.5 -42.5q0 -28 -20 -43zM480 249q0 -25 -19.5 -39.5t-56.5 -14.5h-341q-4 12 -4 30q0 27 19 44.5t49 17.5h348q5 -18 5 -38zM287 39q-20 -15 -51 -15t-50.5 15t-19.5 41q0 28 21 43.5
t52 15.5t49.5 -15t18.5 -42q0 -28 -20 -43z" />
    <glyph glyph-name="oslash" unicode="&#xf8;" horiz-adv-x="537" 
d="M525 494l-37 -40q28 -49 28 -125q0 -95 -34.5 -174.5t-103.5 -127t-166 -47.5q-76 0 -122 33l-4 -4q-17 -19 -27 -32.5t-21 -32.5q-21 0 -33 13.5t-12 33.5q0 29 19 48l30 34q-20 43 -20 110q0 95 34.5 174t103 126t166.5 47q64 0 106 -22l22 24q28 32 47 60
q16 0 30.5 -15t14.5 -37q0 -25 -21 -46zM181 228l178 197q-6 22 -18 33.5t-34 11.5q-42 0 -67 -36.5t-41 -105.5q-9 -37 -18 -100zM320 124q30 84 40 188l-188 -208q8 -64 58 -64q60 0 90 84z" />
    <glyph glyph-name="ugrave" unicode="&#xf9;" horiz-adv-x="569" 
d="M32 0zM473 127q-5 -30 -5 -42q0 -19 9.5 -31t29.5 -13q-9 -30 -37.5 -45.5t-62.5 -15.5q-32 0 -54.5 14.5t-29.5 42.5q-47 -57 -149 -57q-70 0 -106 33.5t-36 100.5q0 52 27 181l44 215l155 16l-53 -244q-25 -120 -25 -169q0 -71 51 -71q42 0 67 42t36 101l60 325l156 16
zM295 614q-57 13 -89 34.5t-32 63.5q0 21 8 37.5t26 23.5l223 -141l-19 -45z" />
    <glyph glyph-name="uacute" unicode="&#xfa;" horiz-adv-x="569" 
d="M32 0zM473 127q-5 -30 -5 -42q0 -19 9.5 -31t29.5 -13q-9 -30 -37.5 -45.5t-62.5 -15.5q-32 0 -54.5 14.5t-29.5 42.5q-47 -57 -149 -57q-70 0 -106 33.5t-36 100.5q0 52 27 181l44 215l155 16l-53 -244q-25 -120 -25 -169q0 -71 51 -71q42 0 67 42t36 101l60 325l156 16
zM467 773q17 -7 25.5 -24t8.5 -37q0 -42 -32.5 -63.5t-89.5 -34.5l-117 -27l-19 45z" />
    <glyph glyph-name="ucircumflex" unicode="&#xfb;" horiz-adv-x="569" 
d="M32 0zM473 127q-5 -30 -5 -42q0 -19 9.5 -31t29.5 -13q-9 -30 -37.5 -45.5t-62.5 -15.5q-32 0 -54.5 14.5t-29.5 42.5q-47 -57 -149 -57q-70 0 -106 33.5t-36 100.5q0 52 27 181l44 215l155 16l-53 -244q-25 -120 -25 -169q0 -71 51 -71q42 0 67 42t36 101l60 325l156 16
zM516 631l-45 -47l-111 62l-139 -62l-29 48l165 116h26z" />
    <glyph glyph-name="udieresis" unicode="&#xfc;" horiz-adv-x="569" 
d="M32 0zM473 127q-5 -30 -5 -42q0 -19 9.5 -31t29.5 -13q-9 -30 -37.5 -45.5t-62.5 -15.5q-32 0 -54.5 14.5t-29.5 42.5q-47 -57 -149 -57q-70 0 -106 33.5t-36 100.5q0 52 27 181l44 215l155 16l-53 -244q-25 -120 -25 -169q0 -71 51 -71q42 0 67 42t36 101l60 325l156 16
zM537.5 718.5q24.5 -18.5 24.5 -52.5q0 -35 -25.5 -53.5t-66.5 -18.5q-40 0 -65 18t-25 52q0 35 26 54t67 19q40 0 64.5 -18.5zM314.5 718.5q24.5 -18.5 24.5 -52.5q0 -35 -25.5 -53.5t-66.5 -18.5q-40 0 -65 18t-25 52q0 35 26 54t67 19q40 0 64.5 -18.5z" />
    <glyph glyph-name="yacute" unicode="&#xfd;" horiz-adv-x="475" 
d="M20 0zM145 26l-64 -2l-2 56q-4 125 -7.5 193t-10.5 127q-5 44 -14 65.5t-27 32.5q35 32 90 32q57 0 79 -30.5t26 -99.5q2 -44 2 -106v-73l-1 -117q61 80 97.5 167.5t36.5 169.5q0 34 -7 57q15 15 36.5 23.5t46.5 8.5q72 0 72 -74q0 -83 -69.5 -195.5t-166.5 -204.5
q-38 -36 -55 -63t-17 -66q0 -23 11 -47.5t27 -41.5q-18 -19 -45 -28.5t-57 -9.5q-38 0 -59 21t-21 59q0 71 99 146zM418 773q17 -7 25.5 -24t8.5 -37q0 -42 -32.5 -63.5t-89.5 -34.5l-117 -27l-19 45z" />
    <glyph glyph-name="thorn" unicode="&#xfe;" horiz-adv-x="555" 
d="M249 467q57 64 142 64q77 0 111 -49t34 -141q0 -97 -33.5 -179.5t-100 -132t-161.5 -49.5q-39 0 -77 12l-32 -172l-155 -16l173 896l156 16l-22 -115q-17 -86 -35 -134zM213 47q19 -6 36 -6q47 0 74 47.5t44 143.5q17 85 17 148q0 38 -11 57.5t-40 19.5
q-43 0 -69.5 -39.5t-37.5 -95.5l-46 -257q14 -12 33 -18z" />
    <glyph glyph-name="ydieresis" unicode="&#xff;" horiz-adv-x="475" 
d="M20 0zM145 26l-64 -2l-2 56q-4 125 -7.5 193t-10.5 127q-5 44 -14 65.5t-27 32.5q35 32 90 32q57 0 79 -30.5t26 -99.5q2 -44 2 -106v-73l-1 -117q61 80 97.5 167.5t36.5 169.5q0 34 -7 57q15 15 36.5 23.5t46.5 8.5q72 0 72 -74q0 -83 -69.5 -195.5t-166.5 -204.5
q-38 -36 -55 -63t-17 -66q0 -23 11 -47.5t27 -41.5q-18 -19 -45 -28.5t-57 -9.5q-38 0 -59 21t-21 59q0 71 99 146zM488.5 718.5q24.5 -18.5 24.5 -52.5q0 -35 -25.5 -53.5t-66.5 -18.5q-40 0 -65 18t-25 52q0 35 26 54t67 19q40 0 64.5 -18.5zM265.5 718.5
q24.5 -18.5 24.5 -52.5q0 -35 -25.5 -53.5t-66.5 -18.5q-40 0 -65 18t-25 52q0 35 26 54t67 19q40 0 64.5 -18.5z" />
    <glyph glyph-name="dotlessi" unicode="&#x131;" horiz-adv-x="282" 
d="M188 85q0 -19 9.5 -31t28.5 -13q-9 -30 -37 -45.5t-64 -15.5q-42 0 -66.5 22t-24.5 63q0 26 10 83t18 96l53 266l157 16l-79 -399q-5 -27 -5 -42z" />
    <glyph glyph-name="OE" unicode="&#x152;" horiz-adv-x="831" 
d="M752.5 309.5q-26.5 -24.5 -73.5 -24.5q-24 0 -50 5.5t-46 15.5q-12 -100 -12 -121q0 -52 23 -71t74 -19q53 0 93 15q8 -17 8 -39q0 -49 -45.5 -70t-108.5 -21q-119 0 -160 77q-77 -77 -201 -77q-117 0 -173.5 62.5t-56.5 190.5q0 114 41.5 216.5t123 166.5t193.5 64
q65 0 114 -20h359q0 -55 -31.5 -82.5t-83.5 -27.5q-28 0 -63 7.5t-63 19.5l-22 -195h187q0 -48 -26.5 -72.5zM366 116.5q36 65.5 56 188.5q9 47 15.5 101t6.5 92q0 52 -16.5 82t-57.5 30q-61 0 -97 -65.5t-56 -188.5q-9 -47 -15.5 -101t-6.5 -92q0 -52 16.5 -82t57.5 -30
q61 0 97 65.5z" />
    <glyph glyph-name="oe" unicode="&#x153;" horiz-adv-x="786" 
d="M764 503.5q42 -26.5 42 -90.5q0 -80 -66 -125t-175 -50q-21 -1 -66 -1q-3 -24 -3 -47q0 -51 19.5 -78t68.5 -27q40 0 76.5 18.5t55.5 52.5q25 -11 25 -44q0 -36 -28 -66.5t-74.5 -48t-98.5 -17.5q-46 0 -86 14t-64 43q-36 -29 -79 -43t-96 -14q-101 0 -147 50t-46 153
q0 94 34.5 173t102.5 126.5t163 47.5q51 0 89.5 -14t60.5 -42q36 28 79.5 42t98.5 14q72 0 114 -26.5zM554 422.5q-33 -53.5 -48 -139.5q72 0 120.5 37t48.5 100q0 56 -44 56t-77 -53.5zM303.5 88.5q26.5 48.5 43.5 146.5q18 92 18 150q0 41 -13 63t-45 22q-46 0 -73 -48.5
t-44 -145.5q-17 -87 -17 -151q0 -40 12.5 -62.5t44.5 -22.5q47 0 73.5 48.5z" />
    <glyph glyph-name="uni02BC" unicode="&#x2bc;" horiz-adv-x="215" 
d="M150.5 711q19.5 4 37.5 4q35 0 55.5 -18.5t20.5 -56.5q0 -37 -19.5 -70.5t-54.5 -53.5t-80 -20q-15 0 -39 6q33 32 46.5 67.5t13.5 76.5q0 33 -10 54q10 7 29.5 11z" />
    <glyph glyph-name="circumflex" unicode="&#x2c6;" horiz-adv-x="332" 
d="M406 631l-45 -47l-111 62l-139 -62l-29 48l165 116h26z" />
    <glyph glyph-name="ring" unicode="&#x2da;" horiz-adv-x="244" 
d="M111 588.5q-24 20.5 -24 59.5q0 51 38.5 81.5t93.5 30.5q43 0 67 -20.5t24 -59.5q0 -51 -38.5 -81.5t-93.5 -30.5q-43 0 -67 20.5zM228 625q17 22 17 51q0 21 -10 33.5t-28 12.5q-24 0 -39 -21.5t-15 -52.5q0 -21 8.5 -33t25.5 -12q24 0 41 22z" />
    <glyph glyph-name="tilde" unicode="&#x2dc;" horiz-adv-x="366" 
d="M435 678q0 -32 -23 -49.5t-63 -17.5q-18 0 -52 4t-46 5q-68 8 -87 8t-36 -4.5t-26 -11.5q-18 26 -18 51q0 29 23 45t66 16q21 0 55.5 -4t45.5 -5q68 -8 89 -8q39 0 55 17q17 -21 17 -46z" />
    <glyph glyph-name="uni2002" unicode="&#x2002;" horiz-adv-x="400" 
 />
    <glyph glyph-name="endash" unicode="&#x2013;" horiz-adv-x="479" 
d="M472 257q-1 -28 -21 -45.5t-57 -17.5h-382q-4 12 -4 25q0 31 19.5 50.5t49.5 19.5h390q5 -22 5 -32z" />
    <glyph glyph-name="emdash" unicode="&#x2014;" horiz-adv-x="943" 
d="M935 261q0 -67 -82 -67h-841q-4 12 -4 26q0 34 20.5 51.5t56.5 17.5h846q4 -13 4 -28z" />
    <glyph glyph-name="quoteleft" unicode="&#x2018;" horiz-adv-x="240" 
d="M237 629.5q-17 -43.5 -17 -84.5q0 -32 10 -55q-10 -7 -30.5 -11.5t-38.5 -4.5q-36 0 -57.5 21t-21.5 60q0 43 23.5 81t62.5 61t81 23q23 0 42 -6q-37 -41 -54 -84.5z" />
    <glyph glyph-name="quoteright" unicode="&#x2019;" horiz-adv-x="262" 
d="M150.5 716.5q20.5 4.5 38.5 4.5q36 0 57.5 -21t21.5 -61q0 -42 -23.5 -80t-62.5 -61.5t-81 -23.5q-19 0 -42 7q37 40 54 83.5t17 85.5q0 32 -10 55q10 7 30.5 11.5z" />
    <glyph glyph-name="quotesinglbase" unicode="&#x201a;" horiz-adv-x="233" 
d="M45 113.5q21 4.5 39 4.5q36 0 57.5 -20t21.5 -59q0 -42 -24 -81t-63 -63t-82 -24q-18 0 -41 7q37 40 54 83.5t17 85.5q0 32 -10 55q10 7 31 11.5z" />
    <glyph glyph-name="quotedblleft" unicode="&#x201c;" horiz-adv-x="454" 
d="M105.5 636q23.5 38 62.5 61.5t81 23.5q19 0 42 -7q-37 -40 -54 -83.5t-17 -85.5q0 -32 10 -55q-10 -7 -30.5 -11.5t-38.5 -4.5q-36 0 -57.5 21t-21.5 61q0 42 23.5 80zM319 636q24 38 62.5 61.5t81.5 23.5q20 0 41 -7q-37 -40 -53.5 -83.5t-16.5 -85.5q0 -32 10 -55
q-10 -7 -30.5 -11.5t-38.5 -4.5q-36 0 -58 21.5t-22 60.5q0 42 24 80z" />
    <glyph glyph-name="quotedblright" unicode="&#x201d;" horiz-adv-x="449" 
d="M143.5 716.5q20.5 4.5 38.5 4.5q36 0 57.5 -21t21.5 -61q0 -43 -23.5 -81t-62.5 -61t-81 -23q-19 0 -42 7q37 40 54 83.5t17 85.5q0 32 -10 55q10 7 30.5 11.5zM356.5 716.5q20.5 4.5 38.5 4.5q36 0 58 -21.5t22 -60.5q0 -42 -24 -80t-62.5 -61.5t-81.5 -23.5
q-20 0 -41 7q37 40 53.5 83.5t16.5 85.5q0 32 -10 55q10 7 30.5 11.5z" />
    <glyph glyph-name="quotedblbase" unicode="&#x201e;" horiz-adv-x="477" 
d="M149 -44q-24 -38 -62.5 -61.5t-81.5 -23.5q-19 0 -42 7q37 40 54 83.5t17 85.5q0 32 -10 55q10 7 30.5 11.5t38.5 4.5q36 0 58 -21t22 -60q0 -43 -24 -81zM362.5 -44q-23.5 -38 -62.5 -61.5t-81 -23.5q-19 0 -42 7q37 40 54 83.5t17 85.5q0 32 -10 55q10 7 30.5 11.5
t38.5 4.5q36 0 57.5 -21t21.5 -60q0 -43 -23.5 -81z" />
    <glyph glyph-name="bullet" unicode="&#x2022;" horiz-adv-x="283" 
d="M208 191.5q-31 -24.5 -82 -24.5q-50 0 -80 24t-30 65q0 44 32 69.5t83 25.5q49 0 78.5 -24.5t29.5 -66.5q0 -44 -31 -68.5z" />
    <glyph glyph-name="ellipsis" unicode="&#x2026;" horiz-adv-x="655" 
d="M2 0zM584 100q24 -18 24 -51t-25.5 -51.5t-64.5 -18.5t-63.5 18t-24.5 50q0 34 26 52.5t65 18.5t63 -18zM156 100q24 -18 24 -51t-25.5 -51.5t-64.5 -18.5t-63.5 18t-24.5 50q0 34 26 52.5t65 18.5t63 -18zM372 100q24 -18 24 -51t-25.5 -51.5t-64.5 -18.5t-63.5 18
t-24.5 50q0 34 26 52.5t65 18.5t63 -18z" />
    <glyph glyph-name="guilsinglleft" unicode="&#x2039;" horiz-adv-x="281" 
d="M174 510h108l-121 -193l48 -191h-106l-91 191z" />
    <glyph glyph-name="guilsinglright" unicode="&#x203a;" horiz-adv-x="282" 
d="M262 318l-161 -192h-108l120 192l-50 192h108z" />
    <glyph glyph-name="fraction" unicode="&#x2044;" horiz-adv-x="284" 
d="M-15 -91q-45 0 -45 27q0 9 6 24l329 758q14 2 26 2q25 0 36 -5.5t11 -21.5q0 -13 -9 -37l-325 -745q-6 -2 -29 -2z" />
    <glyph glyph-name="Euro" unicode="&#x20ac;" 
d="M446 450q11 33 11 73q0 68 -61 68q-48 0 -84 -49.5t-58 -127.5h169q6 -13 6 -25q0 -21 -18.5 -32.5t-52.5 -11.5h-120q-7 -36 -8 -64h167q6 -13 6 -26q0 -25 -22.5 -34t-66.5 -9h-85q6 -54 31.5 -82.5t80.5 -28.5q96 0 158 93q28 -19 28 -59q0 -43 -32 -78.5t-87.5 -56
t-122.5 -20.5q-211 0 -220 232h-73q-4 9 -4 24q0 21 17 33t46 12h16q3 36 10 64h-58q-5 13 -5 25q0 21 17 32.5t46 11.5h19q40 110 123.5 178t203.5 68q80 0 130.5 -27t50.5 -86q0 -49 -32.5 -78.5t-78.5 -29.5q-31 0 -47 11z" />
    <glyph glyph-name="trademark" unicode="&#x2122;" horiz-adv-x="718" 
d="M89 596q-21 0 -39 -3q-2 14 -2 26q0 23 13.5 32t40.5 9h144q35 0 53 6q4 -5 6.5 -14.5t2.5 -18.5q0 -23 -15.5 -30t-44.5 -7h-28l-37 -209q-5 -25 -5 -45q0 -23 7 -34q-23 -19 -53 -19q-29 0 -39 13.5t-10 38.5q0 28 15 115l26 140h-35zM499 445l-36 215h-104l-85 -363
h60l52 247l42 -247h64q38 108 103 247q-11 -98 -11 -157q0 -51 14.5 -74.5t53.5 -23.5q23 0 37.5 7.5t19.5 19.5q-17 20 -24 41.5t-7 68.5q0 26 11 234h-96q-42 -106 -94 -215z" />
    <glyph glyph-name="minus" unicode="&#x2212;" 
d="M488 261q0 -30 -20.5 -48.5t-55.5 -18.5h-349q-3 14 -3 25q0 31 18.5 50.5t49.5 19.5h356q4 -15 4 -28z" />
    <glyph glyph-name="uni2215" unicode="&#x2215;" horiz-adv-x="112" 
d="M241 720q25 0 35.5 -6t10.5 -22q0 -15 -9 -36l-325 -745q-6 -2 -29 -2q-44 0 -44 27q0 9 6 24l329 758q12 2 26 2z" />
    <glyph glyph-name="Dcroat" horiz-adv-x="637" 
d="M320 667q107 0 170 -23.5t92 -77.5t29 -148q0 -126 -47 -222t-141 -149.5t-231 -53.5q-36 0 -87 2t-98 5l57 293h-72q-2 9 -2 26q1 26 17.5 41t44.5 15h28l55 285q101 7 185 7zM242 64q76 0 119 61t66 172q24 114 24 182q0 61 -25 89.5t-83 28.5q-27 0 -57 -5l-42 -217
h120q3 -10 3 -26q0 -25 -17 -40.5t-52 -15.5h-70l-44 -224q30 -5 58 -5z" />
    <glyph glyph-name="Ldot" horiz-adv-x="409" 
d="M135 660h168l-105 -555h107q63 0 89 11q6 -9 10 -23t4 -27q0 -38 -31.5 -52t-81.5 -14h-284zM396.5 388q13.5 -13 13.5 -36q0 -9 -1 -14q-6 -30 -27.5 -47.5t-50.5 -17.5q-23 0 -37 12.5t-14 34.5q0 36 24 58.5t56 22.5q23 0 36.5 -13z" />
    <glyph glyph-name="uni1E9E" horiz-adv-x="735" 
d="M64 331q37 192 134.5 270.5t247.5 78.5q181 0 259 -99q-73 -31 -125 -73.5t-52 -83.5q0 -24 15.5 -42t47.5 -41q31 -25 50 -43.5t32.5 -47.5t13.5 -67q0 -62 -36 -108.5t-95 -71t-128 -24.5q-72 0 -123 29t-51 90q0 41 25 66t63 25q29 0 53 -13q-13 -36 -13 -68
q0 -29 16.5 -45.5t46.5 -16.5q37 0 61.5 24t24.5 57q0 27 -16.5 47t-51.5 48q-30 24 -47.5 41.5t-30.5 43t-13 59.5q0 61 46 114.5t136 101.5q-46 46 -113 46q-86 0 -133.5 -73t-75.5 -217l-65 -338h-168z" />
    <glyph glyph-name="Y.loclGUA" horiz-adv-x="644" 
d="M538 160q-22 -118 -59 -195.5t-104 -121t-174 -43.5q-77 0 -128 30.5t-51 92.5q0 51 32 77t77 26q28 0 54 -12q-15 -36 -15 -73q0 -35 15.5 -55.5t45.5 -20.5q59 0 93 67t56 192q-52 -56 -151 -56q-80 0 -124 40t-44 117q0 46 14 118l61 317h169l-61 -329
q-13 -63 -13 -100q0 -38 16.5 -58.5t50.5 -20.5q54 0 80 50t43 139l59 319h152z" />
    <glyph glyph-name="Yacute.loclGUA" horiz-adv-x="644" 
d="M22 0zM538 160q-22 -118 -59 -195.5t-104 -121t-174 -43.5q-77 0 -128 30.5t-51 92.5q0 51 32 77t77 26q28 0 54 -12q-15 -36 -15 -73q0 -35 15.5 -55.5t45.5 -20.5q59 0 93 67t56 192q-52 -56 -151 -56q-80 0 -124 40t-44 117q0 46 14 118l61 317h169l-61 -329
q-13 -63 -13 -100q0 -38 16.5 -58.5t50.5 -20.5q54 0 80 50t43 139l59 319h152zM327 758l239 95q25 -16 25 -49q0 -83 -137 -87l-117 -5z" />
    <glyph glyph-name="uni1EF8.loclGUA" horiz-adv-x="644" 
d="M22 0zM538 160q-22 -118 -59 -195.5t-104 -121t-174 -43.5q-77 0 -128 30.5t-51 92.5q0 51 32 77t77 26q28 0 54 -12q-15 -36 -15 -73q0 -35 15.5 -55.5t45.5 -20.5q59 0 93 67t56 192q-52 -56 -151 -56q-80 0 -124 40t-44 117q0 46 14 118l61 317h169l-61 -329
q-13 -63 -13 -100q0 -38 16.5 -58.5t50.5 -20.5q54 0 80 50t43 139l59 319h152zM594 791q0 -32 -23 -49.5t-64 -17.5q-30 0 -97 9q-68 8 -88 8q-19 0 -35.5 -4.5t-25.5 -11.5q-19 26 -19 51q0 29 23.5 45t66.5 16q34 0 99 -9q70 -8 90 -8q41 0 55 17q18 -22 18 -46z" />
    <glyph glyph-name="Oacute.loclPLK" horiz-adv-x="640" 
d="M24 0zM560 616.5q56 -63.5 56 -191.5q0 -112 -41 -214t-123.5 -166.5t-200.5 -64.5q-114 0 -170.5 63.5t-56.5 192.5q0 113 41 214.5t124 165.5t201 64q114 0 170 -63.5zM273.5 546q-35.5 -64 -56.5 -189q-9 -47 -15.5 -101.5t-6.5 -93.5q0 -53 17 -82t58 -29
q62 0 97.5 65.5t55.5 187.5q9 48 15.5 102.5t6.5 93.5q0 52 -16.5 81t-58.5 29q-61 0 -96.5 -64zM432 857q79 0 79 -41q0 -20 -19 -47.5t-64 -76.5l-66 8z" />
    <glyph glyph-name="i.loclTRK" horiz-adv-x="282" 
d="M34 0zM188 85q0 -19 9.5 -31t28.5 -13q-9 -30 -37 -45.5t-64 -15.5q-42 0 -66.5 22t-24.5 63q0 26 10 83t18 96l53 266l157 16l-79 -399q-5 -27 -5 -42zM282.5 718.5q24.5 -18.5 24.5 -52.5q0 -35 -25.5 -53.5t-66.5 -18.5q-40 0 -65 18t-25 52q0 35 26 54t67 19
q40 0 64.5 -18.5z" />
    <glyph glyph-name="ldot" horiz-adv-x="313" 
d="M178 127q-5 -27 -5 -42q0 -19 9.5 -31t28.5 -13q-9 -30 -37 -45.5t-64 -15.5q-42 0 -66.5 22t-24.5 63q0 26 10 83t18 96l89 456l158 16zM348.5 383q13.5 -13 13.5 -36q0 -9 -1 -14q-6 -30 -27.5 -47.5t-50.5 -17.5q-23 0 -37 12.5t-14 34.5q0 36 24 58.5t56 22.5
q23 0 36.5 -13z" />
    <glyph glyph-name="y.loclGUA" horiz-adv-x="537" 
d="M459 139q-22 -118 -54 -190.5t-88 -110.5t-147 -38q-79 0 -136.5 30t-57.5 90q0 40 27 60t64 20q25 0 47 -9.5t34 -27.5q-21 -24 -21 -50q0 -24 14 -36.5t36 -12.5q36 0 60.5 29t41.5 82.5t33 142.5q-24 -30 -63.5 -45t-84.5 -15q-65 0 -99 33t-34 98q0 57 24 169l32 152
l155 16l-42 -181q-22 -102 -22 -149q0 -69 51 -69q43 0 67.5 40.5t35.5 100.5l45 242l156 16z" />
    <glyph glyph-name="yacute.loclGUA" horiz-adv-x="537" 
d="M0 0zM459 139q-22 -118 -54 -190.5t-88 -110.5t-147 -38q-79 0 -136.5 30t-57.5 90q0 40 27 60t64 20q25 0 47 -9.5t34 -27.5q-21 -24 -21 -50q0 -24 14 -36.5t36 -12.5q36 0 60.5 29t41.5 82.5t33 142.5q-24 -30 -63.5 -45t-84.5 -15q-65 0 -99 33t-34 98q0 57 24 169
l32 152l155 16l-42 -181q-22 -102 -22 -149q0 -69 51 -69q43 0 67.5 40.5t35.5 100.5l45 242l156 16zM457 773q17 -7 25.5 -24t8.5 -37q0 -42 -32.5 -63.5t-89.5 -34.5l-117 -27l-19 45z" />
    <glyph glyph-name="ydieresis.loclGUA" horiz-adv-x="537" 
d="M0 0zM459 139q-22 -118 -54 -190.5t-88 -110.5t-147 -38q-79 0 -136.5 30t-57.5 90q0 40 27 60t64 20q25 0 47 -9.5t34 -27.5q-21 -24 -21 -50q0 -24 14 -36.5t36 -12.5q36 0 60.5 29t41.5 82.5t33 142.5q-24 -30 -63.5 -45t-84.5 -15q-65 0 -99 33t-34 98q0 57 24 169
l32 152l155 16l-42 -181q-22 -102 -22 -149q0 -69 51 -69q43 0 67.5 40.5t35.5 100.5l45 242l156 16zM527.5 718.5q24.5 -18.5 24.5 -52.5q0 -35 -25.5 -53.5t-66.5 -18.5q-40 0 -65 18t-25 52q0 35 26 54t67 19q40 0 64.5 -18.5zM304.5 718.5q24.5 -18.5 24.5 -52.5
q0 -35 -25.5 -53.5t-66.5 -18.5q-40 0 -65 18t-25 52q0 35 26 54t67 19q40 0 64.5 -18.5z" />
    <glyph glyph-name="uni1EF9.loclGUA" horiz-adv-x="537" 
d="M0 0zM459 139q-22 -118 -54 -190.5t-88 -110.5t-147 -38q-79 0 -136.5 30t-57.5 90q0 40 27 60t64 20q25 0 47 -9.5t34 -27.5q-21 -24 -21 -50q0 -24 14 -36.5t36 -12.5q36 0 60.5 29t41.5 82.5t33 142.5q-24 -30 -63.5 -45t-84.5 -15q-65 0 -99 33t-34 98q0 57 24 169
l32 152l155 16l-42 -181q-22 -102 -22 -149q0 -69 51 -69q43 0 67.5 40.5t35.5 100.5l45 242l156 16zM521 678q0 -32 -23 -49.5t-63 -17.5q-18 0 -52 4t-46 5q-68 8 -87 8t-36 -4.5t-26 -11.5q-18 26 -18 51q0 29 23 45t66 16q21 0 55.5 -4t45.5 -5q68 -8 89 -8q39 0 55 17
q17 -21 17 -46z" />
    <glyph glyph-name="oacute.loclPLK" horiz-adv-x="537" 
d="M22 0zM471.5 478q44.5 -52 44.5 -149q0 -95 -34.5 -174.5t-103.5 -127t-166 -47.5q-101 0 -145.5 52.5t-44.5 150.5q0 95 34.5 174t103 126t166.5 47q101 0 145.5 -52zM234 421.5q-27 -48.5 -44 -145.5q-17 -87 -17 -151q0 -40 12.5 -62.5t44.5 -22.5q47 0 73.5 48.5
t43.5 146.5q18 92 18 150q0 41 -13 63t-45 22q-46 0 -73 -48.5zM396 777q79 0 79 -41q0 -20 -18 -46.5t-51 -62.5l-58 -64l-45 20z" />
    <glyph glyph-name="uni03BC" horiz-adv-x="582" 
d="M562 526l-76 -399q-5 -30 -5 -42q0 -19 9.5 -31t29.5 -13q-9 -30 -37.5 -45.5t-62.5 -15.5q-32 0 -54.5 14.5t-29.5 42.5q-37 -45 -121 -54q-7 -1 -19 -1q-14 0 -28 3l-29 -165l-158 -16l92 475l5 26q19 90 19 119q0 42 -39 46q9 29 38 44.5t64 15.5q42 0 66.5 -22
t24.5 -66q0 -40 -27 -154q-15 -63 -22.5 -103t-7.5 -69q0 -67 50 -67q41 0 67 42t39 113l56 306z" />
    <glyph glyph-name="uni2153" horiz-adv-x="818" 
d="M551 720q25 0 35.5 -6t10.5 -22q0 -15 -9 -36l-324 -745q-6 -2 -29 -2q-45 0 -45 27q0 9 6 24l329 758q12 2 26 2zM223 353h24q28 0 38 7q9 -12 9 -34q0 -24 -14.5 -33.5t-43.5 -9.5l-60 1l-88 2q-29 0 -40 -5q-4 12 -4 28q0 21 11 33t34 12h32l45 221q-10 -8 -24 -12
t-26 -4q-44 0 -50 58q85 12 193 62l23 -16zM647.5 239.5q24.5 16.5 24.5 42.5q0 18 -11.5 27.5t-32.5 9.5q-22 0 -43.5 -10.5t-37.5 -30.5q-20 7 -20 31q0 39 44 61t95 22q47 0 76.5 -20t29.5 -60q0 -37 -26.5 -64.5t-67.5 -41.5q39 -6 60.5 -28t21.5 -59t-21 -66.5
t-58 -46.5t-83 -17q-50 0 -81 20t-31 54q0 26 20 40q30 -44 84 -44q31 0 47.5 14.5t16.5 42.5q0 30 -20 43t-60 13l8 45q41 6 65.5 22.5z" />
    <glyph glyph-name="uni2154" horiz-adv-x="838" 
d="M579 720q24 0 35 -6t11 -22q0 -15 -9 -36l-325 -745q-6 -2 -29 -2q-44 0 -44 27q0 9 6 24l328 758q14 2 27 2zM234 562q0 43 -48 43q-27 0 -48 -14t-33 -38q-13 2 -20 12.5t-7 25.5q0 41 42.5 64t97.5 23q52 0 84 -24.5t32 -74.5q0 -38 -18.5 -66.5t-55.5 -58.5l-55 -42
l-45 -34q39 -10 86 -10q43 0 62 15q11 -18 11 -39q0 -61 -80 -61q-24 0 -80 9q-40 7 -60 7q-23 0 -36 -8q-7 6 -11.5 18t-4.5 24q0 15 8.5 28t26.5 28l92 78q60 51 60 95zM674.5 239.5q24.5 16.5 24.5 42.5q0 18 -11.5 27.5t-32.5 9.5q-22 0 -44 -10.5t-38 -30.5
q-19 7 -19 31q0 39 43.5 61t95.5 22q47 0 76 -20t29 -60q0 -37 -25.5 -64.5t-67.5 -41.5q39 -6 60 -28t21 -59q0 -56 -46 -93t-116 -37q-50 0 -81 20t-31 54q0 25 21 40q29 -44 84 -44q31 0 47.5 14.5t16.5 42.5q0 30 -20.5 43t-59.5 13l7 45q42 6 66.5 22.5z" />
    <glyph glyph-name="oneeighth" horiz-adv-x="821" 
d="M551 720q24 0 35 -5.5t11 -21.5t-9 -37l-324 -745q-6 -2 -29 -2q-45 0 -45 27q0 9 6 24l329 758q12 2 26 2zM223 353h24q28 0 38 7q9 -12 9 -34q0 -24 -14.5 -33.5t-43.5 -9.5l-60 1l-88 2q-29 0 -40 -5q-4 12 -4 28q0 21 11 33t34 12h32l45 221q-10 -8 -24 -12t-26 -4
q-44 0 -50 58q85 12 193 62l23 -16zM733.5 52.5q-21.5 -30.5 -58 -48.5t-79.5 -18q-51 0 -87 24.5t-36 68.5q0 35 24.5 61.5t69.5 48.5q-25 20 -35.5 37.5t-10.5 39.5q0 34 21.5 62t57.5 44.5t76 16.5q43 0 72 -19.5t29 -56.5q0 -34 -23.5 -57.5t-62.5 -44.5q36 -26 50 -45
t14 -47q0 -36 -21.5 -66.5zM695 297q0 17 -9 27t-27 10q-19 0 -32 -10.5t-13 -27.5q0 -21 22 -38l22 -17q37 21 37 56zM560 93q0 -23 11 -36t31 -13q22 0 35.5 14t13.5 34q0 14 -5.5 22.5t-16.5 17.5l-31 25q-38 -25 -38 -64z" />
    <glyph glyph-name="quotesingle.loclGUA" horiz-adv-x="135" 
d="M49 486q17 75 27 130.5t11 97.5q28 6 50 6q35 0 51 -17.5t16 -53.5q0 -45 -28.5 -115t-56.5 -103h-82z" />
    <glyph glyph-name="uni20B2" 
d="M408 433q11 35 11 76t-12.5 59t-42.5 18q-52 0 -89.5 -56.5t-56 -138t-18.5 -154.5q0 -149 95 -149q35 0 58 6l34 201l149 18q-26 -67 -40.5 -152.5t-16.5 -163.5q-18 -17 -48 -17q-44 0 -71 43q-33 -24 -63 -33l-7 -38q-7 -40 -20.5 -54.5t-45.5 -14.5q-26 0 -39 4
l18 94q-84 10 -126 74t-42 171q0 106 38 199t106.5 155t156.5 76l7 39q8 40 21 54.5t42 14.5q16 0 40 -4l-21 -102q64 -8 103.5 -38.5t39.5 -85.5q0 -51 -32.5 -81.5t-79.5 -30.5q-31 0 -48 11z" />
    <glyph glyph-name="dotaccent" horiz-adv-x="219" 
d="M249.5 718.5q24.5 -18.5 24.5 -52.5q0 -35 -25.5 -53.5t-66.5 -18.5q-40 0 -65 18t-25 52q0 35 26 54t67 19q40 0 64.5 -18.5z" />
    <glyph glyph-name="acute.case" horiz-adv-x="235" 
d="M85 758l239 95q25 -16 25 -49q0 -83 -137 -87l-117 -5z" />
    <glyph glyph-name="circumflex.case" horiz-adv-x="296" 
d="M407 728l-45 -47l-111 62l-139 -62l-29 48l165 116h26z" />
    <glyph glyph-name="dieresis.case" horiz-adv-x="382" 
d="M241.5 830q23.5 -18 23.5 -51q0 -34 -25 -52t-65 -18q-39 0 -63 17.5t-24 50.5q0 34 25.5 52.5t65.5 18.5q39 0 62.5 -18zM463.5 830q23.5 -18 23.5 -51q0 -34 -25 -52t-65 -18q-39 0 -63 17.5t-24 50.5q0 34 25.5 52.5t65.5 18.5q39 0 62.5 -18z" />
    <glyph glyph-name="grave.case" horiz-adv-x="253" 
d="M350 712l-117 5q-61 3 -99.5 22t-38.5 65q0 17 6 29t19 21l240 -96z" />
    <glyph glyph-name="acute.loclPLK.case" horiz-adv-x="235" 
d="M238 857q79 0 79 -41q0 -20 -19 -47.5t-64 -76.5l-66 8z" />
    <glyph glyph-name="ring.case" horiz-adv-x="197" 
d="M268 716.5q-37 -26.5 -86 -26.5q-42 0 -66 18t-24 51q0 43 37.5 69.5t86.5 26.5q41 0 65 -18t24 -51q0 -43 -37 -69.5zM206 818q-22 0 -36.5 -17t-14.5 -43q0 -34 34 -34q22 0 37 17t15 42q0 35 -35 35z" />
    <glyph glyph-name="tilde.case" horiz-adv-x="329" 
d="M437 791q0 -32 -23 -49.5t-64 -17.5q-30 0 -97 9q-68 8 -88 8q-19 0 -35.5 -4.5t-25.5 -11.5q-19 26 -19 51q0 29 23.5 45t66.5 16q34 0 99 -9q70 -8 90 -8q41 0 55 17q18 -22 18 -46z" />
    <glyph glyph-name="acute.loclPLK" horiz-adv-x="255" 
d="M218 777q79 0 79 -41q0 -20 -18 -46.5t-51 -62.5l-58 -64l-45 20z" />
    <glyph glyph-name=".ttfautohint" horiz-adv-x="94" 
d="M0 0z" />
    </font>
</defs>
</svg>
