<?xml version="1.0" standalone="no"?>
<!DOCTYPE svg PUBLIC "-//W3C//DTD SVG 1.1//EN" "http://www.w3.org/Graphics/SVG/1.1/DTD/svg11.dtd" >
<svg xmlns="http://www.w3.org/2000/svg" xmlns:xlink="http://www.w3.org/1999/xlink" version="1.1">
<metadata>
Created by FontForge 20170731 at Sun Dec  4 11:51:18 2016
 By Aleksey,,,
Copyright 2016 The Sansita Project Authors (omnibus.type@gmail.com)
</metadata>
<defs>
<font id="Sansita-ExtraBold" horiz-adv-x="621" >
  <font-face 
    font-family="Sansita ExtraBold"
    font-weight="800"
    font-stretch="normal"
    units-per-em="1000"
    panose-1="3 6 8 2 3 8 2 2 5 6"
    ascent="800"
    descent="-200"
    x-height="510"
    cap-height="660"
    bbox="-80 -258 1005 911"
    underline-thickness="50"
    underline-position="-150"
    unicode-range="U+000D-2215"
  />
<missing-glyph horiz-adv-x="514" 
d="M6 0v700h500v-700h-500zM256 395l169 255h-340zM55 605v-510l171 255zM286 350l169 -255v510zM86 50h340l-171 255z" />
    <glyph glyph-name="f_f" unicode="ff" horiz-adv-x="679" 
d="M777.5 700.5q58.5 -19.5 58.5 -71.5q0 -37 -33.5 -54.5t-79.5 -17.5q-13 0 -29.5 2t-23.5 7q2 11 3 25t1 25q0 25 -9.5 41t-30.5 16q-32 0 -40.5 -28t-8.5 -77v-58h88v-45h-88v-465l-196 -15v480h-125v-465l-196 -15v480h-67v45h67l3 39q8 95 78 128t191 33q99 0 140 -29
q84 39 161 39q78 0 136.5 -19.5zM279 635.5q-15 -27.5 -15 -77.5v-48h125q7 70 7 90q0 63 -63 63q-39 0 -54 -27.5z" />
    <glyph glyph-name="fi" unicode="fi" horiz-adv-x="635" 
d="M376 659q-15 14 -43 14q-40 0 -54.5 -27.5t-14.5 -77.5v-58h317v-393q0 -65 31 -105q-15 -13 -41.5 -20t-50.5 -7q-65 0 -100 31t-35 94v355h-121v-465l-196 -15v480h-67v45h67l3 39q6 95 79 133t190 38q95 0 173.5 -16.5t78.5 -67.5q0 -42 -38 -60.5t-92 -18.5
q-19 0 -40.5 3t-35.5 8q5 22 5 49q0 28 -15 42z" />
    <glyph glyph-name="fl" unicode="fl" horiz-adv-x="634" 
d="M580 117q0 -65 31 -105q-15 -13 -41.5 -20t-50.5 -7q-65 0 -100 31t-35 94v502q0 25 -14 38t-40 13q-39 0 -52.5 -27t-13.5 -78v-48h88v-45h-88v-465l-196 -15v480h-67v45h67l3 39q8 95 77.5 133t185.5 38q69 0 112 -14l134 14v-603z" />
    <glyph glyph-name=".notdef" horiz-adv-x="514" 
d="M6 0v700h500v-700h-500zM256 395l169 255h-340zM55 605v-510l171 255zM286 350l169 -255v510zM86 50h340l-171 255z" />
    <glyph glyph-name=".null" horiz-adv-x="0" 
 />
    <glyph glyph-name="nonmarkingreturn" unicode="&#xd;" horiz-adv-x="175" 
 />
    <glyph glyph-name="NULL" horiz-adv-x="0" 
 />
    <glyph glyph-name="NULL" horiz-adv-x="0" 
 />
    <glyph glyph-name="space" unicode=" " horiz-adv-x="175" 
 />
    <glyph glyph-name="exclam" unicode="!" horiz-adv-x="252" 
d="M189.5 654q23.5 -27 23.5 -77q0 -46 -10 -130l-22 -255q-17 -12 -48 -12q-29 0 -43.5 10.5t-20 29.5t-8.5 53l-31 376q14 15 38.5 23.5t49.5 8.5q48 0 71.5 -27zM207 119q29 -21 29 -59t-30.5 -59t-79.5 -21q-48 0 -77.5 20.5t-29.5 57.5q0 39 31.5 60.5t79.5 21.5
t77 -21z" />
    <glyph glyph-name="quotedbl" unicode="&#x22;" horiz-adv-x="409" 
d="M30 563q0 91 -18 161q34 6 57 6q54 0 80.5 -25t26.5 -79q0 -38 -17 -87.5t-41 -78.5h-97q9 44 9 103zM238 563q0 90 -18 161q34 6 56 6q55 0 81.5 -25t26.5 -79q0 -38 -17 -87.5t-41 -78.5h-97q9 44 9 103z" />
    <glyph glyph-name="numbersign" unicode="#" 
d="M485 648v-153h87q12 -21 12 -44q0 -39 -17 -57.5t-46 -18.5h-36v-112h87q12 -21 12 -44q0 -37 -17 -56t-46 -19h-36v-76q0 -32 -17 -50t-54 -18q-23 0 -49 12v132h-100v-76q0 -68 -72 -68q-22 0 -48 12v132h-97q-12 21 -12 44q0 37 17 56t46 19h46v112h-97q-12 21 -12 45
q0 39 17 57t46 18h46v97q0 68 72 68q22 0 48 -12v-153h100v97q0 32 17.5 50t54.5 18q22 0 48 -12zM365 375h-100v-112h100v112z" />
    <glyph glyph-name="dollar" unicode="$" 
d="M511 46q-59 -52 -159 -64v-38q0 -28 -14 -45t-42 -17q-18 0 -44 11v86q-87 5 -145 36.5t-58 97.5q0 52 36 82.5t89 30.5q33 0 52 -6q-6 -30 -6 -55q0 -53 18 -83t63 -30q37 0 59 20t22 56q0 32 -18 54.5t-45 38t-74 36.5q-58 26 -94 48.5t-61.5 59.5t-25.5 92
q0 81 58 132.5t147 65.5v39q0 28 14 45t42 17q18 0 44 -11v-86q78 -6 132 -36t54 -88q0 -51 -35 -77t-90 -26q-30 0 -52 7q6 33 6 65q0 82 -67 82q-29 0 -46.5 -17.5t-17.5 -47.5q0 -35 18.5 -59t46.5 -40t76 -37q56 -25 91.5 -46t60 -57t24.5 -90q0 -94 -59 -146z" />
    <glyph glyph-name="percent" unicode="%" horiz-adv-x="1022" 
d="M812 648l-450 -622q-16 -23 -31.5 -35.5t-35.5 -12.5q-49 0 -71 56l450 621q16 23 31.5 35.5t35.5 12.5q49 0 71 -55zM354.5 626.5q50.5 -53.5 50.5 -138.5q0 -55 -23 -101.5t-66 -74t-100 -27.5q-56 0 -99 26.5t-66 71.5t-23 98q0 56 22.5 101.5t65 71.5t100.5 26
q88 0 138.5 -53.5zM179 485q0 -65 8.5 -106.5t28.5 -41.5q38 0 38 148q0 143 -38 143q-37 0 -37 -143zM944.5 319.5q50.5 -53.5 50.5 -138.5q0 -55 -23 -101.5t-66 -74t-100 -27.5q-56 0 -99 26.5t-66 71t-23 98.5q0 56 22.5 101.5t65 71.5t100.5 26q88 0 138.5 -53.5z
M768 178q0 -148 38 -148t38 148q0 143 -38 143t-38 -143z" />
    <glyph glyph-name="ampersand" unicode="&#x26;" horiz-adv-x="717" 
d="M728 51q0 -37 -27.5 -54t-74.5 -17q-66 0 -141 40q-78 -40 -180 -40q-78 0 -142.5 23t-103.5 71t-39 118q0 62 36.5 104t99.5 59q-55 100 -55 167q0 79 66 118t161 40q84 0 147 -30.5t63 -95.5q0 -45 -34.5 -70.5t-82.5 -25.5q-26 0 -49 6q6 29 6 52q0 95 -62 95
q-43 0 -43 -69q0 -61 26 -130.5t72 -132.5t103 -107q5 29 5 78q0 85 -40 122q12 9 30.5 14t38.5 5q61 0 94.5 -32t33.5 -92q0 -90 -45 -155q27 -8 58 -8q19 0 36.5 4t23.5 9q19 -35 19 -66zM228.5 110q39.5 -47 116.5 -47q34 0 58 9q-52 38 -107.5 96.5t-98.5 122.5
q-4 -10 -6 -25.5t-2 -27.5q0 -81 39.5 -128z" />
    <glyph glyph-name="quotesingle" unicode="'" horiz-adv-x="201" 
d="M30 563q0 91 -18 161q34 6 57 6q54 0 80.5 -25t26.5 -79q0 -38 -17 -87.5t-41 -78.5h-97q9 44 9 103z" />
    <glyph glyph-name="parenleft" unicode="(" horiz-adv-x="327" 
d="M377 780q-92 -65 -134.5 -193.5t-42.5 -286.5t42.5 -286.5t134.5 -193.5q-19 -20 -54 -20q-74 0 -136.5 64t-99 178.5t-36.5 257.5t36.5 257.5t99 178.5t136.5 64q35 0 54 -20z" />
    <glyph glyph-name="parenright" unicode=")" horiz-adv-x="327" 
d="M140.5 736q62.5 -64 99 -178.5t36.5 -257.5t-36.5 -257.5t-99 -178.5t-136.5 -64q-35 0 -54 20q92 65 134 193t42 287t-42 287t-134 193q19 20 54 20q74 0 136.5 -64z" />
    <glyph glyph-name="asterisk" unicode="*" horiz-adv-x="456" 
d="M402 569q5 -17 5 -27q0 -43 -62 -64q-18 -6 -39 -9l77 -81q-12 -26 -35 -43q-20 -15 -41 -15q-32 0 -63 42q-18 26 -30 60l-64 -117q-30 3 -51 20q-30 22 -30 51q0 26 23 56q16 21 31 35l-104 19q-2 14 -2 20q0 16 5 34q16 48 59 48q20 0 41 -8q25 -8 47 -22l-15 115
q25 14 53 14q40 0 54.5 -23t14.5 -60q0 -22 -6 -48l102 49q20 -19 30 -46z" />
    <glyph glyph-name="plus" unicode="+" 
d="M523 246q0 -27 -17 -41t-46 -14h-94v-116q0 -31 -16 -49.5t-46 -18.5q-27 0 -49 10v174h-146q-11 22 -11 44q0 27 17 41t46 14h94v106q0 31 15.5 49.5t46.5 18.5q27 0 49 -10v-164h146q11 -22 11 -44z" />
    <glyph glyph-name="comma" unicode="," horiz-adv-x="250" 
d="M230 28q0 -43 -22.5 -80.5t-60.5 -60t-82 -22.5q-24 0 -45 6q47 67 47 139q0 61 -27 111q10 8 32.5 13.5t42.5 5.5q115 0 115 -112z" />
    <glyph glyph-name="hyphen" unicode="-" horiz-adv-x="372" 
d="M29 219q0 66 71 69l237 12q3 -7 5 -18.5t2 -18.5q0 -34 -18.5 -50.5t-54.5 -18.5l-237 -12q-5 17 -5 37z" />
    <glyph glyph-name="period" unicode="." horiz-adv-x="252" 
d="M207 119q29 -21 29 -59t-30.5 -59t-79.5 -21q-48 0 -77.5 20.5t-29.5 57.5q0 39 31.5 60.5t79.5 21.5t77 -21z" />
    <glyph glyph-name="slash" unicode="/" horiz-adv-x="340" 
d="M291 785.5q24 -15.5 24 -50.5q0 -22 -6 -45l-156 -887q-18 -3 -40 -3q-40 0 -63.5 15.5t-23.5 49.5q0 21 5 46l156 887q18 3 40 3q40 0 64 -15.5z" />
    <glyph glyph-name="zero" unicode="0" 
d="M528 592q73 -88 73 -253t-75 -263t-216 -98q-92 0 -157.5 43t-99 121.5t-33.5 183.5q0 166 73.5 260t216.5 94q145 0 218 -88zM369 127.5q17 75.5 17 205.5t-16.5 201.5t-59.5 71.5q-42 0 -58.5 -72t-16.5 -201q0 -130 16.5 -205.5t58.5 -75.5t59 75.5z" />
    <glyph glyph-name="one" unicode="1" 
d="M598 90v-90h-515v90h160v393q-25 -19 -59 -32t-66 -13q-45 0 -65 24.5t-20 75.5q229 67 372 142l53 -25v-565h140z" />
    <glyph glyph-name="two" unicode="2" 
d="M479.5 629q79.5 -51 79.5 -149q0 -152 -190 -278q-38 -25 -110 -67l316 10v-145h-527l-7 73q48 41 81 72q101 75 162 145t61 138q0 58 -37 86.5t-105 28.5q-42 0 -72 -21.5t-54 -61.5q-40 25 -40 72q0 51 34 84t87.5 48.5t111.5 15.5q130 0 209.5 -51z" />
    <glyph glyph-name="three" unicode="3" 
d="M471.5 641.5q65.5 -38.5 65.5 -121.5q0 -56 -33 -97t-88 -60q77 -12 116 -53t39 -114q0 -104 -80.5 -161t-221.5 -57q-53 0 -101.5 15.5t-79.5 48.5t-31 84q0 40 26 63q22 -37 57.5 -55.5t81.5 -18.5q61 0 97.5 25t36.5 70q0 90 -104 90q-20 0 -50 -2v76q71 0 116 18.5
t45 70.5q0 39 -38 59.5t-94 20.5q-42 0 -71 -21t-56 -63q-33 24 -39 73q0 75 69 111.5t162 36.5q110 0 175.5 -38.5z" />
    <glyph glyph-name="four" unicode="4" 
d="M522 251h104l-9 -131h-94v-120h-224v120h-271q-23 20 -23 58t28 78l274 404h215v-409zM305 513l-171 -262h171v262z" />
    <glyph glyph-name="five" unicode="5" 
d="M522 515h-332l-11 -99q57 6 126 6q133 0 202.5 -49t69.5 -158q0 -74 -38.5 -127.5t-107 -81.5t-157.5 -28q-93 0 -162 36.5t-69 111.5q0 40 26 63q17 -38 56.5 -56t103.5 -18q55 0 94.5 25.5t39.5 69.5q0 61 -44.5 81.5t-128.5 20.5q-63 0 -121 -4l36 352h407z" />
    <glyph glyph-name="six" unicode="6" 
d="M452 669q47 -11 79.5 -35t32.5 -61q0 -40 -25 -62q-25 18 -65.5 28.5t-76.5 10.5q-55 0 -86 -17.5t-43.5 -53t-12.5 -94.5q61 53 156 53q105 0 149 -63.5t44 -146.5q0 -78 -35 -134.5t-97 -86t-142 -29.5q-93 0 -162 41t-106 114.5t-37 168.5q0 109 37 194.5t112 134.5
t186 49q45 0 92 -11zM254 205q0 -153 76 -153q75 0 75 153q0 149 -75 149q-76 0 -76 -149z" />
    <glyph glyph-name="seven" unicode="7" 
d="M588 660l7 -73l-264 -610l-231 24l285 524l-346 -20v155h549z" />
    <glyph glyph-name="eight" unicode="8" 
d="M510.5 434q-35.5 -41 -86.5 -65q79 -42 122 -85.5t43 -109.5q0 -100 -81 -148t-201 -48q-117 0 -195.5 47t-78.5 144q0 92 139 160q-53 34 -84.5 78t-31.5 97q0 93 73 134.5t185 41.5q97 0 164.5 -39t67.5 -118q0 -48 -35.5 -89zM274.5 473q26.5 -28 75.5 -59
q15 21 23.5 51.5t8.5 57.5q0 37 -17 60t-51 23q-33 0 -49.5 -19t-16.5 -54q0 -32 26.5 -60zM347.5 203q-32.5 30 -99.5 73q-14 -24 -22 -55.5t-8 -58.5q0 -48 23 -79t66 -31q36 0 54.5 22.5t18.5 61.5q0 37 -32.5 67z" />
    <glyph glyph-name="nine" unicode="9" 
d="M452.5 638.5q69.5 -41.5 106.5 -115t37 -167.5q0 -109 -37 -194.5t-112.5 -134.5t-185.5 -49q-45 0 -92 11t-79.5 35t-32.5 61q0 40 25 62q25 -18 65.5 -28.5t76.5 -10.5q56 0 86.5 17.5t43 53t12.5 94.5q-61 -53 -156 -53q-105 0 -149 63.5t-44 146.5q0 78 35 134.5
t97 86t142 29.5q92 0 161.5 -41.5zM216 453q0 -149 75 -149q76 0 76 149q0 153 -76 153q-75 0 -75 -153z" />
    <glyph glyph-name="colon" unicode=":" horiz-adv-x="257" 
d="M20 0zM208 509q29 -21 29 -59t-30.5 -59t-79.5 -21q-48 0 -77.5 20.5t-29.5 57.5q0 39 31.5 60.5t79.5 21.5t77 -21zM208 119q29 -21 29 -59t-30.5 -59t-79.5 -21q-48 0 -77.5 20.5t-29.5 57.5q0 39 31.5 60.5t79.5 21.5t77 -21z" />
    <glyph glyph-name="semicolon" unicode=";" horiz-adv-x="263" 
d="M27 0zM215 509q29 -21 29 -59t-30.5 -59t-79.5 -21q-48 0 -77.5 20.5t-29.5 57.5q0 39 31.5 60.5t79.5 21.5t77 -21zM238 28q0 -43 -22.5 -80.5t-60.5 -60t-82 -22.5q-24 0 -45 6q47 67 47 139q0 61 -27 111q10 8 32.5 13.5t42.5 5.5q115 0 115 -112z" />
    <glyph glyph-name="less" unicode="&#x3c;" 
d="M498 82q0 -35 -20 -56t-51 -21l-327 232l258 201q6 4 22 17t31 20t31 7q54 0 73 -66l-206 -164l159 -113q30 -23 30 -57z" />
    <glyph glyph-name="equal" unicode="=" 
d="M98 308q0 27 17 41t46 14h351q11 -22 11 -44q0 -27 -17 -41t-46 -14h-351q-11 22 -11 44zM98 132q0 27 17 41t46 14h351q11 -22 11 -44q0 -27 -17 -41t-46 -14h-351q-11 22 -11 44z" />
    <glyph glyph-name="greater" unicode="&#x3e;" 
d="M521 250l-257 -200q-4 -3 -20.5 -17t-32.5 -21t-32 -7q-54 0 -73 66l216 174l-169 113q-14 10 -22 25t-8 32q0 30 20 48.5t51 18.5z" />
    <glyph glyph-name="question" unicode="?" horiz-adv-x="508" 
d="M419 645q69 -35 69 -125q0 -39 -18 -71t-43.5 -55.5t-67.5 -55.5q-52 -40 -76.5 -67t-24.5 -62q-6 -4 -18.5 -6.5t-24.5 -2.5q-32 0 -50 20.5t-18 54.5q0 29 16.5 55t50.5 64q38 42 58 74.5t20 71.5q0 80 -58 80q-61 0 -61 -97q0 -32 6 -65q-22 -7 -52 -7q-55 0 -90 26
t-35 78q0 67 67.5 96t167.5 29q113 0 182 -35zM293 119q29 -21 29 -59t-30.5 -59t-79.5 -21q-48 0 -77.5 20.5t-29.5 57.5q0 39 31.5 60.5t79.5 21.5t77 -21z" />
    <glyph glyph-name="at" unicode="@" horiz-adv-x="797" 
d="M590.5 565.5q83.5 -35.5 131.5 -106.5t48 -173q0 -110 -40.5 -167.5t-138.5 -57.5q-48 0 -79.5 15t-46.5 52q-10 -28 -39.5 -44.5t-73.5 -16.5q-61 0 -102.5 27t-41.5 79q0 68 62 91t162 23v64q0 30 -7.5 45t-30.5 15q-24 0 -33.5 -14.5t-9.5 -45.5q0 -26 1 -37
q-8 -6 -39 -6q-36 0 -59 14.5t-23 44.5q0 48 52.5 68t118.5 20q89 0 133 -28.5t44 -104.5v-155q0 -28 6 -43.5t26 -15.5q35 0 45 37.5t10 115.5q0 140 -64 206.5t-203 66.5q-132 0 -199.5 -74.5t-67.5 -211.5q0 -274 270 -274q117 0 174 46q17 -11 17 -34q0 -40 -62 -62
t-139 -22q-110 0 -192 41t-127 119t-45 186q0 103 45 183t129 125t197 45q108 0 191.5 -35.5zM372.5 229q-20.5 -16 -20.5 -52q0 -24 9.5 -38.5t30.5 -14.5t30.5 19t9.5 46v56q-39 0 -59.5 -16z" />
    <glyph glyph-name="A" unicode="A" horiz-adv-x="590" 
d="M422 660l167 -660h-219l-37 158h-174l-36 -158h-130l180 660h249zM178 242h136l-69 296z" />
    <glyph glyph-name="B" unicode="B" horiz-adv-x="624" 
d="M526 424q-31 -36 -80 -51q78 -14 121 -59t43 -121q0 -105 -90 -154t-219 -49q-114 0 -251 14v649q137 12 255 12q117 0 184.5 -33t67.5 -124q0 -48 -31 -84zM291 385q47 0 69.5 30.5t22.5 82.5q0 93 -77 93q-21 0 -42 -6v-197q14 -3 27 -3zM305 64q50 0 72.5 34t22.5 92
q0 63 -25 95.5t-83 32.5q-10 0 -28 -2v-246q19 -6 41 -6z" />
    <glyph glyph-name="C" unicode="C" horiz-adv-x="589" 
d="M265.5 534.5q-15.5 -71.5 -15.5 -169.5q0 -113 34 -176.5t116 -63.5q88 0 136 84q39 -24 39 -73q0 -51 -34 -87t-87.5 -53.5t-110.5 -17.5q-110 0 -182.5 45.5t-106.5 123.5t-34 179q0 170 82.5 262t246.5 92q95 0 159.5 -31t64.5 -104q0 -52 -36 -82.5t-89 -30.5
q-33 0 -52 6q6 30 6 55q0 51 -14 82t-53 31q-54 0 -69.5 -71.5z" />
    <glyph glyph-name="D" unicode="D" horiz-adv-x="664" 
d="M315 665q168 0 249 -79.5t81 -246.5q0 -171 -87 -260t-257 -89q-114 0 -251 14v649q137 12 265 12zM394 140.5q20 76.5 20 192.5q0 114 -20 186t-79 72q-15 0 -26 -2t-25 -6v-512q25 -7 52 -7q58 0 78 76.5z" />
    <glyph glyph-name="E" unicode="E" horiz-adv-x="456" 
d="M441 660v-84h-177v-195h147v-84h-147v-213h192l-8 -84h-398v660h391z" />
    <glyph glyph-name="F" unicode="F" horiz-adv-x="442" 
d="M441 660v-84h-177v-209h147v-84h-147v-283h-214v660h391z" />
    <glyph glyph-name="G" unicode="G" horiz-adv-x="611" 
d="M250 365q0 -120 25 -190.5t104 -70.5q27 0 51 8l-7 191l156 14v-298q-104 -41 -236 -41q-163 0 -243 96t-80 252q0 173 85 263.5t254 90.5q234 0 234 -135q0 -52 -36 -82.5t-89 -30.5q-33 0 -52 6q6 30 6 55q0 50 -18 81.5t-59 31.5q-95 0 -95 -241z" />
    <glyph glyph-name="H" unicode="H" horiz-adv-x="674" 
d="M624 660v-660h-214v292h-146v-292h-214v660h214v-284h146v284h214z" />
    <glyph glyph-name="I" unicode="I" horiz-adv-x="314" 
d="M264 660v-660h-214v660h214z" />
    <glyph glyph-name="J" unicode="J" horiz-adv-x="314" 
d="M224.5 -118q-39.5 -73 -139.5 -73q-42 0 -76.5 13t-48.5 42q41 5 60.5 31.5t24.5 63t5 93.5v608h214v-581q0 -124 -39.5 -197z" />
    <glyph glyph-name="K" unicode="K" horiz-adv-x="644" 
d="M264 0h-214v660h214v-660zM432 660h212l-157 -307l171 -353h-219l-155 334z" />
    <glyph glyph-name="L" unicode="L" horiz-adv-x="449" 
d="M50 660h214v-570h180l-10 -90h-384v660z" />
    <glyph glyph-name="M" unicode="M" horiz-adv-x="867" 
d="M817 660v-660h-214v511l-162 -511h-116l-162 511v-511h-113v660h276l109 -368l108 368h274z" />
    <glyph glyph-name="N" unicode="N" horiz-adv-x="668" 
d="M368 0l-205 489v-489h-113v660h251l204 -489v489h114v-660h-251z" />
    <glyph glyph-name="O" unicode="O" horiz-adv-x="670" 
d="M572 592q78 -88 78 -253t-80.5 -263t-234.5 -98q-100 0 -171 43.5t-107.5 122.5t-36.5 182q0 166 79 260t236 94q159 0 237 -88zM404 132q16 80 16 201q0 119 -16 196t-69 77t-69 -77t-16 -196q0 -121 16 -201t69 -80t69 80z" />
    <glyph glyph-name="P" unicode="P" horiz-adv-x="618" 
d="M578.5 359q-25.5 -46 -71.5 -71t-106 -25q-48 0 -78.5 17t-30.5 57q57 0 79.5 30.5t22.5 94.5q0 60 -19.5 94.5t-68.5 34.5q-23 0 -42 -6v-585h-214v651q140 14 255 14q138 0 218.5 -44t80.5 -156q0 -60 -25.5 -106z" />
    <glyph glyph-name="Q" unicode="Q" horiz-adv-x="670" 
d="M572 592q78 -88 78 -253q0 -103 -42 -185t-113.5 -128.5t-158.5 -47.5q114 -28 184 -28q31 0 54 6.5t43 25.5q13 -23 20 -41.5t7 -40.5q0 -89 -96 -89q-38 0 -75.5 10.5t-93.5 31.5q-55 21 -93.5 32t-77.5 11q-56 0 -81 -13q-21 24 -21 52q0 38 26.5 51t75.5 14
q-91 36 -139.5 121t-48.5 205q0 166 79 260t236 94q159 0 237 -88zM266 529q-16 -77 -16 -196q0 -121 16 -201t69 -80t69 80t16 201q0 119 -16 196t-69 77t-69 -77z" />
    <glyph glyph-name="R" unicode="R" horiz-adv-x="622" 
d="M563.5 349.5q-30.5 -48.5 -85.5 -70.5l158 -279h-219l-116 298q-9 23 -9 39q53 0 72 31t19 94q0 59 -16.5 94t-60.5 35q-23 0 -42 -6v-585h-214v651q140 14 255 14q138 0 213.5 -43t75.5 -157q0 -67 -30.5 -115.5z" />
    <glyph glyph-name="S" unicode="S" horiz-adv-x="555" 
d="M452 650.5q68 -29.5 68 -95.5q0 -51 -35 -77t-90 -26q-30 0 -52 7q6 33 6 65q0 82 -67 82q-30 0 -47.5 -17.5t-17.5 -47.5q0 -36 18.5 -61.5t46.5 -42.5t76 -40q58 -29 93 -51.5t59.5 -60.5t24.5 -93q0 -110 -79 -162t-204 -52q-97 0 -167.5 31t-70.5 104q0 52 35.5 82.5
t89.5 30.5q33 0 52 -6q-6 -30 -6 -55q0 -53 18 -83t63 -30q37 0 58.5 20t21.5 56t-18.5 61.5t-46.5 42.5t-76 40q-58 29 -92.5 51.5t-59 60.5t-24.5 93q0 65 37.5 110.5t99 69t130.5 23.5q88 0 156 -29.5z" />
    <glyph glyph-name="T" unicode="T" horiz-adv-x="506" 
d="M501 660l-8 -84h-133v-576h-214v576h-138v84h493z" />
    <glyph glyph-name="U" unicode="U" horiz-adv-x="610" 
d="M511.5 51q-57.5 -73 -196.5 -73q-140 0 -206.5 63t-66.5 200v419h214v-408q0 -69 6 -108.5t23 -60.5t51 -21t52 21.5t24 64t6 115.5v397h151v-386q0 -150 -57.5 -223z" />
    <glyph glyph-name="V" unicode="V" horiz-adv-x="584" 
d="M599 660l-184 -660h-255l-157 660h220l110 -538l108 538h158z" />
    <glyph glyph-name="W" unicode="W" horiz-adv-x="965" 
d="M979 660l-183 -660h-256l-64 329l-60 -329h-256l-157 660h220l110 -538l108 538h161l111 -538l108 538h158z" />
    <glyph glyph-name="X" unicode="X" horiz-adv-x="529" 
d="M544 660l-166 -325l165 -335h-219l-103 223l-77 -223h-158l170 340l-156 320h219l94 -211l73 211h158z" />
    <glyph glyph-name="Y" unicode="Y" horiz-adv-x="553" 
d="M377 299v-299h-215v290l-161 370h219l92 -261l75 261h158z" />
    <glyph glyph-name="Z" unicode="Z" horiz-adv-x="479" 
d="M463 660l7 -76l-234 -494h247l-11 -90h-458l-7 76l234 494h-214v90h436z" />
    <glyph glyph-name="bracketleft" unicode="[" horiz-adv-x="340" 
d="M344 761q0 -18 -11 -27.5t-31 -9.5h-75v-847h75q20 0 31 -9.5t11 -27.5q0 -16 -7 -30h-263v981h263q7 -14 7 -30z" />
    <glyph glyph-name="backslash" unicode="\" horiz-adv-x="340" 
d="M153 798l156 -887q6 -23 6 -46q0 -34 -24 -49.5t-64 -15.5q-22 0 -40 3l-156 887q-5 25 -5 45q0 35 23.5 50.5t63.5 15.5q22 0 40 -3z" />
    <glyph glyph-name="bracketright" unicode="]" horiz-adv-x="340" 
d="M3 -190q-7 14 -7 30q0 18 11 27.5t31 9.5h75v847h-75q-20 0 -31 9.5t-11 27.5q0 16 7 30h263v-981h-263z" />
    <glyph glyph-name="asciicircum" unicode="^" horiz-adv-x="531" 
d="M415.5 457.5q43.5 -80.5 108.5 -129.5q-17 -51 -84 -51q-65 0 -110.5 59t-83.5 195q-49 -135 -90.5 -194.5t-84.5 -59.5q-48 0 -64 51q69 39 120 128t80 204h138q27 -122 70.5 -202.5z" />
    <glyph glyph-name="underscore" unicode="_" horiz-adv-x="507" 
d="M7 -108q0 34 20 51.5t55 17.5h413q5 -13 5 -33q0 -34 -20 -51.5t-56 -17.5h-413q-4 13 -4 33z" />
    <glyph glyph-name="grave" unicode="`" horiz-adv-x="294" 
d="M122 614q-55 16 -83.5 32.5t-28.5 50.5q0 22 16 43t38 31l220 -150l-22 -47z" />
    <glyph glyph-name="a" unicode="a" horiz-adv-x="581" 
d="M299 -6q-36 -16 -81 -16q-86 0 -144 38.5t-58 112.5q0 96 91 129t231 33v87q0 45 -11.5 70t-44.5 25q-71 0 -71 -91q0 -18 4 -50q-7 -5 -24 -7t-30 -2q-48 0 -80 20.5t-32 62.5q0 66 74 95t166 29q119 0 182 -42t63 -146v-225q0 -65 31 -105q-15 -13 -41.5 -20t-50.5 -7
q-93 0 -122 60q-16 -35 -52 -51zM323 79q15 30 15 74v88q-63 0 -95 -25t-32 -83q0 -37 15.5 -60.5t47.5 -23.5q34 0 49 30z" />
    <glyph glyph-name="b" unicode="b" horiz-adv-x="601" 
d="M250 600q0 -93 -9 -130q45 60 139 60q103 0 148 -73t45 -195q0 -137 -72 -210.5t-207 -73.5q-57 0 -124 15t-116 39v668l196 20v-120zM301 38q46 0 59 60t13 159q0 91 -12 144t-53 53q-27 0 -40 -20t-15.5 -46.5t-2.5 -68.5v-263q21 -18 51 -18z" />
    <glyph glyph-name="c" unicode="c" horiz-adv-x="505" 
d="M228 264q0 -78 23.5 -121.5t86.5 -43.5q39 0 67.5 20.5t44.5 57.5q18 -4 28 -19.5t10 -35.5q0 -70 -55.5 -107t-134.5 -37q-129 0 -199.5 74.5t-70.5 206.5t72.5 201.5t205.5 69.5q84 0 139.5 -29t55.5 -97q0 -41 -32.5 -62t-80.5 -21q-13 0 -29.5 2t-23.5 7q4 32 4 51
q0 39 -9.5 64t-37.5 25q-64 0 -64 -206z" />
    <glyph glyph-name="d" unicode="d" horiz-adv-x="601" 
d="M578 12q-15 -13 -42 -20t-51 -7q-92 0 -121 60q-44 -67 -140 -67q-104 0 -150 77.5t-46 201.5q0 134 69.5 203.5t202.5 69.5q28 0 51 -3v173l196 20v-603q0 -65 31 -105zM300 470q-44 0 -58 -58t-14 -150q0 -93 12 -150.5t53 -57.5q32 0 45 30.5t13 73.5v294
q-23 18 -51 18z" />
    <glyph glyph-name="e" unicode="e" horiz-adv-x="539" 
d="M495 148.5q7 -15.5 7 -33.5q0 -45 -30 -76t-76.5 -46t-97.5 -15q-129 0 -199.5 74.5t-70.5 206.5q0 134 74.5 202.5t211.5 68.5q88 0 149 -36t61 -109q0 -90 -65 -123.5t-179 -33.5q-33 0 -51 3q4 -63 28.5 -97.5t80.5 -34.5q43 0 80 18.5t56 53.5q14 -7 21 -22.5z
M322.5 300.5q30.5 24.5 30.5 84.5q0 36 -12.5 60.5t-40.5 24.5q-69 0 -72 -194q64 0 94.5 24.5z" />
    <glyph glyph-name="f" unicode="f" horiz-adv-x="358" 
d="M68 -15v480h-67v45h67l3 49q10 161 249 161q79 0 137 -19.5t58 -71.5q0 -37 -33 -54.5t-79 -17.5q-13 0 -30 2t-24 7q2 11 3 25t1 25q0 25 -9.5 41t-30.5 16q-31 0 -40 -28t-9 -77v-58h88v-45h-88v-465z" />
    <glyph glyph-name="g" unicode="g" horiz-adv-x="597" 
d="M332 -116q16 27 20 70.5t4 122.5v34q-45 -52 -139 -52q-96 0 -142.5 61.5t-46.5 167.5q0 120 67 181t191 61q67 0 121 -20l136 20v-429q0 -108 -24.5 -173t-83 -96.5t-161.5 -31.5q-50 0 -99.5 13t-83 41t-33.5 70q0 41 32.5 62t80.5 21q13 0 29.5 -2t23.5 -7
q-4 -32 -4 -51q0 -90 61 -90q35 0 51 27zM296 470q-44 0 -56 -46t-12 -124q0 -72 10.5 -118.5t50.5 -46.5q32 0 45 31.5t13 76.5v213q-21 14 -51 14z" />
    <glyph glyph-name="h" unicode="h" horiz-adv-x="601" 
d="M250 600q0 -93 -9 -130q23 31 59.5 45.5t80.5 14.5q91 0 132 -46.5t41 -141.5v-225q0 -65 31 -105q-15 -13 -42 -20t-51 -7q-64 0 -99 31t-35 94v230q0 54 -8.5 84t-41.5 30q-27 0 -40 -19.5t-15.5 -46t-2.5 -68.5v-320h-196v700l196 20v-120z" />
    <glyph glyph-name="i" unicode="i" horiz-adv-x="296" 
d="M226 729q29 -21 29 -59t-30.5 -59t-79.5 -21q-48 0 -77.5 20.5t-29.5 57.5q0 39 31.5 60.5t79.5 21.5t77 -21zM243 117q0 -65 31 -105q-15 -13 -42 -20t-51 -7q-65 0 -99.5 31t-34.5 94v400h196v-393z" />
    <glyph glyph-name="j" unicode="j" horiz-adv-x="303" 
d="M233 729q29 -21 29 -59t-30.5 -59t-79.5 -21q-48 0 -77.5 20.5t-29.5 57.5q0 39 31.5 60.5t79.5 21.5t77 -21zM214 -133q-36 -67 -127 -67q-38 0 -70.5 11.5t-44.5 38.5q37 5 55 29t22.5 57t4.5 85v489h196v-464q0 -112 -36 -179z" />
    <glyph glyph-name="k" unicode="k" horiz-adv-x="572" 
d="M54 0v700l196 20v-720h-196zM405 510h167l-139 -200l146 -310h-212l-103 281z" />
    <glyph glyph-name="l" unicode="l" horiz-adv-x="296" 
d="M243 720v-603q0 -65 31 -105q-15 -13 -42 -20t-51 -7q-65 0 -99.5 31t-34.5 94v590z" />
    <glyph glyph-name="m" unicode="m" horiz-adv-x="890" 
d="M47 510l158 12l8 -90q20 52 61 75t102 23q112 0 151 -79q41 79 150 79q87 0 126.5 -47.5t39.5 -140.5v-225q0 -65 31 -105q-15 -13 -41.5 -20t-50.5 -7q-65 0 -100 31t-35 94v230q0 54 -8 84t-38 30q-35 0 -44.5 -36.5t-9.5 -97.5v-320h-196v340q0 54 -8.5 84t-41.5 30
q-27 0 -40 -19.5t-15.5 -46t-2.5 -68.5v-320h-196v510z" />
    <glyph glyph-name="n" unicode="n" horiz-adv-x="594" 
d="M47 510l158 12l8 -90q20 52 61 75t102 23q90 0 130.5 -47t40.5 -141v-225q0 -65 31 -105q-15 -13 -42 -20t-51 -7q-64 0 -99 31t-35 94v230q0 54 -8.5 84t-41.5 30q-27 0 -40 -19.5t-15.5 -46t-2.5 -68.5v-320h-196v510z" />
    <glyph glyph-name="o" unicode="o" horiz-adv-x="584" 
d="M488.5 460.5q67.5 -69.5 67.5 -198.5q0 -85 -31 -149t-90.5 -99.5t-142.5 -35.5q-81 0 -140.5 34t-91.5 96t-32 144q0 131 68.5 204.5t195.5 73.5q129 0 196.5 -69.5zM344.5 99q11.5 61 11.5 158q0 96 -11.5 154.5t-52.5 58.5t-52.5 -58.5t-11.5 -154.5q0 -97 11.5 -158
t52.5 -61t52.5 61z" />
    <glyph glyph-name="p" unicode="p" horiz-adv-x="601" 
d="M529 456.5q44 -73.5 44 -194.5q0 -137 -72 -210.5t-207 -73.5q-23 0 -44 3v-161l-196 -13v703l158 12l8 -90q20 52 61.5 75t102.5 23q101 0 145 -73.5zM268 434q-13 -20 -15.5 -46.5t-2.5 -68.5v-263q21 -18 51 -18q46 0 59 60t13 159q0 91 -12 144t-53 53q-27 0 -40 -20
z" />
    <glyph glyph-name="q" unicode="q" horiz-adv-x="594" 
d="M351 -92q0 94 9 131q-45 -61 -139 -61q-103 0 -148 73t-45 195q0 133 67 208.5t195 75.5q67 0 121 -20l136 20v-710l-196 -20v108zM300 470q-46 0 -59 -60t-13 -159q0 -92 11.5 -144.5t53.5 -52.5q27 0 40 20.5t15.5 47t2.5 69.5v261q-23 18 -51 18z" />
    <glyph glyph-name="r" unicode="r" horiz-adv-x="488" 
d="M250 412.5q-7 -31.5 -7 -92.5v-320h-196v510l158 12l8 -90q17 47 54.5 72.5t88.5 25.5q64 0 101.5 -35.5t37.5 -98.5q0 -53 -29.5 -82.5t-83.5 -29.5q-13 0 -30.5 2.5t-24.5 7.5q6 26 6 59q0 91 -47 91q-29 0 -36 -31.5z" />
    <glyph glyph-name="s" unicode="s" horiz-adv-x="483" 
d="M219.5 459.5q-13.5 -13.5 -13.5 -36.5q0 -27 15.5 -47.5t38.5 -35.5t63 -36q46 -25 73 -43.5t46.5 -46t19.5 -65.5q0 -89 -65.5 -130t-171.5 -41q-82 0 -145 25.5t-63 84.5q0 41 32.5 61.5t80.5 20.5q13 0 30 -2t24 -7q-4 -32 -4 -50q0 -36 11.5 -56t40.5 -20
q26 0 41 17.5t15 45.5q0 27 -15.5 47.5t-38.5 35.5t-63 36q-46 24 -73.5 43t-47 46.5t-19.5 65.5q0 82 66 120t164 38q76 0 138.5 -23t62.5 -75q0 -37 -34 -58.5t-78 -21.5q-13 0 -30 2t-24 7q2 11 3 25t1 25q0 27 -11 44.5t-34 17.5q-22 0 -35.5 -13.5z" />
    <glyph glyph-name="t" unicode="t" horiz-adv-x="338" 
d="M5 465v31q50 18 108.5 52.5t94.5 70.5h56v-109h91v-45h-91v-349q0 -31 12 -48.5t40 -24.5q-15 -30 -48 -44t-72 -14q-62 0 -95 32t-33 93v355h-63z" />
    <glyph glyph-name="u" unicode="u" horiz-adv-x="605" 
d="M551 117q0 -65 31 -105q-15 -13 -42 -20t-51 -7q-93 0 -121 60q-44 -67 -140 -67q-74 0 -113.5 31t-53.5 86t-14 141v274h200v-269q0 -67 2.5 -103.5t13 -60t34.5 -23.5q58 0 58 108v348h196v-393z" />
    <glyph glyph-name="v" unicode="v" horiz-adv-x="550" 
d="M559 510l-162 -510h-250l-137 510h205l85 -432l85 432h174z" />
    <glyph glyph-name="w" unicode="w" horiz-adv-x="813" 
d="M822 510l-148 -510h-219l-54 233l-49 -233h-219l-123 510h205l71 -432l70 432h161l70 -432l71 432h164z" />
    <glyph glyph-name="x" unicode="x" horiz-adv-x="486" 
d="M206 164l-46 -164h-167l146 268l-132 242h212l65 -142l33 142h167l-137 -252l143 -258h-212z" />
    <glyph glyph-name="y" unicode="y" horiz-adv-x="533" 
d="M538 510l-249 -703l-196 13l118 239h-75l-126 451h205l78 -372l84 372h161z" />
    <glyph glyph-name="z" unicode="z" horiz-adv-x="432" 
d="M411 510l6 -59l-193 -367l195 15l-10 -99h-402l-6 59l192 366l-173 -13l10 98h381z" />
    <glyph glyph-name="braceleft" unicode="{" horiz-adv-x="386" 
d="M383 792v-58h-30q-42 0 -61.5 -21.5t-19.5 -66.5l1 -227q0 -49 -23.5 -72.5t-78.5 -30.5q41 -6 62.5 -18.5t30.5 -35.5t9 -63v-208q0 -124 79 -124h30v-59q-60 -8 -104 -8q-76 0 -116.5 27t-40.5 93v248q0 48 -25.5 77t-68.5 30v72q50 0 73.5 24t23.5 74v237q0 64 37 91
t119 27q54 0 103 -8z" />
    <glyph glyph-name="bar" unicode="|" horiz-adv-x="311" 
d="M229 800h-147v-1000h147v1000z" />
    <glyph glyph-name="braceright" unicode="}" horiz-adv-x="385" 
d="M136.5 346.5q23.5 -23.5 78.5 -30.5q-41 -6 -62.5 -18.5t-30.5 -35.5t-9 -63v-208q0 -54 -16.5 -89t-62.5 -35h-30v-59q60 -8 105 -8q75 0 116 27t41 93v248q0 48 25 77t68 30v72q-49 0 -72.5 24t-23.5 74v237q0 64 -37 91t-120 27q-52 0 -103 -8v-58h31q42 0 61 -21.5
t19 -66.5l-1 -227q0 -49 23.5 -72.5z" />
    <glyph glyph-name="asciitilde" unicode="~" 
d="M374 266q-27 5 -54 11q-43 10 -71 14.5t-55 4.5q-98 0 -98 -60q0 -17 9.5 -34.5t23.5 -29.5q16 28 72 28q19 0 45.5 -5t53.5 -11q46 -10 73 -14.5t54 -4.5q98 0 98 60q0 17 -9.5 34.5t-23.5 29.5q-16 -28 -72 -28q-19 0 -46 5z" />
    <glyph glyph-name="uni00A0" unicode="&#xa0;" horiz-adv-x="175" 
 />
    <glyph glyph-name="exclamdown" unicode="&#xa1;" horiz-adv-x="252" 
d="M207 508q29 -21 29 -59t-30.5 -59t-79.5 -21q-48 0 -77.5 20.5t-29.5 57.5q0 39 31.5 60.5t79.5 21.5t77 -21zM162.5 318.5q14.5 -10.5 20 -29t9.5 -53.5l30 -376q-14 -15 -38.5 -23.5t-49.5 -8.5q-48 0 -71 27t-23 77q0 35 9 130l23 255q16 12 47 12q29 0 43.5 -10.5z
" />
    <glyph glyph-name="cent" unicode="&#xa2;" 
d="M544 221.5q10 -15.5 10 -35.5q0 -65 -48.5 -102t-121.5 -41v-30q0 -28 -14 -45t-42 -17q-18 0 -44 11v88q-101 20 -155.5 91.5t-54.5 181.5q0 109 53.5 176t154.5 87v40q0 28 14 45t42 17q18 0 44 -11v-83q82 -2 134 -31t52 -95q0 -41 -32.5 -62t-80.5 -21q-13 0 -30 2
t-24 7q4 32 4 50q0 41 -9 65.5t-37 24.5q-85 0 -85 -206q0 -78 28 -121.5t102 -43.5q39 0 67.5 20.5t44.5 57.5q18 -4 28 -19.5z" />
    <glyph glyph-name="sterling" unicode="&#xa3;" 
d="M284 195.5q-24 -41.5 -80 -61.5l365 12l-11 -146h-503l-11 101q31 13 45 37t17.5 54.5t3.5 86.5v49h-81q-3 11 -3 24q0 25 14.5 37.5t39.5 12.5h30v87q0 92 70.5 131.5t183.5 39.5q88 0 156 -29.5t68 -95.5q0 -51 -35 -77t-90 -26q-30 0 -52 7q6 33 6 66q0 98 -60 98
q-32 0 -40.5 -25.5t-8.5 -79.5v-96h151q3 -10 3 -24q0 -25 -14.5 -37.5t-40.5 -12.5h-99v-25q0 -66 -24 -107.5z" />
    <glyph glyph-name="currency" unicode="&#xa4;" 
d="M505 104l-92 83q-47 -26 -108 -26q-52 0 -93 19l-79 -83l-66 64l76 73q-32 45 -32 104q0 57 30 100l-79 69l52 70l89 -86q45 24 102 24q48 0 89 -18l76 83l67 -63l-75 -71q37 -45 37 -108q0 -55 -26 -95l86 -71zM355 278.5q18 21.5 18 59.5t-18 59.5t-50 21.5
q-31 0 -49.5 -21.5t-18.5 -59.5t18.5 -59.5t49.5 -21.5q32 0 50 21.5z" />
    <glyph glyph-name="yen" unicode="&#xa5;" 
d="M414 268v-59h112q3 -10 3 -24q0 -25 -14.5 -38t-40.5 -13h-60v-134h-214v134h-103q-3 11 -3 24q0 26 14 38.5t40 12.5h52v59h-103q-3 11 -3 24q0 26 14 38.5t40 12.5h29l-138 317h219l92 -261l75 261h158l-148 -317h91q3 -10 3 -24q0 -25 -14.5 -38t-40.5 -13h-60z" />
    <glyph glyph-name="brokenbar" unicode="&#xa6;" horiz-adv-x="313" 
d="M231 388v272h-146v-272h146zM228 0v272h-146v-272h146z" />
    <glyph glyph-name="section" unicode="&#xa7;" horiz-adv-x="432" 
d="M369 54q24 -34 24 -79q0 -75 -59.5 -115t-144.5 -40q-68 0 -113.5 23.5t-45.5 77.5q0 35 23 58.5t60 23.5q25 0 39 -11q-2 -22 -2 -38q0 -39 11 -60.5t41 -21.5q25 0 39.5 16t14.5 42q0 34 -25.5 57t-77.5 52q-42 23 -69 42.5t-46 49.5t-19 71q0 58 32 106t79 74
q-43 30 -67 64t-24 79q0 75 59 115t144 40q68 0 113.5 -23.5t45.5 -77.5q0 -35 -22.5 -58.5t-59.5 -23.5q-25 0 -40 11q3 17 3 38q0 38 -11.5 60t-41.5 22q-25 0 -39 -16t-14 -42q0 -35 24.5 -57t77.5 -52q44 -25 70.5 -44t45 -48.5t18.5 -70.5q0 -45 -30 -93.5t-80 -86.5
q43 -30 67 -64zM167.5 211.5q27.5 -25.5 85.5 -60.5q20 17 29.5 37.5t9.5 39.5q0 34 -26.5 59.5t-81.5 59.5q-22 -14 -33 -33.5t-11 -41.5q0 -35 27.5 -60.5z" />
    <glyph glyph-name="dieresis" unicode="&#xa8;" horiz-adv-x="446" 
d="M0 590zM417 729q29 -21 29 -59t-30.5 -59t-79.5 -21q-48 0 -77.5 20.5t-29.5 57.5q0 39 31.5 60.5t79.5 21.5t77 -21zM187 729q29 -21 29 -59t-30.5 -59t-79.5 -21q-48 0 -77.5 20.5t-29.5 57.5q0 39 31.5 60.5t79.5 21.5t77 -21z" />
    <glyph glyph-name="copyright" unicode="&#xa9;" horiz-adv-x="751" 
d="M557.5 570q81.5 -45 127.5 -125.5t46 -181.5q0 -102 -45.5 -179.5t-126 -120t-184.5 -42.5t-184.5 42.5t-126 120t-45.5 179.5q0 101 46 181.5t127.5 125.5t182.5 45t182.5 -45zM240 506q-57 -36 -86.5 -99t-29.5 -144q0 -125 65.5 -197t185.5 -72q121 0 186.5 72
t65.5 197q0 81 -29.5 144.5t-86.5 99t-136 35.5q-78 0 -135 -36zM493 447q39 -21 39 -69q0 -28 -23 -43t-56 -15q-9 0 -21.5 1.5t-16.5 4.5q0 9 1 18.5t1 17.5q0 29 -6.5 46.5t-25.5 17.5q-47 0 -47 -147q0 -55 17 -85.5t61 -30.5q56 0 80 55q13 -4 20 -15t7 -25
q0 -49 -39 -75.5t-95 -26.5q-93 0 -142.5 53t-49.5 146q0 94 51 143.5t145 49.5q61 0 100 -21z" />
    <glyph glyph-name="ordfeminine" unicode="&#xaa;" horiz-adv-x="465" 
d="M360 645.5q45 -28.5 45 -106.5v-157q0 -46 22 -76q-12 -11 -31 -16.5t-39 -5.5q-34 0 -56 11.5t-32 36.5q-9 -27 -35 -40t-59 -13q-62 0 -104.5 27.5t-42.5 80.5q0 69 63 92.5t165 23.5v65q0 30 -8 45.5t-31 15.5q-25 0 -35 -15t-10 -46q0 -2 3 -38q-10 -6 -40 -6
q-36 0 -60 15t-24 45q0 50 53 70t121 20q90 0 135 -28.5zM195.5 444q-20.5 -16 -20.5 -53q0 -24 9.5 -39t29.5 -15q22 0 32 19.5t10 46.5v57q-40 0 -60.5 -16zM407 201q0 -26 -12.5 -34.5t-42.5 -8.5h-287q-7 21 -7 35q0 26 12.5 34.5t41.5 8.5h288q7 -21 7 -35z" />
    <glyph glyph-name="guillemotleft" unicode="&#xab;" horiz-adv-x="519" 
d="M138 510h120l-87 -193l83 -191h-117l-131 191zM367 510h121l-87 -193l83 -191h-118l-130 191z" />
    <glyph glyph-name="logicalnot" unicode="&#xac;" 
d="M528 9q-26 -12 -48 -12q-30 0 -45.5 18.5t-15.5 49.5v126h-337q-11 22 -11 44q0 27 17 41t46 14h394v-281z" />
    <glyph glyph-name="uni00AD" unicode="&#xad;" horiz-adv-x="372" 
d="M29 219q0 34 18 50.5t53 18.5l237 12q3 -7 5 -18.5t2 -18.5q0 -34 -18.5 -50.5t-54.5 -18.5l-237 -12q-5 17 -5 37z" />
    <glyph glyph-name="registered" unicode="&#xae;" horiz-adv-x="751" 
d="M557.5 635q81.5 -45 127.5 -125.5t46 -181.5q0 -102 -45.5 -179.5t-126 -120t-184.5 -42.5t-184.5 42.5t-126 120t-45.5 179.5q0 101 46 181.5t127.5 125.5t182.5 45t182.5 -45zM240 571q-57 -36 -86.5 -99t-29.5 -144q0 -125 65.5 -197t185.5 -72q121 0 186.5 72
t65.5 197q0 81 -29.5 144.5t-86.5 99t-136 35.5q-78 0 -135 -36zM490 506.5q43 -24.5 43 -89.5q0 -38 -17.5 -65.5t-49.5 -40.5l91 -159h-124l-66 170q-6 14 -6 22q30 0 41 18t11 53q0 74 -44 74q-8 0 -24 -4v-333h-122v371q83 8 145 8q79 0 122 -24.5z" />
    <glyph glyph-name="macron" unicode="&#xaf;" horiz-adv-x="328" 
d="M318 674q0 -24 -15.5 -38.5t-41.5 -14.5h-242q-9 15 -9 39t15.5 38.5t41.5 14.5h242q9 -15 9 -39z" />
    <glyph glyph-name="degree" unicode="&#xb0;" horiz-adv-x="363" 
d="M96 390q-38 20 -60 56t-22 83q0 72 46.5 113.5t120.5 41.5q75 0 121.5 -41.5t46.5 -113.5q0 -71 -47.5 -115t-120.5 -44q-47 0 -85 20zM233.5 460.5q16.5 26.5 16.5 68.5q0 40 -17 65.5t-52 25.5q-34 0 -51 -25.5t-17 -65.5q0 -41 16.5 -68t51.5 -27q36 0 52.5 26.5z" />
    <glyph glyph-name="plusminus" unicode="&#xb1;" 
d="M129 261q-11 22 -11 45q0 27 17 41t46 14h75v55q0 31 15.5 49.5t45.5 18.5q28 0 50 -10v-113h125q11 -22 11 -44q0 -28 -17 -42t-46 -14h-73v-55q0 -31 -16 -50t-47 -19q-26 0 -48 10v114h-127zM492 99q11 -22 11 -44q0 -27 -16.5 -41t-45.5 -14h-312q-11 22 -11 44
q0 27 16.5 41t45.5 14h312z" />
    <glyph glyph-name="uni00B2" unicode="&#xb2;" horiz-adv-x="358" 
d="M277 645.5q43 -28.5 43 -85.5q0 -43 -29 -80.5t-76 -73.5q-10 -8 -45 -33l148 6v-94h-283l-4 51l48 40q45 40 71 77.5t26 77.5q0 26 -15.5 40t-42.5 14q-48 0 -71 -37q-23 14 -23 41q0 42 44.5 63.5t98.5 21.5q67 0 110 -28.5z" />
    <glyph glyph-name="uni00B3" unicode="&#xb3;" horiz-adv-x="349" 
d="M254.5 651.5q37.5 -22.5 37.5 -68.5q0 -70 -79 -92q47 -5 72.5 -29t25.5 -67q0 -59 -42.5 -91.5t-111.5 -32.5q-54 0 -93.5 20.5t-39.5 63.5q0 23 15 35q31 -31 79 -31q24 0 37.5 11t13.5 33q0 23 -13.5 35t-37.5 12q-20 0 -28 -1v53q82 0 82 49q0 21 -13.5 33t-35.5 12
q-24 0 -41 -12t-31 -35q-22 13 -22 41q0 42 39.5 63t92.5 21q56 0 93.5 -22.5z" />
    <glyph glyph-name="acute" unicode="&#xb4;" horiz-adv-x="294" 
d="M230 771q22 -10 38 -31t16 -43q0 -34 -28 -50.5t-83 -32.5l-141 -40l-22 47z" />
    <glyph glyph-name="uni00B5" unicode="&#xb5;" horiz-adv-x="612" 
d="M54 0zM589 12q-15 -13 -42 -20t-51 -7q-93 0 -121 60q-43 -63 -125 -66v-159l-196 -13v703l200 20v-289q0 -67 2.5 -103.5t13 -60t34.5 -23.5q58 0 58 108v348h196v-393q0 -65 31 -105z" />
    <glyph glyph-name="paragraph" unicode="&#xb6;" horiz-adv-x="674" 
d="M228 -126q52 0 71.5 34.5t19.5 98.5v258q-38 -11 -76 -11q-94 0 -144.5 56t-50.5 153q0 112 68.5 159.5t195.5 47.5q62 0 111 -10v-625q0 -110 -40 -172.5t-135 -62.5q-50 0 -83.5 20t-33.5 52q0 10 4 18t11 12q32 -28 82 -28zM696.5 601.5q-16.5 -18.5 -55.5 -18.5
q-25 0 -42 5v-588l-98 -15v675h212q0 -40 -16.5 -58.5z" />
    <glyph glyph-name="periodcentered" unicode="&#xb7;" horiz-adv-x="252" 
d="M207 307q29 -21 29 -59t-30.5 -59t-79.5 -21q-48 0 -77.5 20.5t-29.5 57.5q0 39 31.5 60.5t79.5 21.5t77 -21z" />
    <glyph glyph-name="cedilla" unicode="&#xb8;" horiz-adv-x="273" 
d="M229 -80.5q34 -23.5 34 -73.5t-43.5 -77t-102.5 -27q-41 0 -74 13.5t-33 47.5q0 25 12 40q26 -33 79 -33q16 0 28 11t12 28q0 24 -18.5 32.5t-48.5 8.5q-14 0 -40 -2l45 123h62l-28 -69l25 1q57 0 91 -23.5z" />
    <glyph glyph-name="uni00B9" unicode="&#xb9;" horiz-adv-x="347" 
d="M330 347v-62h-282v62h70v201q-22 -19 -51 -19q-25 0 -34 18t-9 51q113 37 186 82l52 -15v-318h68z" />
    <glyph glyph-name="ordmasculine" unicode="&#xba;" horiz-adv-x="434" 
d="M361 624.5q50 -49.5 50 -141.5t-51 -147.5t-141 -55.5q-87 0 -139.5 54t-52.5 142q0 92 50.5 145t141.5 53q92 0 142 -49.5zM252.5 371q7.5 43 7.5 108q0 64 -7.5 105.5t-33.5 41.5t-33.5 -41.5t-7.5 -105.5q0 -65 7.5 -108t33.5 -43t33.5 43zM43 193q0 26 12.5 34.5
t41.5 8.5h287q7 -21 7 -35q0 -26 -12.5 -34.5t-41.5 -8.5h-287q-7 21 -7 35z" />
    <glyph glyph-name="guillemotright" unicode="&#xbb;" horiz-adv-x="519" 
d="M151 510l132 -193l-132 -191h-117l84 191l-87 193h120zM381 510l131 -193l-131 -191h-117l84 191l-88 193h121z" />
    <glyph glyph-name="onequarter" unicode="&#xbc;" horiz-adv-x="836" 
d="M533.5 710.5q12.5 -9.5 12.5 -28.5q0 -10 -4 -28l-186 -740q-13 -5 -38 -5q-20 0 -32 9.5t-12 28.5q0 14 3 28l187 740q13 5 37 5q20 0 32.5 -9.5zM262 665v-318h68v-62h-282v62h70v201q-22 -19 -51 -19q-25 0 -34 18t-9 51q110 36 187 82zM763 138h60l-5 -80h-55v-58
h-148v58h-154q-15 13 -15 34q0 20 16 45l158 238h143v-237zM619 275l-86 -137h86v137z" />
    <glyph glyph-name="onehalf" unicode="&#xbd;" horiz-adv-x="836" 
d="M532.5 710.5q12.5 -9.5 12.5 -28.5q0 -10 -4 -28l-186 -740q-13 -5 -37 -5q-20 0 -32.5 9.5t-12.5 28.5q0 10 4 28l186 740q13 5 37 5q20 0 32.5 -9.5zM262 665v-318h67v-62h-281v62h70v201q-22 -19 -51 -19q-25 0 -34 18t-9 51q113 37 186 82zM737 360.5
q43 -28.5 43 -85.5q0 -45 -31.5 -84t-83.5 -78l-35 -25l148 6v-94h-283l-4 51q15 12 45 38q47 41 73.5 78.5t26.5 78.5q0 26 -15.5 40t-42.5 14q-48 0 -71 -37q-23 14 -23 41q0 42 44.5 63.5t98.5 21.5q67 0 110 -28.5z" />
    <glyph glyph-name="threequarters" unicode="&#xbe;" horiz-adv-x="836" 
d="M533.5 710.5q12.5 -9.5 12.5 -28.5q0 -10 -4 -28l-186 -740q-13 -5 -38 -5q-20 0 -32 9.5t-12 28.5q0 14 3 28l187 740q13 5 37 5q20 0 32.5 -9.5zM265 651.5q38 -22.5 38 -68.5q0 -70 -80 -92q48 -5 73.5 -29t25.5 -67q0 -59 -42.5 -91.5t-111.5 -32.5q-54 0 -93.5 20.5
t-39.5 63.5q0 23 15 35q31 -31 79 -31q24 0 37 11t13 33q0 23 -13 35t-37 12q-20 0 -28 -1v53q82 0 82 49q0 21 -13.5 33t-35.5 12q-24 0 -41 -12t-31 -35q-22 13 -22 41q0 42 39.5 63t91.5 21q56 0 94 -22.5zM762 138h61l-5 -80h-56v-58h-147v58h-154q-15 13 -15 34
q0 20 16 45l158 238h142v-237zM619 275l-86 -137h86v137z" />
    <glyph glyph-name="questiondown" unicode="&#xbf;" horiz-adv-x="508" 
d="M366 508q29 -21 29 -59t-30.5 -59t-79.5 -21q-48 0 -77.5 20.5t-29.5 57.5q0 39 31.5 60.5t79.5 21.5t77 -21zM343.5 289.5q18.5 -20.5 18.5 -54.5q0 -30 -17 -56t-51 -63q-38 -42 -58 -74.5t-20 -71.5q0 -80 59 -80q60 0 60 97q0 32 -6 65q24 7 53 7q55 0 90 -26t35 -78
q0 -67 -68 -96t-167 -29q-114 0 -183 35t-69 125q0 39 18 71t43.5 55.5t67.5 55.5q52 40 76.5 67t24.5 62q6 4 18.5 6.5t24.5 2.5q32 0 50.5 -20.5z" />
    <glyph glyph-name="Agrave" unicode="&#xc0;" horiz-adv-x="590" 
d="M0 0zM422 660l167 -660h-219l-37 158h-174l-36 -158h-130l180 660h249zM178 242h136l-69 296zM245 740q-40 3 -65 7.5t-43.5 19t-18.5 42.5q0 20 11 40t27 34l247 -102l-12 -51z" />
    <glyph glyph-name="Aacute" unicode="&#xc1;" horiz-adv-x="590" 
d="M0 0zM422 660l167 -660h-219l-37 158h-174l-36 -158h-130l180 660h249zM178 242h136l-69 296zM438 882q16 -14 27 -34t11 -40q0 -28 -18.5 -42.5t-43.5 -19t-65 -7.5l-146 -10l-12 51z" />
    <glyph glyph-name="Acircumflex" unicode="&#xc2;" horiz-adv-x="590" 
d="M0 0zM422 660l167 -660h-219l-37 158h-174l-36 -158h-130l180 660h249zM178 242h136l-69 296zM159 684l-39 47l152 115h43l154 -115l-39 -47l-135 51z" />
    <glyph glyph-name="Atilde" unicode="&#xc3;" horiz-adv-x="590" 
d="M0 0zM422 660l167 -660h-219l-37 158h-174l-36 -158h-130l180 660h249zM178 242h136l-69 296zM490.5 826.5q6.5 -16.5 6.5 -31.5q0 -37 -26.5 -50.5t-73.5 -13.5q-26 0 -104 10t-107 10q-44 0 -64 -20q-10 12 -16.5 28.5t-6.5 31.5q0 37 26.5 50.5t73.5 13.5
q27 0 105 -10t106 -10q44 0 64 20q10 -12 16.5 -28.5z" />
    <glyph glyph-name="Adieresis" unicode="&#xc4;" horiz-adv-x="590" 
d="M0 0zM422 660l167 -660h-219l-37 158h-174l-36 -158h-130l180 660h249zM178 242h136l-69 296zM489 850q29 -21 29 -59t-30.5 -59t-79.5 -21q-48 0 -77.5 20.5t-29.5 57.5q0 39 31.5 60.5t79.5 21.5t77 -21zM259 850q29 -21 29 -59t-30.5 -59t-79.5 -21q-48 0 -77.5 20.5
t-29.5 57.5q0 39 31.5 60.5t79.5 21.5t77 -21z" />
    <glyph glyph-name="Aring" unicode="&#xc5;" horiz-adv-x="590" 
d="M0 0zM422 660l167 -660h-219l-37 158h-174l-36 -158h-130l180 660h249zM178 242h136l-69 296zM214.5 745.5q-32.5 26.5 -32.5 70.5q0 45 31.5 70t83.5 25t84 -25t32 -70q0 -44 -32.5 -70.5t-83.5 -26.5q-50 0 -82.5 26.5zM330.5 775q11.5 16 11.5 41q0 24 -11.5 39
t-33.5 15t-33.5 -15t-11.5 -39q0 -26 11 -41.5t34 -15.5q22 0 33.5 16z" />
    <glyph glyph-name="AE" unicode="&#xc6;" horiz-adv-x="735" 
d="M720 660v-84h-157v-195h127v-84h-127v-213h172l-8 -84h-378v158h-158l-64 -158h-140l289 660h444zM349 558l-124 -316h124v316z" />
    <glyph glyph-name="Ccedilla" unicode="&#xc7;" horiz-adv-x="589" 
d="M341 -22l-15 -36l25 1q57 0 91 -23.5t34 -73.5t-43.5 -77t-102.5 -27q-41 0 -74 13.5t-33 47.5q0 25 12 40q26 -33 79 -33q16 0 28 11t12 28q0 24 -18.5 32.5t-48.5 8.5q-14 0 -40 -2l34 94q-131 19 -196 111.5t-65 232.5q0 170 82.5 262t246.5 92q95 0 159.5 -31
t64.5 -104q0 -52 -36 -82.5t-89 -30.5q-33 0 -52 6q6 30 6 55q0 51 -14 82t-53 31q-54 0 -69.5 -71.5t-15.5 -169.5q0 -113 34 -176.5t116 -63.5q88 0 136 84q39 -24 39 -73q0 -51 -34 -87t-87.5 -53.5t-110.5 -17.5h-2z" />
    <glyph glyph-name="Egrave" unicode="&#xc8;" horiz-adv-x="456" 
d="M50 0zM441 660v-84h-177v-195h147v-84h-147v-213h192l-8 -84h-398v660h391zM193 720q-40 3 -65 7.5t-43.5 19t-18.5 42.5q0 20 11 40t27 34l247 -102l-12 -51z" />
    <glyph glyph-name="Eacute" unicode="&#xc9;" horiz-adv-x="456" 
d="M50 0zM441 660v-84h-177v-195h147v-84h-147v-213h192l-8 -84h-398v660h391zM386 862q16 -14 27 -34t11 -40q0 -28 -18.5 -42.5t-43.5 -19t-65 -7.5l-146 -10l-12 51z" />
    <glyph glyph-name="Ecircumflex" unicode="&#xca;" horiz-adv-x="456" 
d="M50 0zM441 660v-84h-177v-195h147v-84h-147v-213h192l-8 -84h-398v660h391zM110 684l-39 47l152 115h43l154 -115l-39 -47l-135 51z" />
    <glyph glyph-name="Edieresis" unicode="&#xcb;" horiz-adv-x="456" 
d="M22 0zM441 660v-84h-177v-195h147v-84h-147v-213h192l-8 -84h-398v660h391zM440 850q29 -21 29 -59t-30.5 -59t-79.5 -21q-48 0 -77.5 20.5t-29.5 57.5q0 39 31.5 60.5t79.5 21.5t77 -21zM210 850q29 -21 29 -59t-30.5 -59t-79.5 -21q-48 0 -77.5 20.5t-29.5 57.5
q0 39 31.5 60.5t79.5 21.5t77 -21z" />
    <glyph glyph-name="Igrave" unicode="&#xcc;" horiz-adv-x="314" 
d="M0 0zM264 660v-660h-214v660h214zM105 720q-40 3 -65 7.5t-43.5 19t-18.5 42.5q0 20 11 40t27 34l247 -102l-12 -51z" />
    <glyph glyph-name="Iacute" unicode="&#xcd;" horiz-adv-x="314" 
d="M50 0zM264 660v-660h-214v660h214zM298 862q16 -14 27 -34t11 -40q0 -28 -18.5 -42.5t-43.5 -19t-65 -7.5l-146 -10l-12 51z" />
    <glyph glyph-name="Icircumflex" unicode="&#xce;" horiz-adv-x="314" 
d="M0 0zM264 660v-660h-214v660h214zM21 684l-39 47l152 115h43l154 -115l-39 -47l-135 51z" />
    <glyph glyph-name="Idieresis" unicode="&#xcf;" horiz-adv-x="314" 
d="M0 0zM264 660v-660h-214v660h214zM351 850q29 -21 29 -59t-30.5 -59t-79.5 -21q-48 0 -77.5 20.5t-29.5 57.5q0 39 31.5 60.5t79.5 21.5t77 -21zM121 850q29 -21 29 -59t-30.5 -59t-79.5 -21q-48 0 -77.5 20.5t-29.5 57.5q0 39 31.5 60.5t79.5 21.5t77 -21z" />
    <glyph glyph-name="Eth" unicode="&#xd0;" horiz-adv-x="664" 
d="M564 585.5q81 -79.5 81 -246.5q0 -171 -87 -260t-257 -89q-114 0 -251 14v286h-53q-4 12 -4 30q0 56 57 61v272q137 12 265 12q168 0 249 -79.5zM394 140.5q20 76.5 20 192.5q0 114 -20 186t-79 72q-15 0 -26 -2t-25 -6v-201h91q4 -12 4 -30q0 -31 -18 -46.5t-51 -15.5
h-26v-219q25 -7 52 -7q58 0 78 76.5z" />
    <glyph glyph-name="Ntilde" unicode="&#xd1;" horiz-adv-x="668" 
d="M50 0zM368 0l-205 489v-489h-113v660h251l204 -489v489h114v-660h-251zM527.5 806.5q6.5 -16.5 6.5 -31.5q0 -37 -26.5 -50.5t-73.5 -13.5q-26 0 -104 10t-107 10q-44 0 -64 -20q-10 12 -16.5 28.5t-6.5 31.5q0 37 26.5 50.5t73.5 13.5q27 0 105 -10t106 -10q44 0 64 20
q10 -12 16.5 -28.5z" />
    <glyph glyph-name="Ograve" unicode="&#xd2;" horiz-adv-x="670" 
d="M20 0zM572 592q78 -88 78 -253t-80.5 -263t-234.5 -98q-100 0 -171 43.5t-107.5 122.5t-36.5 182q0 166 79 260t236 94q159 0 237 -88zM404 132q16 80 16 201q0 119 -16 196t-69 77t-69 -77t-16 -196q0 -121 16 -201t69 -80t69 80zM283 720q-40 3 -65 7.5t-43.5 19
t-18.5 42.5q0 20 11 40t27 34l247 -102l-12 -51z" />
    <glyph glyph-name="Oacute" unicode="&#xd3;" horiz-adv-x="670" 
d="M20 0zM572 592q78 -88 78 -253t-80.5 -263t-234.5 -98q-100 0 -171 43.5t-107.5 122.5t-36.5 182q0 166 79 260t236 94q159 0 237 -88zM404 132q16 80 16 201q0 119 -16 196t-69 77t-69 -77t-16 -196q0 -121 16 -201t69 -80t69 80zM476 862q16 -14 27 -34t11 -40
q0 -28 -18.5 -42.5t-43.5 -19t-65 -7.5l-146 -10l-12 51z" />
    <glyph glyph-name="Ocircumflex" unicode="&#xd4;" horiz-adv-x="670" 
d="M20 0zM572 592q78 -88 78 -253t-80.5 -263t-234.5 -98q-100 0 -171 43.5t-107.5 122.5t-36.5 182q0 166 79 260t236 94q159 0 237 -88zM404 132q16 80 16 201q0 119 -16 196t-69 77t-69 -77t-16 -196q0 -121 16 -201t69 -80t69 80zM199 684l-39 47l152 115h43l154 -115
l-39 -47l-135 51z" />
    <glyph glyph-name="Otilde" unicode="&#xd5;" horiz-adv-x="670" 
d="M20 0zM572 592q78 -88 78 -253t-80.5 -263t-234.5 -98q-100 0 -171 43.5t-107.5 122.5t-36.5 182q0 166 79 260t236 94q159 0 237 -88zM404 132q16 80 16 201q0 119 -16 196t-69 77t-69 -77t-16 -196q0 -121 16 -201t69 -80t69 80zM528.5 806.5q6.5 -16.5 6.5 -31.5
q0 -37 -26.5 -50.5t-73.5 -13.5q-26 0 -104 10t-107 10q-44 0 -64 -20q-10 12 -16.5 28.5t-6.5 31.5q0 37 26.5 50.5t73.5 13.5q27 0 105 -10t106 -10q44 0 64 20q10 -12 16.5 -28.5z" />
    <glyph glyph-name="Odieresis" unicode="&#xd6;" horiz-adv-x="670" 
d="M20 0zM572 592q78 -88 78 -253t-80.5 -263t-234.5 -98q-100 0 -171 43.5t-107.5 122.5t-36.5 182q0 166 79 260t236 94q159 0 237 -88zM404 132q16 80 16 201q0 119 -16 196t-69 77t-69 -77t-16 -196q0 -121 16 -201t69 -80t69 80zM529 850q29 -21 29 -59t-30.5 -59
t-79.5 -21q-48 0 -77.5 20.5t-29.5 57.5q0 39 31.5 60.5t79.5 21.5t77 -21zM299 850q29 -21 29 -59t-30.5 -59t-79.5 -21q-48 0 -77.5 20.5t-29.5 57.5q0 39 31.5 60.5t79.5 21.5t77 -21z" />
    <glyph glyph-name="multiply" unicode="&#xd7;" 
d="M470 129q4 -6 12 -17.5t12 -21t4 -19.5q0 -30 -19.5 -47.5t-50.5 -17.5l-116 155l-83 -112q-30 -42 -69 -42q-41 0 -55 39l148 191l-85 107q-3 4 -12 15t-13.5 21t-4.5 21q0 30 20 48t51 18l109 -147l74 96q32 42 68 42q19 0 33.5 -10t20.5 -29l-138 -175z" />
    <glyph glyph-name="Oslash" unicode="&#xd8;" horiz-adv-x="670" 
d="M650 339q0 -165 -80.5 -263t-234.5 -98q-98 0 -172 44l-52 -79q-27 0 -47.5 11.5t-20.5 32.5q0 17 16 40l36 55q-37 46 -56 108t-19 136q0 166 79 260t236 94q79 0 140 -23l41 63q27 0 47.5 -11.5t20.5 -32.5q0 -17 -16 -40l-16 -24q98 -86 98 -273zM250 317l149 226
q-20 63 -64 63q-53 0 -69 -77t-16 -196v-16zM404 132q16 80 16 201q0 50 -1 77l-160 -242q18 -116 76 -116q53 0 69 80z" />
    <glyph glyph-name="Ugrave" unicode="&#xd9;" horiz-adv-x="610" 
d="M42 0zM511.5 51q-57.5 -73 -196.5 -73q-140 0 -206.5 63t-66.5 200v419h214v-408q0 -69 6 -108.5t23 -60.5t51 -21t52 21.5t24 64t6 115.5v397h151v-386q0 -150 -57.5 -223zM283 720q-40 3 -65 7.5t-43.5 19t-18.5 42.5q0 20 11 40t27 34l247 -102l-12 -51z" />
    <glyph glyph-name="Uacute" unicode="&#xda;" horiz-adv-x="610" 
d="M42 0zM511.5 51q-57.5 -73 -196.5 -73q-140 0 -206.5 63t-66.5 200v419h214v-408q0 -69 6 -108.5t23 -60.5t51 -21t52 21.5t24 64t6 115.5v397h151v-386q0 -150 -57.5 -223zM476 862q16 -14 27 -34t11 -40q0 -28 -18.5 -42.5t-43.5 -19t-65 -7.5l-146 -10l-12 51z" />
    <glyph glyph-name="Ucircumflex" unicode="&#xdb;" horiz-adv-x="610" 
d="M42 0zM511.5 51q-57.5 -73 -196.5 -73q-140 0 -206.5 63t-66.5 200v419h214v-408q0 -69 6 -108.5t23 -60.5t51 -21t52 21.5t24 64t6 115.5v397h151v-386q0 -150 -57.5 -223zM198 684l-39 47l152 115h43l154 -115l-39 -47l-135 51z" />
    <glyph glyph-name="Udieresis" unicode="&#xdc;" horiz-adv-x="610" 
d="M42 0zM511.5 51q-57.5 -73 -196.5 -73q-140 0 -206.5 63t-66.5 200v419h214v-408q0 -69 6 -108.5t23 -60.5t51 -21t52 21.5t24 64t6 115.5v397h151v-386q0 -150 -57.5 -223zM528 850q29 -21 29 -59t-30.5 -59t-79.5 -21q-48 0 -77.5 20.5t-29.5 57.5q0 39 31.5 60.5
t79.5 21.5t77 -21zM298 850q29 -21 29 -59t-30.5 -59t-79.5 -21q-48 0 -77.5 20.5t-29.5 57.5q0 39 31.5 60.5t79.5 21.5t77 -21z" />
    <glyph glyph-name="Yacute" unicode="&#xdd;" horiz-adv-x="553" 
d="M1 0zM377 299v-299h-215v290l-161 370h219l92 -261l75 261h158zM432 862q16 -14 27 -34t11 -40q0 -28 -18.5 -42.5t-43.5 -19t-65 -7.5l-146 -10l-12 51z" />
    <glyph glyph-name="Thorn" unicode="&#xde;" horiz-adv-x="618" 
d="M264 537h43q138 0 217.5 -44t79.5 -156q0 -60 -25.5 -106t-71.5 -71t-106 -25q-48 0 -78.5 17.5t-30.5 56.5q57 0 79.5 30.5t22.5 94.5q0 59 -19.5 94t-68.5 35q-23 0 -42 -6v-457h-214v660h214v-123z" />
    <glyph glyph-name="germandbls" unicode="&#xdf;" horiz-adv-x="762" 
d="M139 677q85 43 218 43q53 0 114 -10.5t105 -35.5t44 -65q0 -29 -16 -50.5t-49 -52.5q-29 -27 -42.5 -44.5t-13.5 -38.5q0 -27 15.5 -47.5t38.5 -35.5t63 -36q46 -25 73 -43.5t46.5 -46t19.5 -65.5q0 -89 -66 -130t-171 -41q-82 0 -145 25.5t-63 84.5q0 41 32.5 61.5
t80.5 20.5q13 0 29.5 -2t23.5 -7q-4 -32 -4 -50q0 -76 53 -76q26 0 40.5 17.5t14.5 45.5q0 27 -15.5 47.5t-38.5 35.5t-63 36q-46 25 -73 43.5t-46.5 46t-19.5 65.5q0 29 18 55t53 61q30 31 45 52t15 42q0 38 -30.5 59.5t-74.5 21.5q-54 0 -77 -25t-23 -80v-513
q0 -113 -36 -179.5t-127 -66.5q-38 0 -70.5 11.5t-44.5 38.5q37 5 55 29t22.5 57t4.5 85v509q0 105 85 148z" />
    <glyph glyph-name="agrave" unicode="&#xe0;" horiz-adv-x="581" 
d="M16 0zM299 -6q-36 -16 -81 -16q-86 0 -144 38.5t-58 112.5q0 96 91 129t231 33v87q0 45 -11.5 70t-44.5 25q-71 0 -71 -91q0 -18 4 -50q-7 -5 -24 -7t-30 -2q-48 0 -80 20.5t-32 62.5q0 66 74 95t166 29q119 0 182 -42t63 -146v-225q0 -65 31 -105q-15 -13 -41.5 -20
t-50.5 -7q-93 0 -122 60q-16 -35 -52 -51zM323 79q15 30 15 74v88q-63 0 -95 -25t-32 -83q0 -37 15.5 -60.5t47.5 -23.5q34 0 49 30zM223 614q-55 16 -83.5 32.5t-28.5 50.5q0 22 16 43t38 31l220 -150l-22 -47z" />
    <glyph glyph-name="aacute" unicode="&#xe1;" horiz-adv-x="581" 
d="M16 0zM299 -6q-36 -16 -81 -16q-86 0 -144 38.5t-58 112.5q0 96 91 129t231 33v87q0 45 -11.5 70t-44.5 25q-71 0 -71 -91q0 -18 4 -50q-7 -5 -24 -7t-30 -2q-48 0 -80 20.5t-32 62.5q0 66 74 95t166 29q119 0 182 -42t63 -146v-225q0 -65 31 -105q-15 -13 -41.5 -20
t-50.5 -7q-93 0 -122 60q-16 -35 -52 -51zM323 79q15 30 15 74v88q-63 0 -95 -25t-32 -83q0 -37 15.5 -60.5t47.5 -23.5q34 0 49 30zM399 771q22 -10 38 -31t16 -43q0 -34 -28 -50.5t-83 -32.5l-141 -40l-22 47z" />
    <glyph glyph-name="acircumflex" unicode="&#xe2;" horiz-adv-x="581" 
d="M16 0zM299 -6q-36 -16 -81 -16q-86 0 -144 38.5t-58 112.5q0 96 91 129t231 33v87q0 45 -11.5 70t-44.5 25q-71 0 -71 -91q0 -18 4 -50q-7 -5 -24 -7t-30 -2q-48 0 -80 20.5t-32 62.5q0 66 74 95t166 29q119 0 182 -42t63 -146v-225q0 -65 31 -105q-15 -13 -41.5 -20
t-50.5 -7q-93 0 -122 60q-16 -35 -52 -51zM323 79q15 30 15 74v88q-63 0 -95 -25t-32 -83q0 -37 15.5 -60.5t47.5 -23.5q34 0 49 30zM147 585l-39 47l152 115h43l154 -115l-39 -47l-135 51z" />
    <glyph glyph-name="atilde" unicode="&#xe3;" horiz-adv-x="581" 
d="M16 0zM299 -6q-36 -16 -81 -16q-86 0 -144 38.5t-58 112.5q0 96 91 129t231 33v87q0 45 -11.5 70t-44.5 25q-71 0 -71 -91q0 -18 4 -50q-7 -5 -24 -7t-30 -2q-48 0 -80 20.5t-32 62.5q0 66 74 95t166 29q119 0 182 -42t63 -146v-225q0 -65 31 -105q-15 -13 -41.5 -20
t-50.5 -7q-93 0 -122 60q-16 -35 -52 -51zM323 79q15 30 15 74v88q-63 0 -95 -25t-32 -83q0 -37 15.5 -60.5t47.5 -23.5q34 0 49 30zM474.5 698.5q6.5 -16.5 6.5 -31.5q0 -37 -27 -50.5t-73 -13.5q-27 0 -105 10t-106 10q-44 0 -64 -20q-10 12 -16.5 28.5t-6.5 31.5
q0 37 26.5 50.5t73.5 13.5q26 0 104 -10t107 -10q44 0 64 21q10 -13 16.5 -29.5z" />
    <glyph glyph-name="adieresis" unicode="&#xe4;" horiz-adv-x="581" 
d="M16 0zM299 -6q-36 -16 -81 -16q-86 0 -144 38.5t-58 112.5q0 96 91 129t231 33v87q0 45 -11.5 70t-44.5 25q-71 0 -71 -91q0 -18 4 -50q-7 -5 -24 -7t-30 -2q-48 0 -80 20.5t-32 62.5q0 66 74 95t166 29q119 0 182 -42t63 -146v-225q0 -65 31 -105q-15 -13 -41.5 -20
t-50.5 -7q-93 0 -122 60q-16 -35 -52 -51zM323 79q15 30 15 74v88q-63 0 -95 -25t-32 -83q0 -37 15.5 -60.5t47.5 -23.5q34 0 49 30zM475 729q29 -21 29 -59t-30.5 -59t-79.5 -21q-48 0 -77.5 20.5t-29.5 57.5q0 39 31.5 60.5t79.5 21.5t77 -21zM245 729q29 -21 29 -59
t-30.5 -59t-79.5 -21q-48 0 -77.5 20.5t-29.5 57.5q0 39 31.5 60.5t79.5 21.5t77 -21z" />
    <glyph glyph-name="aring" unicode="&#xe5;" horiz-adv-x="581" 
d="M16 0zM299 -6q-36 -16 -81 -16q-86 0 -144 38.5t-58 112.5q0 96 91 129t231 33v87q0 45 -11.5 70t-44.5 25q-71 0 -71 -91q0 -18 4 -50q-7 -5 -24 -7t-30 -2q-48 0 -80 20.5t-32 62.5q0 66 74 95t166 29q119 0 182 -42t63 -146v-225q0 -65 31 -105q-15 -13 -41.5 -20
t-50.5 -7q-93 0 -122 60q-16 -35 -52 -51zM323 79q15 30 15 74v88q-63 0 -95 -25t-32 -83q0 -37 15.5 -60.5t47.5 -23.5q34 0 49 30zM199.5 605.5q-32.5 26.5 -32.5 70.5q0 45 31.5 69.5t83.5 24.5t83.5 -24.5t31.5 -69.5q0 -44 -32.5 -70.5t-82.5 -26.5t-82.5 26.5z
M315.5 635.5q11.5 15.5 11.5 40.5q0 24 -11.5 39t-33.5 15t-33.5 -15t-11.5 -39q0 -25 11 -40.5t34 -15.5q22 0 33.5 15.5z" />
    <glyph glyph-name="ae" unicode="&#xe6;" horiz-adv-x="845" 
d="M801.5 148.5q7.5 -15.5 7.5 -33.5q0 -45 -30 -76t-77 -46t-97 -15q-133 0 -202 77q-33 -40 -78.5 -58.5t-106.5 -18.5q-86 0 -144 38.5t-58 112.5q0 96 90 127t232 31v91q0 45 -11.5 70t-44.5 25q-71 0 -71 -91q0 -18 4 -50q-7 -5 -24 -7t-30 -2q-48 0 -80 20.5t-32 62.5
q0 66 74 95t166 29q112 0 169 -34q68 34 163 34q88 0 149 -36t61 -109q0 -90 -65 -121.5t-180 -31.5q-33 0 -51 3q4 -64 28.5 -100t80.5 -36q43 0 80 18.5t56 53.5q14 -7 21.5 -22.5zM551 414.5q-16 -55.5 -17 -134.5q66 0 95.5 22.5t29.5 82.5q0 36 -12 60.5t-40 24.5
q-40 0 -56 -55.5zM338 237q-64 0 -95.5 -23.5t-31.5 -80.5q0 -37 15.5 -60.5t47.5 -23.5q34 0 49 30t15 74v84z" />
    <glyph glyph-name="ccedilla" unicode="&#xe7;" horiz-adv-x="505" 
d="M478 157.5q10 -15.5 10 -35.5q0 -70 -55.5 -107t-134.5 -37h-2l-15 -36l25 1q57 0 91 -23.5t34 -73.5t-43.5 -77t-102.5 -27q-41 0 -74 13.5t-33 47.5q0 25 12 40q26 -33 79 -33q16 0 28 11t12 28q0 24 -18.5 32.5t-48.5 8.5q-14 0 -40 -2l35 95q-101 17 -155 89t-54 187
q0 132 72.5 201.5t205.5 69.5q84 0 139.5 -29t55.5 -97q0 -41 -32.5 -62t-80.5 -21q-13 0 -29.5 2t-23.5 7q4 32 4 51q0 39 -9.5 64t-37.5 25q-64 0 -64 -206q0 -78 23.5 -121.5t86.5 -43.5q39 0 67.5 20.5t44.5 57.5q18 -4 28 -19.5z" />
    <glyph glyph-name="egrave" unicode="&#xe8;" horiz-adv-x="539" 
d="M28 0zM495 148.5q7 -15.5 7 -33.5q0 -45 -30 -76t-76.5 -46t-97.5 -15q-129 0 -199.5 74.5t-70.5 206.5q0 134 74.5 202.5t211.5 68.5q88 0 149 -36t61 -109q0 -90 -65 -123.5t-179 -33.5q-33 0 -51 3q4 -63 28.5 -97.5t80.5 -34.5q43 0 80 18.5t56 53.5q14 -7 21 -22.5z
M322.5 300.5q30.5 24.5 30.5 84.5q0 36 -12.5 60.5t-40.5 24.5q-69 0 -72 -194q64 0 94.5 24.5zM241 614q-55 16 -83.5 32.5t-28.5 50.5q0 22 16 43t38 31l220 -150l-22 -47z" />
    <glyph glyph-name="eacute" unicode="&#xe9;" horiz-adv-x="539" 
d="M28 0zM495 148.5q7 -15.5 7 -33.5q0 -45 -30 -76t-76.5 -46t-97.5 -15q-129 0 -199.5 74.5t-70.5 206.5q0 134 74.5 202.5t211.5 68.5q88 0 149 -36t61 -109q0 -90 -65 -123.5t-179 -33.5q-33 0 -51 3q4 -63 28.5 -97.5t80.5 -34.5q43 0 80 18.5t56 53.5q14 -7 21 -22.5z
M322.5 300.5q30.5 24.5 30.5 84.5q0 36 -12.5 60.5t-40.5 24.5q-69 0 -72 -194q64 0 94.5 24.5zM417 771q22 -10 38 -31t16 -43q0 -34 -28 -50.5t-83 -32.5l-141 -40l-22 47z" />
    <glyph glyph-name="ecircumflex" unicode="&#xea;" horiz-adv-x="539" 
d="M28 0zM495 148.5q7 -15.5 7 -33.5q0 -45 -30 -76t-76.5 -46t-97.5 -15q-129 0 -199.5 74.5t-70.5 206.5q0 134 74.5 202.5t211.5 68.5q88 0 149 -36t61 -109q0 -90 -65 -123.5t-179 -33.5q-33 0 -51 3q4 -63 28.5 -97.5t80.5 -34.5q43 0 80 18.5t56 53.5q14 -7 21 -22.5z
M322.5 300.5q30.5 24.5 30.5 84.5q0 36 -12.5 60.5t-40.5 24.5q-69 0 -72 -194q64 0 94.5 24.5zM165 585l-39 47l152 115h43l154 -115l-39 -47l-135 51z" />
    <glyph glyph-name="edieresis" unicode="&#xeb;" horiz-adv-x="539" 
d="M28 0zM495 148.5q7 -15.5 7 -33.5q0 -45 -30 -76t-76.5 -46t-97.5 -15q-129 0 -199.5 74.5t-70.5 206.5q0 134 74.5 202.5t211.5 68.5q88 0 149 -36t61 -109q0 -90 -65 -123.5t-179 -33.5q-33 0 -51 3q4 -63 28.5 -97.5t80.5 -34.5q43 0 80 18.5t56 53.5q14 -7 21 -22.5z
M322.5 300.5q30.5 24.5 30.5 84.5q0 36 -12.5 60.5t-40.5 24.5q-69 0 -72 -194q64 0 94.5 24.5zM493 729q29 -21 29 -59t-30.5 -59t-79.5 -21q-48 0 -77.5 20.5t-29.5 57.5q0 39 31.5 60.5t79.5 21.5t77 -21zM263 729q29 -21 29 -59t-30.5 -59t-79.5 -21q-48 0 -77.5 20.5
t-29.5 57.5q0 39 31.5 60.5t79.5 21.5t77 -21z" />
    <glyph glyph-name="igrave" unicode="&#xec;" horiz-adv-x="296" 
d="M0 0zM243 117q0 -65 31 -105q-15 -13 -42 -20t-51 -7q-65 0 -99.5 31t-34.5 94v400h196v-393zM86 614q-55 16 -83.5 32.5t-28.5 50.5q0 22 16 43t38 31l220 -150l-22 -47z" />
    <glyph glyph-name="iacute" unicode="&#xed;" horiz-adv-x="296" 
d="M42 0zM243 117q0 -65 31 -105q-15 -13 -42 -20t-51 -7q-65 0 -99.5 31t-34.5 94v400h196v-393zM262 771q22 -10 38 -31t16 -43q0 -34 -28 -50.5t-83 -32.5l-141 -40l-22 47z" />
    <glyph glyph-name="icircumflex" unicode="&#xee;" horiz-adv-x="296" 
d="M0 0zM243 117q0 -65 31 -105q-15 -13 -42 -20t-51 -7q-65 0 -99.5 31t-34.5 94v400h196v-393zM10 585l-39 47l152 115h43l154 -115l-39 -47l-135 51z" />
    <glyph glyph-name="idieresis" unicode="&#xef;" horiz-adv-x="296" 
d="M0 0zM243 117q0 -65 31 -105q-15 -13 -42 -20t-51 -7q-65 0 -99.5 31t-34.5 94v400h196v-393zM338 729q29 -21 29 -59t-30.5 -59t-79.5 -21q-48 0 -77.5 20.5t-29.5 57.5q0 39 31.5 60.5t79.5 21.5t77 -21zM108 729q29 -21 29 -59t-30.5 -59t-79.5 -21q-48 0 -77.5 20.5
t-29.5 57.5q0 39 31.5 60.5t79.5 21.5t77 -21z" />
    <glyph glyph-name="eth" unicode="&#xf0;" horiz-adv-x="600" 
d="M459 652l82 30q3 -4 6.5 -10.5t4.5 -8.5q5 -12 5 -20q0 -27 -36 -41l-18 -7q62 -106 62 -280q0 -155 -64.5 -246t-203.5 -91q-77 0 -138 30.5t-96 87t-35 131.5q0 99 44 158.5t107 83.5t128 24q30 0 49 -5q-3 33 -8 51l-76 -28q-8 11 -11 19q-4 9 -4 20q0 28 34 41l24 9
q-23 17 -62 17q-32 0 -54 -15q-5 10 -9 25.5t-4 27.5q0 35 27.5 50t71.5 15q108 0 174 -68zM343 72q15 34 18.5 84.5t3.5 134.5q0 69 -7 120q-24 22 -51 22q-51 0 -65 -56t-14 -143q0 -82 12.5 -139t56.5 -57q31 0 46 34z" />
    <glyph glyph-name="ntilde" unicode="&#xf1;" horiz-adv-x="594" 
d="M47 0zM47 510l158 12l8 -90q20 52 61 75t102 23q90 0 130.5 -47t40.5 -141v-225q0 -65 31 -105q-15 -13 -42 -20t-51 -7q-64 0 -99 31t-35 94v230q0 54 -8.5 84t-41.5 30q-27 0 -40 -19.5t-15.5 -46t-2.5 -68.5v-320h-196v510zM507.5 698.5q6.5 -16.5 6.5 -31.5
q0 -37 -27 -50.5t-73 -13.5q-27 0 -105 10t-106 10q-44 0 -64 -20q-10 12 -16.5 28.5t-6.5 31.5q0 37 26.5 50.5t73.5 13.5q26 0 104 -10t107 -10q44 0 64 21q10 -13 16.5 -29.5z" />
    <glyph glyph-name="ograve" unicode="&#xf2;" horiz-adv-x="584" 
d="M28 0zM488.5 460.5q67.5 -69.5 67.5 -198.5q0 -85 -31 -149t-90.5 -99.5t-142.5 -35.5q-81 0 -140.5 34t-91.5 96t-32 144q0 131 68.5 204.5t195.5 73.5q129 0 196.5 -69.5zM344.5 99q11.5 61 11.5 158q0 96 -11.5 154.5t-52.5 58.5t-52.5 -58.5t-11.5 -154.5
q0 -97 11.5 -158t52.5 -61t52.5 61zM233 614q-55 16 -83.5 32.5t-28.5 50.5q0 22 16 43t38 31l220 -150l-22 -47z" />
    <glyph glyph-name="oacute" unicode="&#xf3;" horiz-adv-x="584" 
d="M28 0zM488.5 460.5q67.5 -69.5 67.5 -198.5q0 -85 -31 -149t-90.5 -99.5t-142.5 -35.5q-81 0 -140.5 34t-91.5 96t-32 144q0 131 68.5 204.5t195.5 73.5q129 0 196.5 -69.5zM344.5 99q11.5 61 11.5 158q0 96 -11.5 154.5t-52.5 58.5t-52.5 -58.5t-11.5 -154.5
q0 -97 11.5 -158t52.5 -61t52.5 61zM409 771q22 -10 38 -31t16 -43q0 -34 -28 -50.5t-83 -32.5l-141 -40l-22 47z" />
    <glyph glyph-name="ocircumflex" unicode="&#xf4;" horiz-adv-x="584" 
d="M28 0zM488.5 460.5q67.5 -69.5 67.5 -198.5q0 -85 -31 -149t-90.5 -99.5t-142.5 -35.5q-81 0 -140.5 34t-91.5 96t-32 144q0 131 68.5 204.5t195.5 73.5q129 0 196.5 -69.5zM344.5 99q11.5 61 11.5 158q0 96 -11.5 154.5t-52.5 58.5t-52.5 -58.5t-11.5 -154.5
q0 -97 11.5 -158t52.5 -61t52.5 61zM157 585l-39 47l152 115h43l154 -115l-39 -47l-135 51z" />
    <glyph glyph-name="otilde" unicode="&#xf5;" horiz-adv-x="584" 
d="M28 0zM488.5 460.5q67.5 -69.5 67.5 -198.5q0 -85 -31 -149t-90.5 -99.5t-142.5 -35.5q-81 0 -140.5 34t-91.5 96t-32 144q0 131 68.5 204.5t195.5 73.5q129 0 196.5 -69.5zM344.5 99q11.5 61 11.5 158q0 96 -11.5 154.5t-52.5 58.5t-52.5 -58.5t-11.5 -154.5
q0 -97 11.5 -158t52.5 -61t52.5 61zM484.5 698.5q6.5 -16.5 6.5 -31.5q0 -37 -27 -50.5t-73 -13.5q-27 0 -105 10t-106 10q-44 0 -64 -20q-10 12 -16.5 28.5t-6.5 31.5q0 37 26.5 50.5t73.5 13.5q26 0 104 -10t107 -10q44 0 64 21q10 -13 16.5 -29.5z" />
    <glyph glyph-name="odieresis" unicode="&#xf6;" horiz-adv-x="584" 
d="M28 0zM488.5 460.5q67.5 -69.5 67.5 -198.5q0 -85 -31 -149t-90.5 -99.5t-142.5 -35.5q-81 0 -140.5 34t-91.5 96t-32 144q0 131 68.5 204.5t195.5 73.5q129 0 196.5 -69.5zM344.5 99q11.5 61 11.5 158q0 96 -11.5 154.5t-52.5 58.5t-52.5 -58.5t-11.5 -154.5
q0 -97 11.5 -158t52.5 -61t52.5 61zM485 729q29 -21 29 -59t-30.5 -59t-79.5 -21q-48 0 -77.5 20.5t-29.5 57.5q0 39 31.5 60.5t79.5 21.5t77 -21zM255 729q29 -21 29 -59t-30.5 -59t-79.5 -21q-48 0 -77.5 20.5t-29.5 57.5q0 39 31.5 60.5t79.5 21.5t77 -21z" />
    <glyph glyph-name="divide" unicode="&#xf7;" 
d="M365 358.5q-22 -16.5 -56 -16.5t-54.5 16t-20.5 45q0 30 22.5 47t56.5 17q33 0 53.5 -16.5t20.5 -45.5q0 -30 -22 -46.5zM98 235q0 27 17 41t46 14h351q11 -22 11 -44q0 -27 -17 -41t-46 -14h-351q-11 22 -11 44zM365 30.5q-22 -16.5 -56 -16.5t-54.5 16t-20.5 45
q0 30 22.5 47t56.5 17q33 0 53.5 -16.5t20.5 -45.5q0 -30 -22 -46.5z" />
    <glyph glyph-name="oslash" unicode="&#xf8;" horiz-adv-x="584" 
d="M556 262q0 -85 -31 -149t-90.5 -99.5t-142.5 -35.5q-69 0 -128 27l-41 -62q-27 0 -47.5 11.5t-20.5 32.5q0 17 16 40l22 33q-32 35 -48.5 84.5t-16.5 107.5q0 131 68.5 204.5t195.5 73.5q55 0 102 -14l55 84q27 0 48 -11t21 -33q0 -18 -17 -40l-27 -42q82 -68 82 -212z
M240 413q-12 -57 -12 -148l110 166q-16 39 -46 39q-40 0 -52 -57zM344.5 99q11.5 61 11.5 158v39l-119 -181q14 -77 55 -77t52.5 61z" />
    <glyph glyph-name="ugrave" unicode="&#xf9;" horiz-adv-x="605" 
d="M47 0zM551 117q0 -65 31 -105q-15 -13 -42 -20t-51 -7q-93 0 -121 60q-44 -67 -140 -67q-74 0 -113.5 31t-53.5 86t-14 141v274h200v-269q0 -67 2.5 -103.5t13 -60t34.5 -23.5q58 0 58 108v348h196v-393zM238 614q-55 16 -83.5 32.5t-28.5 50.5q0 22 16 43t38 31
l220 -150l-22 -47z" />
    <glyph glyph-name="uacute" unicode="&#xfa;" horiz-adv-x="605" 
d="M47 0zM551 117q0 -65 31 -105q-15 -13 -42 -20t-51 -7q-93 0 -121 60q-44 -67 -140 -67q-74 0 -113.5 31t-53.5 86t-14 141v274h200v-269q0 -67 2.5 -103.5t13 -60t34.5 -23.5q58 0 58 108v348h196v-393zM414 771q22 -10 38 -31t16 -43q0 -34 -28 -50.5t-83 -32.5
l-141 -40l-22 47z" />
    <glyph glyph-name="ucircumflex" unicode="&#xfb;" horiz-adv-x="605" 
d="M47 0zM551 117q0 -65 31 -105q-15 -13 -42 -20t-51 -7q-93 0 -121 60q-44 -67 -140 -67q-74 0 -113.5 31t-53.5 86t-14 141v274h200v-269q0 -67 2.5 -103.5t13 -60t34.5 -23.5q58 0 58 108v348h196v-393zM162 585l-39 47l152 115h43l154 -115l-39 -47l-135 51z" />
    <glyph glyph-name="udieresis" unicode="&#xfc;" horiz-adv-x="605" 
d="M47 0zM551 117q0 -65 31 -105q-15 -13 -42 -20t-51 -7q-93 0 -121 60q-44 -67 -140 -67q-74 0 -113.5 31t-53.5 86t-14 141v274h200v-269q0 -67 2.5 -103.5t13 -60t34.5 -23.5q58 0 58 108v348h196v-393zM490 729q29 -21 29 -59t-30.5 -59t-79.5 -21q-48 0 -77.5 20.5
t-29.5 57.5q0 39 31.5 60.5t79.5 21.5t77 -21zM260 729q29 -21 29 -59t-30.5 -59t-79.5 -21q-48 0 -77.5 20.5t-29.5 57.5q0 39 31.5 60.5t79.5 21.5t77 -21z" />
    <glyph glyph-name="yacute" unicode="&#xfd;" horiz-adv-x="533" 
d="M10 0zM538 510l-249 -703l-196 13l118 239h-75l-126 451h205l78 -372l84 372h161zM409 771q22 -10 38 -31t16 -43q0 -34 -28 -50.5t-83 -32.5l-141 -40l-22 47z" />
    <glyph glyph-name="thorn" unicode="&#xfe;" horiz-adv-x="601" 
d="M250 600q0 -93 -9 -130q43 60 143 60q101 0 145 -73.5t44 -194.5q0 -137 -72 -210.5t-207 -73.5q-23 0 -44 3v-161l-196 -13v893l196 20v-120zM268 434q-13 -20 -15.5 -46.5t-2.5 -68.5v-263q21 -18 51 -18q46 0 59 60t13 159q0 91 -12 144t-53 53q-27 0 -40 -20z" />
    <glyph glyph-name="ydieresis" unicode="&#xff;" horiz-adv-x="533" 
d="M10 0zM538 510l-249 -703l-196 13l118 239h-75l-126 451h205l78 -372l84 372h161zM485 729q29 -21 29 -59t-30.5 -59t-79.5 -21q-48 0 -77.5 20.5t-29.5 57.5q0 39 31.5 60.5t79.5 21.5t77 -21zM255 729q29 -21 29 -59t-30.5 -59t-79.5 -21q-48 0 -77.5 20.5t-29.5 57.5
q0 39 31.5 60.5t79.5 21.5t77 -21z" />
    <glyph glyph-name="dotlessi" unicode="&#x131;" horiz-adv-x="296" 
d="M243 117q0 -65 31 -105q-15 -13 -42 -20t-51 -7q-65 0 -99.5 31t-34.5 94v400h196v-393z" />
    <glyph glyph-name="OE" unicode="&#x152;" horiz-adv-x="808" 
d="M800 0h-338q-58 -22 -127 -22q-100 0 -171 43.5t-107.5 122.5t-36.5 182q0 166 79 260t236 94q74 0 132 -20h326v-84h-178v-195h148v-84h-148v-213h193zM404 132q16 80 16 201q0 119 -16 196t-69 77t-69 -77t-16 -196q0 -121 16 -201t69 -80t69 80z" />
    <glyph glyph-name="oe" unicode="&#x153;" horiz-adv-x="867" 
d="M823 148.5q7 -15.5 7 -33.5q0 -45 -30 -76t-76.5 -46t-97.5 -15q-97 0 -171 53q-72 -53 -163 -53q-81 0 -140.5 34t-91.5 96t-32 144q0 131 68.5 204.5t195.5 73.5q98 0 168 -50q39 25 86.5 37.5t95.5 12.5q89 0 149.5 -36t60.5 -109q0 -90 -65 -123.5t-179 -33.5
q-33 0 -51 3q4 -63 28.5 -97.5t80.5 -34.5q43 0 80 18.5t56 53.5q14 -7 21 -22.5zM343 415.5q-12 54.5 -51 54.5q-41 0 -52.5 -58.5t-11.5 -154.5q0 -97 11.5 -158t52.5 -61t52.5 61t11.5 158v15q-1 89 -13 143.5zM650.5 300.5q30.5 24.5 30.5 84.5q0 36 -12.5 60.5
t-40.5 24.5q-69 0 -72 -194q64 0 94.5 24.5z" />
    <glyph glyph-name="uni02BC" unicode="&#x2bc;" horiz-adv-x="197" 
d="M166 709q22 -22 22 -72q0 -38 -18.5 -72t-50 -54.5t-69.5 -20.5q-20 0 -40 5q41 60 41 122q0 52 -23 97q9 7 28.5 12t37.5 5q50 0 72 -22z" />
    <glyph glyph-name="circumflex" unicode="&#x2c6;" horiz-adv-x="369" 
d="M49 585l-39 47l152 115h43l154 -115l-39 -47l-135 51z" />
    <glyph glyph-name="ring" unicode="&#x2da;" horiz-adv-x="250" 
d="M42.5 605.5q-32.5 26.5 -32.5 70.5q0 45 31.5 69.5t83.5 24.5t83.5 -24.5t31.5 -69.5q0 -44 -32.5 -70.5t-82.5 -26.5t-82.5 26.5zM158.5 635.5q11.5 15.5 11.5 40.5q0 24 -11.5 39t-33.5 15t-33.5 -15t-11.5 -39q0 -25 11 -40.5t34 -15.5q22 0 33.5 15.5z" />
    <glyph glyph-name="tilde" unicode="&#x2dc;" horiz-adv-x="463" 
d="M433.5 698.5q6.5 -16.5 6.5 -31.5q0 -37 -27 -50.5t-73 -13.5q-27 0 -105 10t-106 10q-44 0 -64 -20q-10 12 -16.5 28.5t-6.5 31.5q0 37 26.5 50.5t73.5 13.5q26 0 104 -10t107 -10q44 0 64 21q10 -13 16.5 -29.5z" />
    <glyph glyph-name="uni2002" unicode="&#x2002;" horiz-adv-x="605" 
 />
    <glyph glyph-name="endash" unicode="&#x2013;" horiz-adv-x="514" 
d="M7 223q0 34 20 51.5t55 17.5h420q5 -12 5 -33q0 -35 -20 -52t-57 -17h-419q-4 13 -4 33z" />
    <glyph glyph-name="emdash" unicode="&#x2014;" horiz-adv-x="1012" 
d="M7 223q0 34 20 51.5t55 17.5h918q5 -12 5 -33q0 -34 -20 -51.5t-56 -17.5h-918q-4 13 -4 33z" />
    <glyph glyph-name="quoteleft" unicode="&#x2018;" horiz-adv-x="319" 
d="M125.5 484q-29.5 28 -29.5 84q0 43 23 80.5t61 60t81 22.5q23 0 46 -5q-48 -68 -48 -140q0 -61 28 -111q-10 -8 -33 -13.5t-43 -5.5q-56 0 -85.5 28z" />
    <glyph glyph-name="quoteright" unicode="&#x2019;" horiz-adv-x="247" 
d="M193.5 703q29.5 -28 29.5 -83q0 -44 -23 -81.5t-61 -60t-81 -22.5q-25 0 -46 6q48 67 48 140q0 61 -28 110q10 8 33 13.5t43 5.5q56 0 85.5 -28z" />
    <glyph glyph-name="quotesinglbase" unicode="&#x201a;" horiz-adv-x="247" 
d="M193.5 111q29.5 -28 29.5 -84q0 -43 -23 -80.5t-61 -60t-81 -22.5q-25 0 -46 6q48 67 48 139q0 62 -28 111q10 8 33 13.5t43 5.5q56 0 85.5 -28z" />
    <glyph glyph-name="quotedblleft" unicode="&#x201c;" horiz-adv-x="481" 
d="M54 484q-29 28 -29 84q0 43 22.5 80.5t60.5 60t82 22.5q22 0 45 -5q-47 -69 -47 -140q0 -60 27 -111q-10 -8 -32.5 -13.5t-43.5 -5.5q-56 0 -85 28zM288 484q-29 28 -29 84q0 43 22.5 80.5t60.5 60t82 22.5q22 0 45 -5q-47 -69 -47 -140q0 -60 27 -111
q-10 -8 -32.5 -13.5t-43.5 -5.5q-56 0 -85 28z" />
    <glyph glyph-name="quotedblright" unicode="&#x201d;" horiz-adv-x="481" 
d="M193.5 703q29.5 -28 29.5 -83q0 -44 -23 -81.5t-61 -60t-81 -22.5q-25 0 -46 6q48 67 48 140q0 61 -28 110q10 8 33 13.5t43 5.5q56 0 85.5 -28zM427.5 703q29.5 -28 29.5 -83q0 -44 -23 -81.5t-61 -60t-81 -22.5q-25 0 -46 6q48 67 48 140q0 60 -27 110q9 8 32 13.5
t43 5.5q56 0 85.5 -28z" />
    <glyph glyph-name="quotedblbase" unicode="&#x201e;" horiz-adv-x="481" 
d="M193.5 112q29.5 -28 29.5 -84q0 -43 -23 -80.5t-61 -60t-81 -22.5q-25 0 -46 6q48 67 48 139q0 62 -28 111q10 8 33 13.5t43 5.5q56 0 85.5 -28zM427.5 112q29.5 -28 29.5 -84q0 -43 -23 -80.5t-61 -60t-81 -22.5q-25 0 -46 6q48 67 48 139q0 61 -27 111q9 8 32 13.5
t43 5.5q56 0 85.5 -28z" />
    <glyph glyph-name="bullet" unicode="&#x2022;" horiz-adv-x="311" 
d="M249 336q34 -28 34 -76q0 -50 -36 -78.5t-93 -28.5q-56 0 -90.5 28t-34.5 75q0 50 37 79t94 29q55 0 89 -28z" />
    <glyph glyph-name="ellipsis" unicode="&#x2026;" horiz-adv-x="756" 
d="M30 0zM468 119q29 -21 29 -59t-30.5 -59t-79.5 -21q-48 0 -77.5 20.5t-29.5 57.5q0 39 31.5 60.5t79.5 21.5t77 -21zM687 119q29 -21 29 -59t-30.5 -59t-79.5 -21q-48 0 -77.5 20.5t-29.5 57.5q0 39 31.5 60.5t79.5 21.5t77 -21zM218 119q29 -21 29 -59t-30.5 -59
t-79.5 -21q-48 0 -77.5 20.5t-29.5 57.5q0 39 31.5 60.5t79.5 21.5t77 -21z" />
    <glyph glyph-name="guilsinglleft" unicode="&#x2039;" horiz-adv-x="289" 
d="M138 510h120l-87 -193l83 -191h-117l-131 191z" />
    <glyph glyph-name="guilsinglright" unicode="&#x203a;" horiz-adv-x="289" 
d="M283 317l-132 -191h-117l84 191l-87 193h120z" />
    <glyph glyph-name="fraction" unicode="&#x2044;" horiz-adv-x="327" 
d="M254 720q20 0 32 -9.5t12 -28.5q0 -14 -3 -28l-187 -740q-13 -5 -37 -5q-20 0 -32.5 9.5t-12.5 28.5q0 10 4 28l186 740q13 5 38 5z" />
    <glyph glyph-name="Euro" unicode="&#x20ac;" 
d="M610 116q0 -46 -36.5 -77t-92 -46t-113.5 -15q-244 0 -292 231h-76q-3 11 -3 24q0 25 14.5 37.5t39.5 12.5h15q-1 14 -1 43v17h-65q-3 11 -3 24q0 25 14.5 37.5t39.5 12.5h22q23 120 106.5 181.5t214.5 61.5q99 0 156.5 -25t57.5 -90q0 -47 -36 -70t-89 -23q-28 0 -52 6
q6 32 6 56q0 40 -11 56t-46 16q-78 0 -84 -169h133l2 -24q0 -25 -14.5 -37.5t-40.5 -12.5h-81q0 -31 3 -60h131l2 -24q0 -25 -14.5 -37.5t-40.5 -12.5h-66q13 -41 40.5 -62.5t74.5 -21.5q101 0 146 63q39 -24 39 -72z" />
    <glyph glyph-name="trademark" unicode="&#x2122;" horiz-adv-x="793" 
d="M282 660l-5 -52h-71v-311h-124v311h-75v52h275zM710 660l36 -363h-123l-21 282l-76 -282h-73l-77 282l-21 -282h-70l40 363h142l51 -203l52 203h140z" />
    <glyph glyph-name="minus" unicode="&#x2212;" 
d="M98 235q0 27 17 41t46 14h351q11 -22 11 -44q0 -27 -17 -41t-46 -14h-351q-11 22 -11 44z" />
    <glyph glyph-name="uni2215" unicode="&#x2215;" horiz-adv-x="117" 
d="M192.5 710.5q12.5 -9.5 12.5 -28.5q0 -10 -4 -28l-187 -740q-13 -5 -37 -5q-20 0 -32.5 9.5t-12.5 28.5q0 10 4 28l186 740q13 5 38 5q20 0 32.5 -9.5z" />
    <glyph glyph-name="Ldot" horiz-adv-x="487" 
d="M50 660h214v-570h180l-10 -90h-384v660zM435 376q17 -19 17 -51t-18.5 -51t-49.5 -19t-48.5 18.5t-17.5 48.5q0 33 19.5 53t50.5 20q30 0 47 -19z" />
    <glyph glyph-name="uni1E9E" horiz-adv-x="759" 
d="M40 321q0 181 84 270t262 89q89 0 157.5 -29.5t112.5 -96.5q-58 -9 -98 -33t-40 -68q0 -31 24 -58t74 -67q41 -33 66.5 -57t43 -55t17.5 -67q0 -89 -65.5 -130t-170.5 -41q-82 0 -145 25t-63 84q0 41 32.5 61.5t80.5 20.5q13 0 29.5 -2t23.5 -7q-4 -32 -4 -50
q0 -75 53 -75q26 0 40.5 17.5t14.5 44.5q0 39 -26 70.5t-78 74.5q-55 44 -83.5 79t-28.5 80q0 58 40 95.5t101 57.5q-43 51 -108 51q-52 0 -80 -30t-38.5 -88t-10.5 -155v-332h-217v321z" />
    <glyph glyph-name="Y.loclGUA" horiz-adv-x="647" 
d="M597 144q0 -173 -69.5 -258.5t-231.5 -85.5q-88 0 -156 29.5t-68 95.5q0 52 35 78t90 26q30 0 52 -7q-6 -33 -6 -66q0 -82 67 -82q59 0 77.5 65t18.5 187q-19 -31 -57 -44t-84 -13q-118 0 -166.5 66t-48.5 197v328h214v-317q0 -69 4.5 -107.5t19.5 -60t46 -21.5
q32 0 47.5 22t20 63t4.5 115v306h191v-516z" />
    <glyph glyph-name="Yacute.loclGUA" horiz-adv-x="647" 
d="M50 0zM597 144q0 -173 -69.5 -258.5t-231.5 -85.5q-88 0 -156 29.5t-68 95.5q0 52 35 78t90 26q30 0 52 -7q-6 -33 -6 -66q0 -82 67 -82q59 0 77.5 65t18.5 187q-19 -31 -57 -44t-84 -13q-118 0 -166.5 66t-48.5 197v328h214v-317q0 -69 4.5 -107.5t19.5 -60t46 -21.5
q32 0 47.5 22t20 63t4.5 115v306h191v-516zM464 863q16 -14 27 -34t11 -40q0 -28 -18.5 -42.5t-43.5 -19t-65 -7.5l-146 -10l-12 51z" />
    <glyph glyph-name="uni1EF8.loclGUA" horiz-adv-x="647" 
d="M50 0zM597 144q0 -173 -69.5 -258.5t-231.5 -85.5q-88 0 -156 29.5t-68 95.5q0 52 35 78t90 26q30 0 52 -7q-6 -33 -6 -66q0 -82 67 -82q59 0 77.5 65t18.5 187q-19 -31 -57 -44t-84 -13q-118 0 -166.5 66t-48.5 197v328h214v-317q0 -69 4.5 -107.5t19.5 -60t46 -21.5
q32 0 47.5 22t20 63t4.5 115v306h191v-516zM516.5 806.5q6.5 -16.5 6.5 -31.5q0 -37 -26.5 -50.5t-73.5 -13.5q-26 0 -104 10t-107 10q-44 0 -64 -20q-10 12 -16.5 28.5t-6.5 31.5q0 37 26.5 50.5t73.5 13.5q27 0 105 -10t106 -10q44 0 64 20q10 -12 16.5 -28.5z" />
    <glyph glyph-name="Oacute.loclPLK" horiz-adv-x="670" 
d="M20 0zM572 592q78 -88 78 -253t-80.5 -263t-234.5 -98q-100 0 -171 43.5t-107.5 122.5t-36.5 182q0 166 79 260t236 94q159 0 237 -88zM404 132q16 80 16 201q0 119 -16 196t-69 77t-69 -77t-16 -196q0 -121 16 -201t69 -80t69 80zM350 868q47 0 72.5 -16t25.5 -44
q0 -16 -19 -46.5t-54 -77.5l-71 16z" />
    <glyph glyph-name="i.loclTRK" horiz-adv-x="296" 
d="M40 0zM243 117q0 -65 31 -105q-15 -13 -42 -20t-51 -7q-65 0 -99.5 31t-34.5 94v400h196v-393zM228 729q29 -21 29 -59t-30.5 -59t-79.5 -21q-48 0 -77.5 20.5t-29.5 57.5q0 39 31.5 60.5t79.5 21.5t77 -21z" />
    <glyph glyph-name="ldot" horiz-adv-x="362" 
d="M243 720v-603q0 -65 31 -105q-15 -13 -42 -20t-51 -7q-65 0 -99.5 31t-34.5 94v590zM375 384.5q17 -18.5 17 -50.5t-18.5 -51t-49.5 -19t-49 18.5t-18 48.5q0 33 20 52.5t51 19.5q30 0 47 -18.5z" />
    <glyph glyph-name="y.loclGUA" horiz-adv-x="601" 
d="M547 101q0 -107 -26 -172.5t-86 -97t-163 -31.5q-48 0 -97 13.5t-82 41.5t-33 69t32.5 62t79.5 21q13 0 30 -2t24 -7q-4 -32 -4 -51q0 -90 57 -90q35 0 51 27t20 70.5t4 122.5v36q-44 -54 -130 -54q-71 0 -109.5 23.5t-53 70t-14.5 123.5v234h200v-229q0 -54 2 -82
t12 -46t32 -18q58 0 58 108v267h196v-409z" />
    <glyph glyph-name="yacute.loclGUA" horiz-adv-x="601" 
d="M47 0zM547 101q0 -107 -26 -172.5t-86 -97t-163 -31.5q-48 0 -97 13.5t-82 41.5t-33 69t32.5 62t79.5 21q13 0 30 -2t24 -7q-4 -32 -4 -51q0 -90 57 -90q35 0 51 27t20 70.5t4 122.5v36q-44 -54 -130 -54q-71 0 -109.5 23.5t-53 70t-14.5 123.5v234h200v-229q0 -54 2 -82
t12 -46t32 -18q58 0 58 108v267h196v-409zM418 771q22 -10 38 -31t16 -43q0 -34 -28 -50.5t-83 -32.5l-141 -40l-22 47z" />
    <glyph glyph-name="ydieresis.loclGUA" horiz-adv-x="601" 
d="M47 0zM547 101q0 -107 -26 -172.5t-86 -97t-163 -31.5q-48 0 -97 13.5t-82 41.5t-33 69t32.5 62t79.5 21q13 0 30 -2t24 -7q-4 -32 -4 -51q0 -90 57 -90q35 0 51 27t20 70.5t4 122.5v36q-44 -54 -130 -54q-71 0 -109.5 23.5t-53 70t-14.5 123.5v234h200v-229q0 -54 2 -82
t12 -46t32 -18q58 0 58 108v267h196v-409zM494 729q29 -21 29 -59t-30.5 -59t-79.5 -21q-48 0 -77.5 20.5t-29.5 57.5q0 39 31.5 60.5t79.5 21.5t77 -21zM264 729q29 -21 29 -59t-30.5 -59t-79.5 -21q-48 0 -77.5 20.5t-29.5 57.5q0 39 31.5 60.5t79.5 21.5t77 -21z" />
    <glyph glyph-name="uni1EF9.loclGUA" horiz-adv-x="601" 
d="M47 0zM547 101q0 -107 -26 -172.5t-86 -97t-163 -31.5q-48 0 -97 13.5t-82 41.5t-33 69t32.5 62t79.5 21q13 0 30 -2t24 -7q-4 -32 -4 -51q0 -90 57 -90q35 0 51 27t20 70.5t4 122.5v36q-44 -54 -130 -54q-71 0 -109.5 23.5t-53 70t-14.5 123.5v234h200v-229q0 -54 2 -82
t12 -46t32 -18q58 0 58 108v267h196v-409zM493.5 698.5q6.5 -16.5 6.5 -31.5q0 -37 -27 -50.5t-73 -13.5q-27 0 -105 10t-106 10q-44 0 -64 -20q-10 12 -16.5 28.5t-6.5 31.5q0 37 26.5 50.5t73.5 13.5q26 0 104 -10t107 -10q44 0 64 21q10 -13 16.5 -29.5z" />
    <glyph glyph-name="oacute.loclPLK" horiz-adv-x="584" 
d="M28 0zM488.5 460.5q67.5 -69.5 67.5 -198.5q0 -85 -31 -149t-90.5 -99.5t-142.5 -35.5q-81 0 -140.5 34t-91.5 96t-32 144q0 131 68.5 204.5t195.5 73.5q129 0 196.5 -69.5zM344.5 99q11.5 61 11.5 158q0 96 -11.5 154.5t-52.5 58.5t-52.5 -58.5t-11.5 -154.5
q0 -97 11.5 -158t52.5 -61t52.5 61zM309 778q47 0 72.5 -16t25.5 -44q0 -25 -56 -102l-42 -56l-53 22z" />
    <glyph glyph-name="uni03BC" horiz-adv-x="612" 
d="M589 12q-15 -13 -42 -20t-51 -7q-93 0 -121 60q-43 -63 -125 -66v-159l-196 -13v703l200 20v-289q0 -67 2.5 -103.5t13 -60t34.5 -23.5q58 0 58 108v348h196v-393q0 -65 31 -105z" />
    <glyph glyph-name="uni2153" horiz-adv-x="836" 
d="M548.5 701.5q12.5 -9.5 12.5 -28.5q0 -10 -4 -28l-186 -740q-13 -5 -38 -5q-20 0 -32.5 9.5t-12.5 28.5q0 10 4 28l187 740q13 5 37 5q20 0 32.5 -9.5zM262 665v-318h68v-62h-282v62h70v201q-22 -19 -51 -19q-25 0 -34 18t-9 51q113 37 186 82zM734.5 366.5
q37.5 -22.5 37.5 -68.5q0 -70 -80 -92q48 -5 73.5 -29t25.5 -67q0 -59 -42.5 -91.5t-111.5 -32.5q-54 0 -93.5 20.5t-39.5 63.5q0 23 15 35q16 -16 36.5 -24t42.5 -8q24 0 37.5 11.5t13.5 33.5q0 23 -13.5 35t-37.5 12q-20 0 -28 -1v53q82 0 82 49q0 21 -13.5 33t-35.5 12
q-24 0 -41 -12t-31 -35q-22 13 -22 41q0 42 39.5 63t92.5 21q56 0 93.5 -22.5z" />
    <glyph glyph-name="uni2154" horiz-adv-x="836" 
d="M548.5 701.5q12.5 -9.5 12.5 -28.5q0 -10 -4 -28l-186 -740q-13 -5 -37 -5q-20 0 -32.5 9.5t-12.5 28.5q0 10 4 28l186 740q13 5 37 5q20 0 32.5 -9.5zM294.5 645.5q43.5 -28.5 43.5 -85.5q0 -44 -29 -81.5t-78 -74.5l-44 -31l149 6v-94h-284l-4 51l47 39q46 41 72.5 78
t26.5 78q0 26 -15.5 40t-42.5 14q-48 0 -71 -37q-23 14 -23 41q0 42 44 63.5t98 21.5q67 0 110.5 -28.5zM734.5 366.5q37.5 -22.5 37.5 -68.5q0 -70 -79 -92q47 -5 72.5 -29t25.5 -67q0 -59 -42.5 -91.5t-111.5 -32.5q-54 0 -93.5 20.5t-39.5 63.5q0 23 15 35
q16 -16 36.5 -24t42.5 -8q24 0 37.5 11.5t13.5 33.5q0 23 -13.5 35t-37.5 12q-20 0 -28 -1v53q82 0 82 49q0 21 -13.5 33t-35.5 12q-24 0 -41 -12t-31 -35q-22 13 -22 41q0 42 39.5 63t92.5 21q56 0 93.5 -22.5z" />
    <glyph glyph-name="oneeighth" horiz-adv-x="836" 
d="M533.5 710.5q12.5 -9.5 12.5 -28.5q0 -10 -4 -28l-187 -740q-13 -5 -37 -5q-20 0 -32.5 9.5t-12.5 28.5q0 10 4 28l186 740q13 5 38 5q20 0 32.5 -9.5zM262 665v-318h68v-62h-282v62h70v201q-22 -19 -51 -19q-25 0 -34 18t-9 51q112 37 187 82zM761 368.5
q38 -20.5 38 -69.5q0 -29 -18.5 -49t-53.5 -38q43 -27 68 -54t25 -63q0 -54 -48 -81.5t-114 -27.5q-64 0 -110.5 26.5t-46.5 78.5q0 49 77 97q-33 27 -50.5 48.5t-17.5 51.5q0 52 44.5 76.5t108.5 24.5q60 0 98 -20.5zM636.5 332q-7.5 -10 -7.5 -27q0 -18 12.5 -31t41.5 -33
q13 25 13 59q0 20 -9 31t-27 11q-16 0 -23.5 -10zM612 91q0 -25 11.5 -41t34.5 -16q37 0 37 44q0 21 -15 35t-55 39q-13 -25 -13 -61z" />
    <glyph glyph-name="quotesingle.loclGUA" horiz-adv-x="151" 
d="M21 546q0 108 -18 178q34 6 56 6q53 0 75.5 -26t22.5 -82q0 -46 -17 -105t-42 -92h-86q9 51 9 121z" />
    <glyph glyph-name="uni20B2" 
d="M438 283l157 14v-278q-90 -35 -197 -40v-35q0 -28 -14 -45t-42 -17q-18 0 -44 11v89q-133 18 -198 108.5t-65 225.5q0 153 70 239.5t210 101.5v37q0 28 14 45t42 17q18 0 44 -11v-86q193 -12 193 -134q0 -52 -35.5 -82.5t-89.5 -30.5q-32 0 -52 6q6 30 6 55
q0 50 -17.5 81.5t-58.5 31.5q-95 0 -95 -231q0 -116 25 -183.5t103 -67.5q29 0 51 8z" />
    <glyph glyph-name="dotaccent" horiz-adv-x="212" 
d="M187 729q29 -21 29 -59t-30.5 -59t-79.5 -21q-48 0 -77.5 20.5t-29.5 57.5q0 39 31.5 60.5t79.5 21.5t77 -21z" />
    <glyph glyph-name="acute.case" horiz-adv-x="305" 
d="M257 863q16 -14 27 -34t11 -40q0 -28 -18.5 -42.5t-43.5 -19t-65 -7.5l-146 -10l-12 51z" />
    <glyph glyph-name="circumflex.case" horiz-adv-x="343" 
d="M35 684l-39 47l152 115h43l154 -115l-39 -47l-135 51z" />
    <glyph glyph-name="grave.case" horiz-adv-x="305" 
d="M137 720q-40 3 -65 7.5t-43.5 19t-18.5 42.5q0 20 11 40t27 34l247 -102l-12 -51z" />
    <glyph glyph-name="acute.loclPLK.case" horiz-adv-x="305" 
d="M125 868q47 0 72.5 -16t25.5 -44q0 -16 -19 -46.5t-54 -77.5l-71 16z" />
    <glyph glyph-name="ring.case" horiz-adv-x="251" 
d="M42.5 725.5q-32.5 26.5 -32.5 70.5q0 45 31.5 70t83.5 25t84 -25t32 -70q0 -44 -32.5 -70.5t-83.5 -26.5q-50 0 -82.5 26.5zM158.5 755q11.5 16 11.5 41q0 24 -11.5 39t-33.5 15t-33.5 -15t-11.5 -39q0 -26 11 -41.5t34 -15.5q22 0 33.5 16z" />
    <glyph glyph-name="tilde.case" horiz-adv-x="418" 
d="M401.5 806.5q6.5 -16.5 6.5 -31.5q0 -37 -26.5 -50.5t-73.5 -13.5q-26 0 -104 10t-107 10q-44 0 -64 -20q-10 12 -16.5 28.5t-6.5 31.5q0 37 26.5 50.5t73.5 13.5q27 0 105 -10t106 -10q44 0 64 20q10 -12 16.5 -28.5z" />
    <glyph glyph-name="acute.loclPLK" horiz-adv-x="294" 
d="M130 778q47 0 72.5 -16t25.5 -44q0 -25 -56 -102l-42 -56l-53 22z" />
    <glyph glyph-name=".ttfautohint" horiz-adv-x="198" 
d="M0 0z" />
    </font>
</defs>
</svg>
