<?xml version="1.0" standalone="no"?>
<!DOCTYPE svg PUBLIC "-//W3C//DTD SVG 1.1//EN" "http://www.w3.org/Graphics/SVG/1.1/DTD/svg11.dtd" >
<svg xmlns="http://www.w3.org/2000/svg" xmlns:xlink="http://www.w3.org/1999/xlink" version="1.1">
<metadata>
Created by FontForge 20170731 at Sun Dec  4 11:51:21 2016
 By Aleksey,,,
Copyright 2016 The Sansita Project Authors (omnibus.type@gmail.com)
</metadata>
<defs>
<font id="Sansita-ExtraBoldItalic" horiz-adv-x="572" >
  <font-face 
    font-family="Sansita ExtraBold"
    font-weight="800"
    font-style="italic"
    font-stretch="normal"
    units-per-em="1000"
    panose-1="3 6 8 2 3 8 5 6 5 6"
    ascent="800"
    descent="-200"
    x-height="530"
    cap-height="660"
    bbox="-120 -258 1000 862"
    underline-thickness="50"
    underline-position="-150"
    slope="-11"
    unicode-range="U+000D-2215"
  />
<missing-glyph horiz-adv-x="514" 
d="M-41 0l136 700h500l-136 -700h-500zM286 395l218 255h-340zM126 605l-100 -510l221 255zM307 350l119 -255l100 510zM49 50h340l-122 255z" />
    <glyph glyph-name="f_f" unicode="ff" horiz-adv-x="639" 
d="M379 720q105 0 150 -31q59 31 159 31q72 0 125 -18t53 -65q0 -34 -29 -51.5t-69 -17.5q-35 0 -59 12q6 11 10 29t4 32q0 35 -28 35q-26 0 -41 -25.5t-23 -72.5l-12 -68h91l-6 -45h-94l-83 -465l-206 -20l94 485h-124l-87 -465l-202 -20l94 485h-71l9 45h70l15 59
q38 151 260 151zM440 579q12 50 12 62q0 17 -13 26t-35 9q-34 0 -58.5 -24.5t-33.5 -73.5l-12 -68h124l11 48z" />
    <glyph glyph-name="fi" unicode="fi" horiz-adv-x="641" 
d="M554 149q-5 -27 -5 -42q0 -21 12 -36t35 -17q-11 -36 -48 -55t-82 -19q-51 0 -82.5 26.5t-31.5 76.5q0 49 33 211l4 20l29 151h-127l-87 -465l-202 -20l94 485h-71l9 45h72l19 61q28 88 98.5 118.5t189.5 30.5q91 0 163 -18.5t72 -75.5q0 -38 -33.5 -53t-78.5 -15
q-70 0 -96 33q11 19 11 38q0 21 -14 33t-38 12q-34 0 -53.5 -23t-29.5 -69l-16 -72h324z" />
    <glyph glyph-name="fl" unicode="fl" horiz-adv-x="642" 
d="M454 656q0 8 -16 13t-35 5q-38 0 -57 -22t-30 -70l-16 -72h70l-9 -45h-70l-87 -465l-202 -20l94 485h-71l9 45h72l19 61q25 82 94.5 115.5t176.5 33.5q43 0 71.5 -5t52.5 -15l145 20l-110 -571q-5 -27 -5 -42q0 -21 12 -36t35 -17q-11 -36 -48 -55t-82 -19
q-51 0 -82.5 26.5t-31.5 76.5q0 49 33 211l4 20l62 328z" />
    <glyph glyph-name=".notdef" horiz-adv-x="514" 
d="M-41 0l136 700h500l-136 -700h-500zM286 395l218 255h-340zM126 605l-100 -510l221 255zM307 350l119 -255l100 510zM49 50h340l-122 255z" />
    <glyph glyph-name=".null" horiz-adv-x="0" 
 />
    <glyph glyph-name="nonmarkingreturn" unicode="&#xd;" horiz-adv-x="175" 
 />
    <glyph glyph-name="NULL" horiz-adv-x="0" 
 />
    <glyph glyph-name="NULL" horiz-adv-x="0" 
 />
    <glyph glyph-name="space" unicode=" " horiz-adv-x="175" 
 />
    <glyph glyph-name="exclam" unicode="!" horiz-adv-x="331" 
d="M230 680q46 0 70.5 -26t24.5 -73q0 -35 -12 -74t-37 -99q-26 -64 -40.5 -110t-15.5 -92q-22 -26 -66 -26q-37 0 -58 19t-21 50q0 5 0.5 7.5l1.5 7.5l78 402q37 14 75 14zM210 112q27 -20 27 -56t-29 -56t-74 -20q-46 0 -74 19.5t-28 54.5q0 37 30 57.5t76 20.5
q45 0 72 -20z" />
    <glyph glyph-name="quotedbl" unicode="&#x22;" horiz-adv-x="432" 
d="M69.5 591.5q10.5 70.5 11.5 132.5q36 6 57 6q41 0 65 -21.5t24 -59.5q0 -41 -25 -102t-54 -86h-106q17 60 27.5 130.5zM277.5 591.5q10.5 70.5 11.5 132.5q36 6 57 6q42 0 66 -21.5t24 -59.5q0 -41 -25.5 -102t-54.5 -86h-106q17 60 27.5 130.5z" />
    <glyph glyph-name="numbersign" unicode="#" 
d="M553 222q0 -41 -18.5 -59.5t-55.5 -18.5h-51l-17 -83q-6 -28 -27 -44.5t-50 -16.5q-25 0 -51 12l26 132h-101l-17 -83q-6 -28 -27 -44.5t-50 -16.5q-25 0 -51 12l26 132h-88q-6 23 -6 40q0 42 19 60.5t55 18.5h43l21 113h-102q-6 23 -6 40q0 38 19.5 58.5t55.5 20.5h57
l20 104q12 61 78 61q23 0 51 -12l-30 -153h101l21 104q12 61 77 61q24 0 49 -12l-27 -153h82q5 -23 5 -41q0 -38 -19 -58t-55 -20h-38l-21 -113h96q6 -22 6 -41zM332 263l21 113h-101l-21 -113h101z" />
    <glyph glyph-name="dollar" unicode="$" 
d="M403 454q15 31 15 76q0 76 -58 76q-39 0 -69 -29.5t-30 -67.5q0 -36 27.5 -60t84.5 -55q11 -6 19.5 -10.5t14.5 -8.5q55 -32 87 -69.5t32 -95.5q0 -87 -70.5 -146t-179.5 -77l-5 -29q-7 -43 -22.5 -59t-48.5 -16q-25 0 -43 5l17 92q-74 3 -125 30t-51 93q0 49 31 80.5
t85 31.5q36 0 71 -13q-16 -39 -16 -85q0 -35 12.5 -52.5t44.5 -17.5q39 0 68.5 22.5t29.5 58.5q0 37 -28.5 62.5t-85.5 58.5q-6 3 -13.5 7.5t-15.5 9.5q-55 33 -86.5 72.5t-31.5 99.5q0 88 68 148t179 77l5 27q8 44 22.5 59.5t45.5 15.5q21 0 43 -5l-19 -92q75 -4 124.5 -31
t49.5 -87q0 -51 -36 -78.5t-85 -27.5q-30 0 -57 10z" />
    <glyph glyph-name="percent" unicode="%" horiz-adv-x="991" 
d="M206 -22q-54 0 -69 39l598 627q37 39 92 39q54 0 69 -39l-599 -627q-37 -39 -91 -39zM414.5 398q-28.5 -53 -81 -82.5t-120.5 -29.5q-156 0 -156 159q0 69 28.5 122t81 82.5t120.5 29.5q156 0 156 -159q0 -69 -28.5 -122zM269 372q21 35 32 87t11 101q0 33 -7 50.5
t-26 17.5q-28 0 -48.5 -35.5t-31.5 -87.5t-11 -100q0 -33 7 -50.5t26 -17.5q27 0 48 35zM961.5 93q-28.5 -53 -81 -82.5t-120.5 -29.5q-155 0 -155 159q0 69 28.5 122.5t80.5 82.5t120 29q156 0 156 -159q0 -69 -28.5 -122zM816.5 67q20.5 35 31.5 87t11 101q0 33 -7 50.5
t-26 17.5q-28 0 -48.5 -35.5t-31.5 -87.5t-11 -100q0 -33 7 -50.5t26 -17.5q28 0 48.5 35z" />
    <glyph glyph-name="ampersand" unicode="&#x26;" horiz-adv-x="734" 
d="M709 73q0 -48 -31 -70.5t-85 -22.5q-64 0 -135 37q-43 -18 -83.5 -27.5t-88.5 -9.5q-114 0 -185.5 50t-71.5 147q0 68 39 111.5t118 65.5q-18 57 -18 108q0 116 72 167t183 51q78 0 131 -25t53 -86q0 -47 -33 -75.5t-86 -28.5q-31 0 -44 4q6 21 6 54q0 88 -50 88
q-30 0 -45 -31.5t-15 -84.5q0 -97 42.5 -185t108.5 -143q20 43 20 81q0 69 -53 114q14 13 40 21t52 8q50 0 76 -31.5t26 -84.5q0 -41 -16.5 -84t-47.5 -80q27 -8 50 -8q19 0 38 4t25 9q8 -20 8 -43zM380 70q-52 43 -95.5 100t-72.5 119q-28 -31 -28 -84q0 -36 17 -69t50 -53
t77 -20q27 0 52 7z" />
    <glyph glyph-name="quotesingle" unicode="'" horiz-adv-x="193" 
d="M84.5 591.5q10.5 70.5 11.5 132.5q34 6 56 6q42 0 66 -21.5t24 -59.5q0 -41 -25.5 -102t-54.5 -86h-105q17 60 27.5 130.5z" />
    <glyph glyph-name="parenleft" unicode="(" horiz-adv-x="371" 
d="M282 499q-65 -191 -65 -426q0 -72 3.5 -109t18.5 -71.5t50 -72.5q-6 -20 -36 -20q-49 0 -92 50.5t-69 136t-26 185.5q0 147 54 293.5t139.5 240.5t171.5 94q36 0 50 -20q-134 -90 -199 -281z" />
    <glyph glyph-name="parenright" unicode=")" horiz-adv-x="371" 
d="M94.5 794q10.5 6 26.5 6q47 0 89.5 -51.5t68 -137.5t25.5 -185q0 -145 -54.5 -291.5t-139.5 -240.5t-171 -94q-36 0 -47 20q88 58 147 162t87.5 229t28.5 250q0 113 -15 192t-58 127q2 8 12.5 14z" />
    <glyph glyph-name="asterisk" unicode="*" horiz-adv-x="402" 
d="M437 531q4 -12 4 -25q0 -32 -35 -44q-23 -6 -52 -6q-22 0 -48 3l63 -98q-14 -26 -37 -44q-20 -14 -36 -14q-23 0 -39 23q-23 31 -35 98l-76 -93q-34 7 -53 22q-27 20 -27 42q0 15 12 32q23 31 81 62l-106 42q-1 6 -1 19q0 18 5 38q14 41 45 41q40 0 104 -60l7 114
q28 14 56 14q55 0 55 -51q0 -39 -27 -95l110 28q23 -22 30 -48z" />
    <glyph glyph-name="plus" unicode="+" 
d="M242 399q6 29 27.5 48t55.5 19q21 0 39 -7l-32 -167h149q5 -20 5 -32q0 -32 -23 -51t-61 -19h-90l-24 -123q-6 -29 -26 -45t-52 -16q-22 0 -43 7l36 177h-143q-4 12 -4 27q0 34 20.5 54.5t52.5 20.5h93z" />
    <glyph glyph-name="comma" unicode="," horiz-adv-x="222" 
d="M134 -43q-27 -42 -72.5 -67t-96.5 -25q-20 0 -44 6q77 83 77 183q0 36 -11 66q12 8 35.5 13.5t45.5 5.5q42 0 67.5 -24t25.5 -69q0 -47 -27 -89z" />
    <glyph glyph-name="hyphen" unicode="-" horiz-adv-x="340" 
d="M299 315q15 -8 22.5 -26.5t7.5 -37.5q0 -29 -17.5 -46.5t-46.5 -17.5h-173q-20 0 -30.5 -6t-18.5 -19q-16 11 -24 30t-8 40q0 28 15 45.5t43 17.5h187q33 0 43 20z" />
    <glyph glyph-name="period" unicode="." horiz-adv-x="241" 
d="M166 112q27 -20 27 -56t-29 -56t-74 -20q-46 0 -74 19.5t-28 54.5q0 37 30 57.5t76 20.5q45 0 72 -20z" />
    <glyph glyph-name="slash" unicode="/" horiz-adv-x="312" 
d="M35.5 -198.5q-16.5 -1.5 -32.5 -1.5q-42 0 -61.5 12.5t-19.5 38.5q0 18 9 44l327 903q18 3 43 3q48 0 68.5 -10.5t20.5 -37.5q0 -23 -16 -71l-318 -878q-4 -1 -20.5 -2.5z" />
    <glyph glyph-name="zero" unicode="0" 
d="M514.5 614q46.5 -66 46.5 -190q0 -120 -37.5 -221.5t-113.5 -162.5t-185 -61q-112 0 -158.5 66t-46.5 190q0 120 37.5 221.5t113.5 162.5t185 61q112 0 158.5 -66zM260 532.5q-28 -67.5 -48 -219.5q-15 -116 -15 -170q0 -41 10 -62t39 -21q49 0 77 67.5t48 219.5
q14 108 14 170q0 42 -9.5 62.5t-38.5 20.5q-49 0 -77 -67.5z" />
    <glyph glyph-name="one" unicode="1" 
d="M540 73q0 -44 -29.5 -62t-93.5 -18q-49 0 -132 3q-140 4 -206 4q-47 0 -75 -4q-4 16 -4 35q0 41 20.5 64.5t59.5 23.5h104l84 377q-58 -40 -124 -40q-40 0 -62 26.5t-27 71.5q82 12 170.5 39.5t210.5 77.5l49 -30l-95 -522h46q59 0 90 11q14 -20 14 -57z" />
    <glyph glyph-name="two" unicode="2" 
d="M343 471q0 68 -95 68q-52 0 -86.5 -27.5t-43.5 -69.5q-24 1 -46 22.5t-22 51.5q0 50 38 87.5t97 57t119 19.5q98 0 163.5 -41.5t65.5 -128.5q0 -56 -30.5 -104.5t-97.5 -98.5q-62 -46 -198 -130q39 -8 87 -12.5t87 -4.5t65 7t44 24q26 -38 26 -81q0 -122 -172 -122
q-59 0 -145 16q-64 11 -95 11q-35 0 -52 -15q-15 12 -24.5 37.5t-9.5 52.5q0 34 17 59t54 55l185 149q69 56 69 118z" />
    <glyph glyph-name="three" unicode="3" 
d="M352 479q0 29 -29 45t-79 16q-72 0 -137 -63q-35 7 -35 54q0 50 40 83.5t99 49.5t116 16q93 0 153.5 -35t60.5 -101q0 -60 -43.5 -108t-121.5 -75q67 -15 102 -57t35 -102q0 -62 -40 -113t-114 -80t-170 -29q-95 0 -146.5 31t-51.5 84q0 25 10.5 47t28.5 37
q20 -35 58 -53t84 -18q65 0 102.5 24.5t37.5 69.5q0 90 -128 90l17 90q151 24 151 97z" />
    <glyph glyph-name="four" unicode="4" 
d="M532 660q-43 -176 -85 -410h22q47 1 78 11q7 -9 11 -25t4 -31q0 -39 -28.5 -61.5t-75.5 -22.5h-31l-20 -121h-186l23 121h-247q-13 33 -13 59q0 27 9 52t26 44l347 384h166zM336 513l-238 -263h171q36 159 67 263z" />
    <glyph glyph-name="five" unicode="5" 
d="M540 672q9 -23 9 -50q0 -63 -40.5 -89.5t-113.5 -26.5h-177l-28 -95q63 5 103 5q100 0 161.5 -41t61.5 -132q0 -70 -39 -130.5t-112 -96.5t-170 -36q-78 0 -133.5 26.5t-55.5 89.5q0 24 9 46t26 37q23 -37 57.5 -54t82.5 -17q65 0 100.5 25t35.5 76q0 55 -38 74t-112 19
q-51 0 -107 -4l94 362h256q103 0 130 12z" />
    <glyph glyph-name="six" unicode="6" 
d="M508 658q43 -22 43 -71q0 -22 -9.5 -42t-26.5 -33q-38 39 -105 39q-79 0 -126.5 -51t-65.5 -140q29 45 64 66.5t87 21.5q81 0 123.5 -50.5t42.5 -135.5q0 -83 -39 -147.5t-105.5 -99.5t-147.5 -35q-110 0 -166 65.5t-56 180.5q0 113 50 218t138 170.5t196 65.5
q60 0 103 -22zM242.5 314.5q-22.5 -28.5 -32.5 -68.5t-10 -76q0 -40 13.5 -59.5t41.5 -19.5q35 0 57.5 28.5t32.5 68.5t10 76q0 79 -55 79q-35 0 -57.5 -28.5z" />
    <glyph glyph-name="seven" unicode="7" 
d="M587 561q-80 -91 -118 -152q-71 -112 -106.5 -187t-46 -118.5t-10.5 -81.5q0 -14 1 -21q-23 -10 -52.5 -15.5t-52.5 -5.5q-49 0 -76.5 26.5t-27.5 75.5q0 57 38 105l257 324h-200q-73 0 -113.5 18t-40.5 72q0 22 6 38t18 33q33 -12 132 -12h373z" />
    <glyph glyph-name="eight" unicode="8" 
d="M504 646.5q51 -33.5 51 -100.5q0 -60 -40 -103.5t-100 -71.5q45 -37 66.5 -59.5t31 -45.5t9.5 -54q0 -70 -40 -122.5t-106.5 -81t-144.5 -28.5q-92 0 -153.5 40t-61.5 119q0 115 150 188q-34 29 -50 58.5t-16 69.5q0 66 38.5 117t102 79.5t135.5 28.5q77 0 128 -33.5z
M408 511q0 33 -16 51.5t-47 18.5t-52.5 -18.5t-21.5 -50.5q0 -31 23 -49l59 -43q55 32 55 91zM175 168q0 -38 16 -61t48 -23q34 0 56 24.5t22 57.5q0 30 -21 48l-70 58q-51 -38 -51 -104z" />
    <glyph glyph-name="nine" unicode="9" 
d="M504.5 614.5q55.5 -65.5 55.5 -180.5q0 -113 -49.5 -218t-137.5 -170.5t-196 -65.5q-61 0 -104 22t-43 71q0 22 9.5 42t26.5 33q38 -39 105 -39q79 0 126.5 51t65.5 140q-29 -45 -63.5 -66.5t-86.5 -21.5q-82 0 -124.5 50.5t-42.5 135.5q0 83 39 147.5t106 99.5t148 35
q110 0 165.5 -65.5zM269 540.5q-23 -28.5 -33 -69t-10 -75.5q0 -79 56 -79q35 0 57.5 28.5t32.5 68.5t10 76q0 79 -55 79q-35 0 -58 -28.5z" />
    <glyph glyph-name="colon" unicode=":" horiz-adv-x="272" 
d="M11 0zM259 509q27 -20 27 -56t-29 -56t-74 -20q-46 0 -74 19.5t-28 54.5q0 37 30 57.5t76 20.5q45 0 72 -20zM189 112q27 -20 27 -56t-29 -56t-74 -20q-46 0 -74 19.5t-28 54.5q0 37 30 57.5t76 20.5q45 0 72 -20z" />
    <glyph glyph-name="semicolon" unicode=";" horiz-adv-x="292" 
d="M0 0zM279 509q27 -20 27 -56t-29 -56t-74 -20q-46 0 -74 19.5t-28 54.5q0 37 30 57.5t76 20.5q45 0 72 -20zM173 -43q-27 -42 -72.5 -67t-96.5 -25q-20 0 -44 6q77 83 77 183q0 36 -11 66q12 8 35.5 13.5t45.5 5.5q42 0 67.5 -24t25.5 -69q0 -47 -27 -89z" />
    <glyph glyph-name="less" unicode="&#x3c;" 
d="M341 118q12 -12 12 -35q0 -28 -21.5 -52.5t-62.5 -25.5l-223 234l266 216q34 28 69 28q23 0 40 -15t23 -40l-217 -192z" />
    <glyph glyph-name="equal" unicode="=" 
d="M489 334q0 -31 -21 -50.5t-61 -19.5h-340q-4 13 -4 27q0 33 20.5 53t52.5 20h348q5 -17 5 -30zM489 159q0 -31 -21 -51t-61 -20h-340q-4 13 -4 27q0 33 20.5 53.5t52.5 20.5h348q5 -17 5 -30z" />
    <glyph glyph-name="greater" unicode="&#x3e;" 
d="M497 250l-266 -216q-34 -28 -69 -28q-23 0 -40 15t-23 40l217 192l-114 118q-12 12 -12 35q0 28 21.5 52.5t62.5 25.5z" />
    <glyph glyph-name="question" unicode="?" horiz-adv-x="497" 
d="M497.5 464.5q-29.5 -41.5 -70.5 -71.5t-110 -73q-75 -45 -111 -75.5t-36 -65.5q-29 0 -48 25t-19 63q0 37 17.5 66t43 50t66.5 47q40 27 62 44.5t37.5 42.5t15.5 56q0 47 -46 47q-39 0 -62.5 -27t-23.5 -69q0 -26 9 -45q-23 -6 -61 -6q-49 0 -80.5 17.5t-31.5 59.5
q0 68 79.5 99t179.5 31q101 0 160 -29.5t59 -95.5q0 -49 -29.5 -90.5zM236 112q27 -20 27 -56t-29 -56t-74 -20q-46 0 -74 19.5t-28 54.5q0 37 30 57.5t76 20.5q45 0 72 -20z" />
    <glyph glyph-name="at" unicode="@" horiz-adv-x="792" 
d="M550 156q0 -35 27 -35q25 0 47.5 25t37 69t14.5 98q0 107 -57.5 162t-157.5 55q-96 0 -168.5 -49t-111 -128t-38.5 -166q0 -207 236 -207q112 0 179 49q14 -11 14 -30q0 -45 -67 -71t-160 -26q-143 0 -228 67t-85 198q0 113 62.5 213t166.5 160.5t224 60.5q84 0 151 -31
t105.5 -92.5t38.5 -148.5q0 -76 -29 -136t-78 -93.5t-107 -33.5q-40 0 -66.5 17t-33.5 52q-15 -32 -45 -50.5t-72 -18.5q-58 0 -91 37.5t-33 110.5q0 64 25.5 117.5t71 85t103.5 31.5q32 0 64 -13l108 13l-42 -250q-5 -25 -5 -42zM452.5 408q-8.5 3 -15.5 3
q-25 0 -45.5 -34.5t-32.5 -91t-12 -118.5q0 -25 4.5 -36.5t19.5 -11.5q20 0 35 19.5t21 52.5l39 210q-5 4 -13.5 7z" />
    <glyph glyph-name="A" unicode="A" horiz-adv-x="588" 
d="M511 173q8 -106 53 -133q-14 -28 -43.5 -44t-69.5 -16q-54 0 -84 28.5t-43 84.5q-5 22 -11 67h-173q-36 -87 -60 -160h-140l315 660h224zM186 274l-15 -35h138l-15 281q-61 -135 -108 -246z" />
    <glyph glyph-name="B" unicode="B" horiz-adv-x="600" 
d="M316 665q82 0 138.5 -8.5t94 -37t37.5 -86.5q0 -57 -37 -98.5t-95 -61.5q120 -25 120 -151q0 -227 -383 -227q-83 0 -197 5l126 660q125 5 196 5zM287 385q68 0 99.5 37.5t31.5 94.5q0 44 -19 63.5t-61 19.5q-13 0 -20 -1l-42 -214h11zM236 67q74 0 108.5 42.5
t34.5 103.5q0 55 -28.5 78t-87.5 26l-48 -249q9 -1 21 -1z" />
    <glyph glyph-name="C" unicode="C" horiz-adv-x="604" 
d="M567 652q58 -28 58 -93q0 -55 -40 -90t-96 -35q-26 0 -46 7q8 34 8 77q0 38 -11 64.5t-45 26.5q-47 0 -83.5 -58t-56 -138t-19.5 -141q0 -70 31 -105t98 -35q51 0 94 19.5t71 55.5q15 -11 20.5 -29t5.5 -36q0 -43 -33.5 -80.5t-95 -59.5t-141.5 -22q-133 0 -199 67.5
t-66 206.5q0 119 47.5 216t139 153.5t216.5 56.5q85 0 143 -28z" />
    <glyph glyph-name="D" unicode="D" horiz-adv-x="675" 
d="M301 665q130 0 204.5 -21.5t110.5 -79t36 -164.5q0 -202 -120 -303.5t-350 -101.5q-38 0 -90.5 1.5t-98.5 3.5l127 660q82 5 181 5zM252 67q77 0 120.5 67.5t66.5 197.5q18 101 18 163q0 53 -22.5 76t-74.5 23q-23 0 -42 -3l-101 -521q20 -3 35 -3z" />
    <glyph glyph-name="E" unicode="E" horiz-adv-x="496" 
d="M432 535q-59 0 -116 27l-31 -175h178q0 -53 -26 -82.5t-77 -29.5q-30 0 -59 9t-34 14l-33 -178h89q67 0 99 10q7 -9 10.5 -25t3.5 -30q0 -75 -124 -75h-315l123 660h430q0 -125 -118 -125z" />
    <glyph glyph-name="F" unicode="F" horiz-adv-x="510" 
d="M536.5 562.5q-26.5 -32.5 -88.5 -32.5q-33 0 -71 8t-61 19l-30 -162h193q0 -55 -26 -87.5t-83 -32.5q-29 0 -57 8t-46 16l-53 -299h-217l123 660h443q0 -65 -26.5 -97.5z" />
    <glyph glyph-name="G" unicode="G" horiz-adv-x="640" 
d="M561 -1q-28 -19 -62 -19q-40 0 -67.5 18t-31.5 38q-30 -29 -73.5 -42.5t-89.5 -13.5q-108 0 -162 72t-54 199q0 123 48 220t140 153t218 56q85 0 144 -27.5t59 -93.5q0 -55 -40 -90t-96 -35q-26 0 -46 7q7 37 7 78q0 37 -10.5 63.5t-44.5 26.5q-47 0 -84.5 -55t-59 -136
t-21.5 -154q0 -68 21.5 -116.5t77.5 -48.5q18 0 37 5.5t28 16.5l32 201l202 18q-72 -157 -72 -341z" />
    <glyph glyph-name="H" unicode="H" horiz-adv-x="679" 
d="M591 159q-9 -50 -9 -82q0 -19 4 -36.5t9 -26.5q-24 -17 -54 -25.5t-60 -8.5q-52 0 -78 26.5t-26 72.5q0 23 10 90l19 116h-150l-55 -285h-208l127 660h210l-58 -295h149l55 295h210z" />
    <glyph glyph-name="I" unicode="I" horiz-adv-x="335" 
d="M339 660l-129 -660h-217l127 660h219z" />
    <glyph glyph-name="J" unicode="J" horiz-adv-x="335" 
d="M241 154q-24 -127 -57 -202t-79 -108.5t-112 -33.5q-43 0 -72.5 13t-40.5 39q40 17 63 42t41.5 81t40.5 169l97 506h216z" />
    <glyph glyph-name="K" unicode="K" horiz-adv-x="641" 
d="M207 0h-212q37 198 71.5 383t53.5 277h213zM542 423q-65 -81 -69 -87q67 -230 157 -277q-13 -39 -43.5 -59t-75.5 -20q-67 0 -107.5 42.5t-64.5 114t-48 191.5l243 332h218q-145 -156 -210 -237z" />
    <glyph glyph-name="L" unicode="L" horiz-adv-x="442" 
d="M120 660h218l-98 -540h89q67 0 99 10q7 -9 10.5 -25t3.5 -30q0 -43 -34 -59t-90 -16h-319z" />
    <glyph glyph-name="M" unicode="M" horiz-adv-x="811" 
d="M788 660l-32 -485q-2 -24 -2 -51q0 -33 7 -55.5t25 -35.5q-14 -24 -46.5 -38.5t-73.5 -14.5q-105 0 -105 113q0 20 2 46l27 311l-200 -450h-117l-82 450l-97 -450h-115l161 660h208l70 -371l170 371h200z" />
    <glyph glyph-name="N" unicode="N" horiz-adv-x="687" 
d="M117 0h-117l120 660h215l155 -455l76 455h118l-122 -660h-228l-144 438z" />
    <glyph glyph-name="O" unicode="O" horiz-adv-x="689" 
d="M667 404q0 -117 -45 -213.5t-132.5 -153.5t-208.5 -57q-259 0 -259 277q0 117 45 213t132.5 153t208.5 57q259 0 259 -276zM308.5 539.5q-33.5 -70.5 -54.5 -226.5q-15 -111 -15 -175q0 -42 11 -64.5t43 -22.5q54 0 87.5 70.5t54.5 226.5q15 111 15 175q0 42 -11.5 64.5
t-43.5 22.5q-53 0 -86.5 -70.5z" />
    <glyph glyph-name="P" unicode="P" horiz-adv-x="622" 
d="M-6 0l126 660l69 3q50 3 115 3q125 0 197.5 -12t112 -50t39.5 -113q0 -68 -31 -118t-84 -76t-120 -26q-101 0 -122 58q21 0 36 4q60 10 94 56t34 111q0 53 -23.5 76.5t-72.5 23.5q-26 0 -40 -3l-114 -597h-216z" />
    <glyph glyph-name="Q" unicode="Q" horiz-adv-x="691" 
d="M608 611.5q66 -68.5 66 -205.5q0 -104 -47 -197t-126 -153t-172 -69q70 -24 146 -24q41 0 78 8t64 23q12 -23 12 -60q0 -62 -42.5 -90t-100.5 -28q-42 0 -76 9.5t-81 27.5q-43 16 -71 24t-61 8q-54 0 -92 -25q-30 36 -30 79q0 37 18.5 56.5t50 27.5t91.5 15
q50 6 88.5 33.5t69.5 94t49 182.5q15 96 15 169q0 44 -10.5 68.5t-39.5 24.5q-45 0 -80 -60t-58 -153q-24 -98 -24 -169q0 -33 9.5 -54.5t37.5 -23.5q0 -30 -28.5 -48.5t-77.5 -18.5q-157 0 -157 195q0 110 47.5 202t136 146t204.5 54q125 0 191 -68.5z" />
    <glyph glyph-name="R" unicode="R" horiz-adv-x="640" 
d="M210 662q77 3 140 3q95 0 156 -12t97.5 -49t36.5 -109q0 -80 -44 -133.5t-118 -69.5q30 -95 67 -155t79 -78q-27 -79 -118 -79q-67 0 -106.5 43.5t-61 114.5t-47.5 203h8q71 0 109.5 39.5t38.5 116.5q0 52 -20 77.5t-66 25.5q-29 0 -36 -1l-115 -599h-213l123 660
q66 2 90 2z" />
    <glyph glyph-name="S" unicode="S" horiz-adv-x="579" 
d="M524 653q57 -27 57 -93q0 -52 -36 -80t-85 -28q-30 0 -58 10q15 33 15 78q0 77 -57 77q-39 0 -69.5 -30.5t-30.5 -68.5q0 -25 14.5 -45t36 -34.5t60.5 -36.5q12 -6 36 -20q56 -33 87.5 -71t31.5 -97q0 -71 -46.5 -124t-123.5 -81.5t-165 -28.5q-79 0 -136 27t-57 98
q0 50 31 82t85 32q36 0 71 -13q-16 -41 -16 -87q0 -35 12.5 -53t44.5 -18q39 0 68.5 23t29.5 60t-28.5 62.5t-84.5 58.5l-31 19q-55 34 -86 74t-31 101q0 69 42 122.5t115.5 82.5t164.5 29q82 0 139 -27z" />
    <glyph glyph-name="T" unicode="T" horiz-adv-x="455" 
d="M514 670q7 -9 11 -25.5t4 -31.5q0 -42 -29 -57.5t-82 -15.5h-51l-75 -381q-9 -50 -9 -82q0 -19 4 -36.5t9 -26.5q-49 -34 -113 -34q-53 0 -79 26.5t-26 75.5q0 63 29 201l53 257h-65q-41 0 -69 -4q-4 16 -4 42q0 44 25.5 63t74.5 19h294q66 0 98 10z" />
    <glyph glyph-name="U" unicode="U" horiz-adv-x="645" 
d="M578 255q-27 -141 -102 -208t-214 -67q-106 0 -171 38.5t-65 123.5q0 21 4 54.5t9 60.5l78 403h220l-78 -416q-12 -62 -12 -101q0 -71 62 -71q37 0 59 21t34.5 57t23.5 94l79 416h150z" />
    <glyph glyph-name="V" unicode="V" horiz-adv-x="540" 
d="M8 620q31 60 120 60q58 0 89.5 -25.5t43 -70.5t11.5 -113v-348l239 537h123l-311 -660h-233l-30 481q-7 103 -52 139z" />
    <glyph glyph-name="W" unicode="W" horiz-adv-x="906" 
d="M8 620q31 60 120 60q58 0 89.5 -25.5t43 -70.5t11.5 -113v-348l223 537h119l31 -537l232 537h123l-304 -660h-214l-19 316l-140 -316h-233l-30 481q-7 103 -52 139z" />
    <glyph glyph-name="X" unicode="X" horiz-adv-x="555" 
d="M67 587q-16 23 -41 36q51 56 139 56q55 0 84.5 -24.5t50.5 -86.5l42 -119l152 211h131l-242 -326l63 -178q14 -40 38.5 -69.5t46.5 -34.5q-15 -35 -51.5 -53.5t-80.5 -18.5q-61 0 -95.5 35t-58.5 105l-32 86l-149 -206h-132l239 321l-72 199q-16 44 -32 67z" />
    <glyph glyph-name="Y" unicode="Y" horiz-adv-x="548" 
d="M434 601.5q60 78.5 136 78.5q67 0 80 -54q-80 -35 -159 -135.5t-127 -234.5l-50 -256h-217l58 294q-15 112 -32.5 176.5t-40.5 98.5t-58 54q21 27 54.5 42t76.5 15q84 0 121 -62t38 -199v-72q60 176 120 254.5z" />
    <glyph glyph-name="Z" unicode="Z" horiz-adv-x="538" 
d="M193 501q-26 0 -54.5 -6.5t-50.5 -16.5q-27 42 -27 89q0 55 36.5 81.5t102.5 26.5q36 0 116 -12q74 -13 119 -13q46 0 86 10q40 -34 40 -94q0 -38 -16 -66t-51 -56l-323 -263q40 -11 88.5 -16t91.5 -5q39 0 66 6t46 25q15 -19 20.5 -38t5.5 -42q0 -60 -36.5 -91.5
t-125.5 -31.5q-58 0 -148 16q-66 11 -95 11q-35 0 -52 -15q-16 14 -27.5 43.5t-11.5 59.5q0 63 61 114l315 263q-140 21 -176 21z" />
    <glyph glyph-name="bracketleft" unicode="[" horiz-adv-x="371" 
d="M395 734h-50l-162 -867h30q45 0 64.5 -12t19.5 -40q0 -11 -1 -15h-276l188 1000h283q-12 -66 -96 -66z" />
    <glyph glyph-name="backslash" unicode="\" horiz-adv-x="319" 
d="M118.5 758q8.5 24 31.5 34.5t69 10.5q30 0 39 -3l-46 -905q-3 -53 -25 -74t-77 -21q-16 0 -32 1.5t-17 2.5l46 880q3 50 11.5 74z" />
    <glyph glyph-name="bracketright" unicode="]" horiz-adv-x="371" 
d="M192 733h-40q-43 0 -60 12t-17 42q0 9 1 13h278l-188 -1000h-279q6 34 28 50t64 16h51z" />
    <glyph glyph-name="asciicircum" unicode="^" horiz-adv-x="482" 
d="M412.5 442q32.5 -92 88.5 -129q-12 -14 -45 -24.5t-67 -10.5q-41 0 -66 22t-41 77t-28 159q-47 -136 -93.5 -197.5t-108.5 -61.5q-27 0 -44 11.5t-22 31.5q65 28 124 115.5t104 224.5h165q1 -126 33.5 -218z" />
    <glyph glyph-name="underscore" unicode="_" horiz-adv-x="502" 
d="M461 -69q0 -32 -21.5 -52t-61.5 -20h-413q-4 13 -4 27q0 33 21 54t53 21h421q5 -17 5 -30z" />
    <glyph glyph-name="grave" unicode="`" horiz-adv-x="281" 
d="M209 605q-60 11 -94 34.5t-34 70.5q0 23 9 41t27 25l235 -146l-21 -48z" />
    <glyph glyph-name="a" unicode="a" horiz-adv-x="599" 
d="M512 149q-5 -27 -5 -42q0 -21 12 -36t35 -17q-11 -36 -48 -55t-79 -19q-35 0 -62.5 14.5t-37.5 42.5q-25 -27 -65.5 -42t-88.5 -15q-85 0 -122.5 50t-37.5 147q0 101 37 181.5t107.5 126t168.5 45.5q62 0 101 -19l157 19zM349 465.5q-15 4.5 -28 4.5q-27 0 -46.5 -21
t-34.5 -70.5t-28 -136.5q-12 -82 -12 -135q0 -31 7.5 -47t30.5 -16q36 0 56.5 37.5t29.5 87.5l50 283q-10 9 -25 13.5z" />
    <glyph glyph-name="b" unicode="b" horiz-adv-x="577" 
d="M303 603q-15 -80 -37 -129q27 27 66 41.5t84 14.5q80 0 114 -48t34 -141q0 -104 -37 -185.5t-109 -128.5t-175 -47q-64 0 -134 16.5t-107 51.5l124 652l200 20zM253 40q39 0 65 47.5t45 175.5q12 82 12 134q0 31 -7 47t-30 16q-41 0 -61.5 -44t-31.5 -106l-47 -252
q21 -18 55 -18z" />
    <glyph glyph-name="c" unicode="c" horiz-adv-x="480" 
d="M462.5 504.5q44.5 -25.5 44.5 -82.5q0 -50 -34 -75t-85 -25q-31 0 -45 8q8 20 13 49t5 51q0 20 -6 30.5t-23 10.5q-37 0 -66 -48t-45 -113.5t-16 -112.5q0 -44 18 -67.5t59 -23.5t76.5 21.5t50.5 58.5q20 -11 29 -25t9 -36q0 -45 -31.5 -77.5t-83 -50t-108.5 -17.5
q-100 0 -154 55t-54 166q0 96 40.5 170.5t115 116.5t173.5 42q73 0 117.5 -25.5z" />
    <glyph glyph-name="d" unicode="d" horiz-adv-x="599" 
d="M512 149q-5 -27 -5 -42q0 -21 12 -36t35 -17q-11 -36 -48 -55t-79 -19q-35 0 -62.5 14.5t-37.5 42.5q-25 -27 -65.5 -42t-88.5 -15q-85 0 -122.5 50t-37.5 147q0 101 37 181t107.5 126t168.5 46q37 0 64 -7l32 177l198 20zM349 465.5q-15 4.5 -28 4.5q-27 0 -46.5 -21
t-34.5 -70.5t-28 -136.5q-12 -82 -12 -135q0 -31 7.5 -47t30.5 -16q36 0 56.5 37.5t29.5 87.5l50 283q-10 9 -25 13.5z" />
    <glyph glyph-name="e" unicode="e" horiz-adv-x="503" 
d="M515 408q0 -76 -64.5 -120.5t-192.5 -51.5q-16 -1 -51 -1q-3 -21 -3 -42q0 -44 19 -65.5t63 -21.5q40 0 78.5 17t57.5 46q25 -15 25 -48q0 -42 -31 -74.5t-82.5 -49.5t-108.5 -17q-100 0 -154.5 54.5t-54.5 164.5q0 90 37 165t111.5 120.5t183.5 45.5q167 0 167 -122z
M260.5 429.5q-29.5 -49.5 -46.5 -151.5q68 0 108 41t40 106q0 26 -8 40t-28 14q-36 0 -65.5 -49.5z" />
    <glyph glyph-name="f" unicode="f" horiz-adv-x="320" 
d="M206.5 687q66.5 33 162.5 33q73 0 125.5 -18t52.5 -65q0 -34 -29 -51.5t-69 -17.5q-34 0 -58 12q6 11 10 29t4 32q0 35 -29 35q-26 0 -41 -25.5t-23 -72.5l-12 -68h91l-6 -45h-94l-83 -465l-206 -20l94 485h-71l9 45h70l15 59q21 85 87.5 118z" />
    <glyph glyph-name="g" unicode="g" horiz-adv-x="577" 
d="M509 137q-23 -118 -57 -190t-97 -109.5t-168 -37.5q-89 0 -154 26.5t-65 88.5q0 43 31.5 68t76.5 25q32 0 59.5 -10.5t44.5 -32.5q-23 -25 -23 -52q0 -17 9.5 -30.5t28.5 -13.5q44 0 74 59t53 192q-27 -30 -69.5 -46t-88.5 -16q-141 0 -141 155q0 83 38 156t108 117
t161 44q54 0 92 -17l162 16zM333 470q-43 0 -69 -47t-37 -110.5t-11 -117.5q0 -29 7.5 -44.5t29.5 -15.5q62 0 85 122l38 199q-17 14 -43 14z" />
    <glyph glyph-name="h" unicode="h" horiz-adv-x="601" 
d="M314 603q-15 -80 -37 -129q56 56 157 56q141 0 141 -118q0 -30 -8 -70t-22 -96q-12 -51 -18.5 -82t-6.5 -53q0 -51 47 -57q-11 -36 -48 -55t-81 -19q-52 0 -83.5 26.5t-31.5 76.5q0 25 6.5 59t21.5 98q14 59 22 98t8 66q0 49 -35 49q-37 0 -57.5 -42.5t-33.5 -106.5
l-59 -304l-200 -20l141 720l200 20z" />
    <glyph glyph-name="i" unicode="i" horiz-adv-x="314" 
d="M309 729q29 -21 29 -59t-30.5 -59t-78.5 -21t-77.5 20.5t-29.5 57.5q0 39 31.5 60.5t79.5 21.5q47 0 76 -21zM227 149q-5 -27 -5 -42q0 -21 12 -36t35 -17q-11 -36 -48 -55t-81 -19q-52 0 -83.5 26.5t-31.5 76.5q0 49 33 211l4 20l38 196l201 20z" />
    <glyph glyph-name="j" unicode="j" horiz-adv-x="303" 
d="M300 729q29 -21 29 -59t-30.5 -59t-78.5 -21t-77.5 20.5t-29.5 57.5q0 39 31.5 60.5t79.5 21.5q47 0 76 -21zM216 91q-30 -151 -79 -221t-136 -70q-45 0 -77 18t-42 56q39 1 64.5 25t43 74t34.5 139l77 398l200 20z" />
    <glyph glyph-name="k" unicode="k" horiz-adv-x="546" 
d="M304 603q-15 -80 -37 -129q57 56 156 56q70 0 107 -31.5t37 -94.5t-36.5 -107t-101.5 -62l40 -104q25 -66 67 -70q-12 -39 -46.5 -60t-77.5 -21q-144 0 -159 255q50 14 85.5 60t35.5 102t-38 56q-62 0 -91 -149l-59 -304l-200 -20l141 720l200 20z" />
    <glyph glyph-name="l" unicode="l" horiz-adv-x="305" 
d="M218 149q-5 -27 -5 -42q0 -21 12 -36t35 -17q-11 -36 -48 -55t-81 -19q-52 0 -83.5 26.5t-31.5 76.5q0 49 33 211l4 20l73 386l202 20z" />
    <glyph glyph-name="m" unicode="m" horiz-adv-x="899" 
d="M425 530q110 0 135 -80q52 80 170 80q143 0 143 -118q0 -30 -8 -70t-22 -96q-12 -51 -18.5 -82t-6.5 -53q0 -51 47 -57q-11 -36 -48 -55t-82 -19q-51 0 -82.5 26.5t-31.5 76.5q0 41 29 157q16 70 22.5 103.5t6.5 59.5q0 50 -34 50q-37 0 -56.5 -45.5t-31.5 -103.5
l-59 -304l-200 -20l56 264q27 120 27 162q0 47 -35 47q-63 0 -91 -149l-59 -304l-200 -20l104 530l164 20l-16 -98q50 98 177 98z" />
    <glyph glyph-name="n" unicode="n" horiz-adv-x="601" 
d="M431 530q144 0 144 -117q0 -30 -8 -70.5t-22 -97.5q-13 -52 -19 -82.5t-6 -51.5q0 -51 47 -57q-11 -36 -48 -55t-81 -19q-52 0 -83.5 26.5t-31.5 76.5q0 25 6.5 59t21.5 98q14 59 22 98t8 66q0 49 -35 49q-37 0 -57.5 -42.5t-33.5 -106.5l-59 -304l-200 -20l104 530
l164 20l-16 -98q51 98 183 98z" />
    <glyph glyph-name="o" unicode="o" horiz-adv-x="565" 
d="M495.5 477.5q53.5 -52.5 53.5 -162.5q0 -94 -38 -170t-110.5 -120.5t-171.5 -44.5q-213 0 -213 218q0 94 38.5 169.5t111.5 119t172 43.5q104 0 157.5 -52.5zM256.5 417.5q-24.5 -52.5 -41.5 -175.5q-12 -86 -12 -136q0 -33 8.5 -49.5t32.5 -16.5q40 0 64.5 52.5
t41.5 175.5q12 86 12 136q0 33 -8 49.5t-32 16.5q-41 0 -65.5 -52.5z" />
    <glyph glyph-name="p" unicode="p" horiz-adv-x="581" 
d="M407 531q85 0 122.5 -50t37.5 -147q0 -101 -36.5 -181t-107 -126t-168.5 -46q-37 0 -65 7l-29 -168l-198 -20l136 710l164 20l-13 -77q50 78 157 78zM232 45.5q15 -4.5 28 -4.5q28 0 47 21t33.5 69t26.5 131q12 84 12 134q0 31 -7 47.5t-30 16.5q-36 0 -57.5 -37.5
t-29.5 -87.5l-49 -276q11 -9 26 -13.5z" />
    <glyph glyph-name="q" unicode="q" horiz-adv-x="587" 
d="M457 -180l-204 -20l21 107q16 84 36 129q-27 -27 -66 -41.5t-84 -14.5q-80 0 -114 48t-34 141q0 103 37 185t108.5 129t173.5 47q60 0 99 -19l157 19zM324 470q-26 0 -45.5 -19t-36 -68t-29.5 -136q-12 -82 -12 -134q0 -31 7.5 -47t30.5 -16q40 0 60.5 44t31.5 106
l47 252q-21 18 -54 18z" />
    <glyph glyph-name="r" unicode="r" horiz-adv-x="489" 
d="M400 530q60 0 92 -30t32 -86q0 -64 -38.5 -104.5t-97.5 -40.5q-19 0 -35.5 4.5t-24.5 14.5q17 23 29 58.5t12 64.5q0 42 -31 42q-29 0 -52 -40.5t-36 -118.5l-48 -294l-206 -20l102 530l164 20l-15 -98q45 98 153 98z" />
    <glyph glyph-name="s" unicode="s" horiz-adv-x="447" 
d="M234.5 133.5q-17.5 16.5 -57.5 42.5q-16 10 -24 16q-58 38 -80.5 67.5t-22.5 72.5q0 55 33 100t93 71.5t139 26.5q149 0 149 -98q0 -43 -27.5 -67.5t-76.5 -24.5q-28 0 -45 11q14 39 14 71q0 28 -12 42.5t-33 14.5q-20 0 -36 -11.5t-25 -28.5t-9 -31q0 -22 19 -39t62 -45
l20 -13q55 -36 78 -65t23 -75q0 -54 -30.5 -97.5t-88.5 -68.5t-136 -25q-75 0 -128.5 24t-53.5 76q0 38 29 61t73 23q39 0 65 -16q-13 -33 -13 -56q0 -27 13 -43t38 -16q28 0 48 19.5t20 42.5q0 22 -17.5 38.5z" />
    <glyph glyph-name="t" unicode="t" horiz-adv-x="329" 
d="M303 510h78l-9 -45h-77l-60 -316q-5 -27 -5 -42q0 -21 12 -36t35 -17q-11 -36 -47.5 -55t-81.5 -19q-52 0 -83.5 26.5t-31.5 76.5q0 48 32 208l5 25l29 149h-59l4 30q120 36 236 124h47z" />
    <glyph glyph-name="u" unicode="u" horiz-adv-x="609" 
d="M522 149q-5 -27 -5 -42q0 -21 12 -36t35 -17q-11 -36 -48 -55t-79 -19q-35 0 -62.5 14.5t-37.5 42.5q-56 -57 -161 -57q-72 0 -111.5 28.5t-39.5 96.5q0 41 11 103t13 72l42 230l201 20l-57 -276q-12 -56 -17.5 -92.5t-5.5 -65.5q0 -24 7 -38t29 -14q36 0 56.5 37.5
t29.5 87.5l60 341l200 20z" />
    <glyph glyph-name="v" unicode="v" horiz-adv-x="541" 
d="M48 390q-7 47 -15.5 69.5t-25.5 33.5q46 37 111 37q67 0 93.5 -33.5t32.5 -106.5q3 -40 3 -136q0 -98 -1 -176q56 57 91.5 162.5t35.5 195.5q0 34 -7 57q34 37 91 37q38 0 63 -20t25 -64q0 -53 -35.5 -132t-84.5 -147q-33 -45 -75.5 -91t-87.5 -76l-188 -20
q-7 284 -26 410z" />
    <glyph glyph-name="w" unicode="w" horiz-adv-x="830" 
d="M48 390q-7 47 -15.5 69.5t-25.5 33.5q25 20 52 28.5t60 8.5q68 0 94.5 -34t30.5 -106q3 -46 3 -152q0 -92 -1 -160q54 55 83.5 158.5t29.5 198.5q0 35 -7 58q34 37 92 37q57 0 77.5 -33.5t25.5 -105.5q3 -45 3 -157q0 -90 -1 -156q54 55 83 158.5t29 198.5q0 35 -7 58
q34 37 91 37q39 0 64 -20t25 -64q0 -53 -35.5 -132t-84.5 -147q-33 -45 -75.5 -91t-87.5 -76l-147 -19q0 126 -2 201q-19 -52 -65.5 -103.5t-96.5 -78.5l-166 -20q-7 284 -26 410z" />
    <glyph glyph-name="x" unicode="x" horiz-adv-x="513" 
d="M80 428q-15 18 -39 21q12 39 47 60t80 21q44 0 70.5 -21t44.5 -65l48 -112q50 21 50 95q0 47 -24 79q38 24 87 24q44 0 67.5 -21.5t23.5 -64.5q0 -95 -119 -151l-60 -28l52 -134q25 -66 67 -70q-12 -39 -46.5 -60t-80.5 -21q-45 0 -71 20.5t-44 65.5l-49 126
q-30 -13 -45 -42.5t-15 -66.5q0 -47 24 -79q-37 -24 -87 -24q-45 0 -68 22t-23 65q0 55 35 96t93 68l60 28l-50 120q-13 31 -28 49z" />
    <glyph glyph-name="y" unicode="y" horiz-adv-x="508" 
d="M159 32l-83 -4q-4 137 -8.5 215t-12.5 147q-5 46 -14.5 69t-26.5 34q46 37 111 37q45 0 70.5 -15.5t36.5 -45t15 -79.5q2 -40 2 -82v-54l-1 -138q54 70 87 154.5t33 165.5q0 34 -7 57q34 37 90 37q39 0 64 -20t25 -64q0 -53 -37.5 -122.5t-90.5 -135t-101 -112.5
q-43 -42 -62 -70t-19 -70q0 -25 13.5 -49.5t34.5 -40.5q-24 -23 -57.5 -34.5t-69.5 -11.5q-44 0 -69.5 22.5t-25.5 65.5q0 77 103 144z" />
    <glyph glyph-name="z" unicode="z" horiz-adv-x="452" 
d="M228.5 369.5q-36.5 5.5 -62.5 5.5q-69 0 -92 -44q-16 19 -25 46t-9 54q0 52 34 75.5t91 23.5q31 0 70.5 -6t47.5 -7q78 -12 108 -12q37 0 56 11q26 -25 26 -60q0 -31 -16.5 -55.5t-46.5 -46.5l-247 -186q80 -23 132 -23q30 0 59 10t47 30q28 -32 28 -83q0 -60 -37 -91
t-99 -31q-39 0 -105 15q-68 14 -101 14q-31 0 -63 -10q-34 22 -34 69q0 60 60 108l247 179q-32 9 -68.5 14.5z" />
    <glyph glyph-name="braceleft" unicode="{" horiz-adv-x="371" 
d="M480 792l-11 -58h-29q-42 0 -65.5 -22t-31.5 -70l-40 -223q-9 -49 -37.5 -72.5t-84.5 -30.5q47 -6 66.5 -21.5t19.5 -49.5q0 -21 -5 -46l-41 -208q-7 -33 -7 -56q0 -33 16 -50.5t47 -17.5h30l-12 -59q-59 -8 -103 -8q-138 0 -138 84q0 19 6 49l46 235q5 23 5 44
q0 30 -20 46.5t-60 16.5l14 72q49 0 76.5 24t36.5 74l43 237q12 64 54 91t125 27q52 0 100 -8z" />
    <glyph glyph-name="bar" unicode="|" horiz-adv-x="272" 
d="M313 800l-191 -1000h-146l195 1000h142z" />
    <glyph glyph-name="braceright" unicode="}" horiz-adv-x="371" 
d="M8 -112q23 22 32 70l45 246q9 49 37.5 72.5t84.5 30.5q-48 6 -67 22t-19 48q0 19 6 47l37 195q5 24 5 43q0 71 -64 71h-30l12 59q60 8 103 8q134 0 134 -93q0 -17 -8.5 -65.5t-33.5 -186.5q-5 -23 -5 -44q2 -63 80 -63l-14 -72q-49 0 -76.5 -24t-36.5 -74l-49 -260
q-12 -64 -54 -91t-124 -27q-53 0 -101 8l11 58h30q42 0 65 22z" />
    <glyph glyph-name="asciitilde" unicode="~" 
d="M489 235q0 -31 -29.5 -50.5t-80.5 -19.5q-26 0 -52 4.5t-68 14.5q-26 6 -52 11t-45 5q-25 0 -46 -7.5t-31 -20.5q-22 28 -22 54q0 31 29.5 50.5t80.5 19.5q26 0 52.5 -4.5t69.5 -14.5q26 -6 51.5 -11t43.5 -5q25 0 46 7.5t31 20.5q22 -28 22 -54z" />
    <glyph glyph-name="uni00A0" unicode="&#xa0;" horiz-adv-x="175" 
 />
    <glyph glyph-name="exclamdown" unicode="&#xa1;" horiz-adv-x="311" 
d="M283 510q27 -20 27 -56t-29 -56t-74 -20q-46 0 -74 19.5t-28 54.5q0 37 30 57.5t76 20.5q45 0 72 -20zM77 -171q-47 0 -71.5 26t-24.5 73q0 35 12 74t37 99q26 64 40.5 110t15.5 92q22 26 66 26q38 0 59 -19t21 -50q0 -4 -1 -7t-2 -8l-78 -402q-35 -14 -74 -14z" />
    <glyph glyph-name="cent" unicode="&#xa2;" 
d="M517 559q33 -27 33 -74q0 -49 -34.5 -74t-85.5 -25q-31 0 -45 8q8 20 13 49t5 51q0 20 -6 30.5t-23 10.5q-37 0 -66 -48t-45 -113.5t-16 -112.5q0 -44 18 -67.5t60 -23.5q40 0 76 21.5t51 58.5q20 -11 29 -24.5t9 -35.5q0 -57 -49.5 -94t-114.5 -48l-4 -22
q-8 -44 -23 -59.5t-48 -15.5q-25 0 -43 5l18 91q-86 13 -127 65.5t-41 149.5q0 88 33 158.5t95 114.5t147 55l4 22q8 44 22.5 59.5t46.5 15.5q22 0 42 -5l-18 -90q54 -6 87 -33z" />
    <glyph glyph-name="sterling" unicode="&#xa3;" 
d="M346.5 568.5q-20.5 -27.5 -28.5 -87.5l-11 -81h142q6 -15 6 -28q0 -22 -19 -34.5t-57 -12.5h-85l-5 -27q-10 -64 -47 -97t-97 -47q64 -6 132 -10t105 -4q38 0 61.5 6t43.5 20q19 -19 19 -53t-19 -62.5t-53 -45t-77 -16.5q-45 0 -135 11q-11 1 -59 6t-84 5q-19 0 -41 -3
t-32 -8q-27 20 -27 58t32 63q2 2 28 20t32 47l28 137h-77q-5 13 -5 27q0 23 18 35.5t49 12.5h29l12 81q8 54 44.5 94.5t95 62.5t130.5 22q82 0 138.5 -27t56.5 -93q0 -51 -34.5 -74.5t-85.5 -23.5q-30 0 -58 10q18 38 18 81q0 63 -37 63q-26 0 -46.5 -27.5z" />
    <glyph glyph-name="currency" unicode="&#xa4;" 
d="M458 243l81 -71l-59 -70l-83 81q-49 -27 -122 -27q-56 0 -92 13l-73 -73l-64 65l73 65q-15 33 -15 84q0 76 36 126l-77 69l54 74l88 -87q48 23 105 23q50 0 86 -12l80 78l64 -65l-75 -67q20 -37 20 -93q0 -68 -27 -113zM341.5 277.5q18.5 24.5 18.5 62.5q0 37 -16.5 57
t-44.5 20q-32 0 -51 -25.5t-19 -67.5q0 -71 58 -71q36 0 54.5 24.5z" />
    <glyph glyph-name="yen" unicode="&#xa5;" 
d="M111 0l26 134h-91q-5 13 -5 27q0 23 18 35.5t49 12.5h44l12 58h-92q-5 13 -5 27q0 23 18 35.5t49 12.5h28q-14 93 -30.5 148t-38.5 85t-55 48q47 57 132 57q57 0 91.5 -31t50.5 -103.5t17 -198.5q60 177 119.5 255t136.5 78q67 0 80 -54q-67 -30 -134 -105t-117 -179h84
q6 -15 6 -28q0 -21 -18 -34t-53 -13h-52l-12 -58h103q6 -15 6 -28q0 -21 -18 -34t-53 -13h-53l-26 -134h-217z" />
    <glyph glyph-name="brokenbar" unicode="&#xa6;" horiz-adv-x="272" 
d="M90 388l53 272h143l-52 -272h-144zM16 0l53 272h143l-52 -272h-144z" />
    <glyph glyph-name="section" unicode="&#xa7;" horiz-adv-x="486" 
d="M442.5 656q41.5 -24 41.5 -78q0 -42 -25 -66.5t-68 -24.5q-27 0 -43 11q15 37 15 70q0 26 -10 43t-32 17q-27 0 -45 -24t-18 -49t19 -44t58 -45q52 -35 79 -65.5t27 -76.5q0 -55 -42 -109.5t-107 -82.5q28 -23 40 -36t18 -29.5t6 -42.5q0 -62 -29.5 -108t-81 -71
t-117.5 -25q-63 0 -104.5 24t-41.5 79q0 41 24.5 65.5t68.5 24.5q26 0 43 -11q-14 -33 -14 -70q0 -29 11 -44.5t33 -15.5q27 0 44 22.5t17 48.5t-18.5 45t-57.5 45q-34 23 -56 41.5t-37 46t-15 64.5q0 59 39.5 107t107.5 77q-35 30 -48.5 53.5t-13.5 61.5q0 61 30 105
t82 67.5t116 23.5q63 0 104.5 -24zM177.5 305.5q-17.5 -22.5 -17.5 -49.5q0 -13 6.5 -23t24.5 -25t57 -43q21 6 39 28.5t18 50.5q0 12 -6 21.5t-24 24.5t-57 44q-23 -6 -40.5 -28.5z" />
    <glyph glyph-name="dieresis" unicode="&#xa8;" horiz-adv-x="425" 
d="M75 590zM502 729q29 -21 29 -59t-30.5 -59t-78.5 -21t-77.5 20.5t-29.5 57.5q0 39 31.5 60.5t79.5 21.5q47 0 76 -21zM262 729q29 -21 29 -59t-30.5 -59t-78.5 -21t-77.5 20.5t-29.5 57.5q0 39 31.5 60.5t79.5 21.5q47 0 76 -21z" />
    <glyph glyph-name="copyright" unicode="&#xa9;" horiz-adv-x="784" 
d="M89.5 398q58.5 99 159.5 157.5t224 58.5q132 0 206 -69.5t74 -199.5q0 -115 -57 -211.5t-158.5 -153t-229.5 -56.5q-134 0 -205.5 65.5t-71.5 192.5q0 117 58.5 216zM184.5 44.5q50.5 -51.5 152.5 -51.5q100 0 170.5 45.5t106.5 120.5t36 162q0 108 -55 165t-154 57
q-89 0 -159 -44.5t-109 -122.5t-39 -174q0 -106 50.5 -157.5zM402 396.5q-20 -30.5 -33.5 -76t-13.5 -86.5q0 -35 12 -52t38 -17t46 14.5t31 41.5q13 -6 19 -20t6 -31q0 -43 -40 -69t-101 -26q-139 0 -139 156q0 71 27 124.5t77 83.5t117 30q54 0 81.5 -19.5t27.5 -55.5
q0 -35 -23.5 -53.5t-63.5 -18.5q-17 0 -24 5q5 12 9 33t4 36q0 31 -18 31q-19 0 -39 -30.5z" />
    <glyph glyph-name="ordfeminine" unicode="&#xaa;" horiz-adv-x="457" 
d="M424 404q-4 -16 -4 -28q0 -17 8.5 -30t21.5 -13q-7 -21 -33.5 -37t-55.5 -16q-25 0 -44.5 11.5t-25.5 29.5q-14 -18 -40 -29.5t-58 -11.5q-61 0 -94.5 43t-33.5 117q0 67 27.5 120.5t76.5 83.5t112 30q40 0 71 -14l123 14zM253 604q-21 -32 -35 -86q-17 -73 -17 -141
q0 -27 5.5 -41t21.5 -14q20 0 36 23.5t23 63.5l41 216q-14 11 -30 11q-24 0 -45 -32zM403 212q0 -24 -14.5 -39t-43.5 -15h-291q-3 12 -3 23q0 24 15 39.5t38 15.5h296q3 -12 3 -24z" />
    <glyph glyph-name="guillemotleft" unicode="&#xab;" horiz-adv-x="537" 
d="M188 510h120l-123 -193l48 -191h-117l-95 191zM417 510h119l-123 -193l48 -191h-116l-95 191z" />
    <glyph glyph-name="logicalnot" unicode="&#xac;" 
d="M435.5 -1.5q-14.5 -1.5 -27.5 -1.5q-33 0 -47 12t-14 40q0 15 5 43l18 98h-325q-4 13 -4 27q0 34 21 54.5t53 20.5h394l-55 -291q-4 -1 -18.5 -2.5z" />
    <glyph glyph-name="uni00AD" unicode="&#xad;" horiz-adv-x="340" 
d="M299 315q15 -8 22.5 -26.5t7.5 -37.5q0 -29 -17.5 -46.5t-46.5 -17.5h-173q-20 0 -30.5 -6t-18.5 -19q-16 11 -24 30t-8 40q0 28 15 45.5t43 17.5h187q33 0 43 20z" />
    <glyph glyph-name="registered" unicode="&#xae;" horiz-adv-x="764" 
d="M679 609.5q74 -69.5 74 -199.5q0 -115 -57 -211.5t-158.5 -153t-229.5 -56.5q-134 0 -205.5 65.5t-71.5 192.5q0 117 58.5 216t159.5 157.5t224 58.5q132 0 206 -69.5zM282 563q-71 -45 -110.5 -123t-39.5 -173q0 -209 205 -209q100 0 171.5 45.5t107.5 120t36 161.5
q0 108 -55.5 165.5t-154.5 57.5q-89 0 -160 -45zM533.5 508.5q34.5 -21.5 34.5 -70.5q0 -45 -26.5 -77.5t-71.5 -42.5q9 -50 26.5 -76t46.5 -34q-5 -31 -25 -48.5t-50 -17.5q-41 0 -64 43t-33 159h10q40 0 61 23.5t21 63.5q0 29 -12 43t-38 14q2 0 -26 -2l-60 -335h-109
l70 373q30 3 67.5 4.5t68.5 1.5q75 0 109.5 -21.5z" />
    <glyph glyph-name="macron" unicode="&#xaf;" horiz-adv-x="326" 
d="M402 686q0 -28 -19.5 -46t-55.5 -18h-234q-3 9 -3 27q1 29 20 47t48 18h240q4 -16 4 -28z" />
    <glyph glyph-name="degree" unicode="&#xb0;" horiz-adv-x="350" 
d="M72 402.5q-36 32.5 -36 95.5q0 56 28.5 98.5t75.5 65t100 22.5q63 0 98.5 -32.5t35.5 -95.5q0 -56 -27.5 -98t-74 -65t-100.5 -23q-64 0 -100 32.5zM248 467q26 37 26 86q0 66 -48 66q-38 0 -62 -38.5t-24 -87.5q0 -63 45 -63q37 0 63 37z" />
    <glyph glyph-name="plusminus" unicode="&#xb1;" 
d="M284.5 447q21.5 19 55.5 19q21 0 39 -7l-21 -115h123q5 -20 5 -31q0 -32 -20 -49t-59 -17h-69l-13 -68q-13 -61 -76 -61q-23 0 -44 7l23 122h-128q-4 13 -4 23q0 32 20.5 53t52.5 21h77l11 55q6 29 27.5 48zM441 61q0 -29 -20 -45t-58 -16h-303q-4 15 -4 28q0 30 18 47
t51 17h311q5 -18 5 -31z" />
    <glyph glyph-name="uni00B2" unicode="&#xb2;" horiz-adv-x="342" 
d="M323 656.5q34 -23.5 34 -72.5q0 -31 -17 -59.5t-56 -56.5q-40 -28 -112 -74q45 -9 94 -9q44 0 61 17q15 -21 15 -45q0 -71 -97 -71q-29 0 -81 9q-38 6 -51 6q-22 0 -30 -8q-8 7 -13.5 21.5t-5.5 27.5q0 29 27.5 57t78.5 65q-4 -3 40 31q39 31 39 66q0 38 -42 38
q-27 0 -48 -13t-32 -36q-14 0 -23.5 12.5t-9.5 30.5q0 40 44.5 63.5t99.5 23.5q51 0 85 -23.5z" />
    <glyph glyph-name="uni00B3" unicode="&#xb3;" horiz-adv-x="322" 
d="M229 566q0 16 -11.5 25t-31.5 9q-39 0 -74 -35q-10 1 -15 9.5t-5 21.5q0 41 44.5 63t95.5 22q47 0 76 -20t29 -58q0 -35 -24 -62t-67 -43q35 -8 55 -31.5t20 -59.5q0 -54 -45.5 -90t-121.5 -36q-52 0 -80 17.5t-28 48.5q0 15 6.5 27t15.5 20q23 -40 76 -40q29 0 45.5 14
t16.5 40q0 51 -70 51l10 51q83 15 83 56z" />
    <glyph glyph-name="acute" unicode="&#xb4;" horiz-adv-x="281" 
d="M317 776q35 -13 35 -66q0 -47 -33.5 -70.5t-93.5 -34.5l-123 -23l-21 48z" />
    <glyph glyph-name="uni00B5" unicode="&#xb5;" horiz-adv-x="617" 
d="M0 0zM602 530l-72 -381q-5 -27 -5 -42q0 -21 12 -36t35 -17q-11 -36 -48 -55t-79 -19q-35 0 -62.5 14.5t-37.5 42.5q-20 -20 -46.5 -31t-62.5 -19q-21 -5 -39 -6l-27 -161l-200 -20l87 449q1 7 3 14.5t3 15.5q7 32 13.5 68t6.5 54q0 24 -12 38.5t-34 16.5q11 36 47.5 55
t81.5 19q52 0 83 -26.5t31 -76.5q0 -24 -6.5 -58.5t-21.5 -98.5q-14 -59 -22 -98t-8 -66q0 -49 35 -49q64 0 91 149l54 304z" />
    <glyph glyph-name="paragraph" unicode="&#xb6;" horiz-adv-x="772" 
d="M189 -200q-56 0 -87.5 20t-31.5 56q0 12 4 19q17 -8 41.5 -13.5t47.5 -5.5q51 0 76.5 29t36.5 85l55 278q-20 -8 -47 -11.5t-50 -3.5q-70 0 -106.5 38t-36.5 115q0 82 40.5 143t111.5 93.5t161 32.5q54 0 101 -15l-130 -694q-32 -166 -186 -166zM801 664
q-5 -44 -24.5 -62.5t-60.5 -18.5q-28 0 -43 5l-108 -588l-110 -20l134 680h113q70 0 99 4z" />
    <glyph glyph-name="periodcentered" unicode="&#xb7;" horiz-adv-x="255" 
d="M214 292q27 -20 27 -56t-29 -56t-74 -20q-46 0 -74 19.5t-28 54.5q0 37 30 57.5t76 20.5q45 0 72 -20z" />
    <glyph glyph-name="cedilla" unicode="&#xb8;" horiz-adv-x="452" 
d="M346.5 -77q30.5 -20 30.5 -61q0 -35 -22.5 -62t-60.5 -42.5t-84 -15.5q-44 0 -69.5 14t-25.5 39q0 13 4.5 26t13.5 21q10 -16 27 -24t45 -8q51 0 51 43q0 37 -58 37q-14 0 -42 -2l37 123h62l-21 -69q11 1 33 1q49 0 79.5 -20z" />
    <glyph glyph-name="uni00B9" unicode="&#xb9;" horiz-adv-x="319" 
d="M237 359h15q35 0 52 7q7 -14 7 -33q0 -26 -16.5 -36t-53.5 -10l-58 2q-70 2 -109 2q-19 0 -35 -2q-3 8 -3 20q0 24 12 37t34 13h37l47 211q-9 -7 -24.5 -12.5t-28.5 -5.5q-22 0 -35.5 16t-15.5 41q43 7 89.5 22.5t111.5 44.5l29 -18z" />
    <glyph glyph-name="ordmasculine" unicode="&#xba;" horiz-adv-x="449" 
d="M418.5 390q-29.5 -53 -82.5 -81.5t-121 -28.5q-78 0 -114.5 38t-36.5 114q0 65 25 120t76 88.5t125 33.5q158 0 158 -161q0 -70 -29.5 -123zM267.5 361.5q20.5 39.5 33 99t12.5 115.5q0 30 -5 43t-18 13q-24 0 -45 -40t-33 -98.5t-12 -108.5q0 -34 6 -48.5t19 -14.5
q22 0 42.5 39.5zM38.5 168.5q-1.5 6.5 -1.5 13.5q0 23 15 38.5t38 15.5h278q4 -14 4 -23q0 -24 -15.5 -39.5t-44.5 -15.5h-271q-1 4 -2.5 10.5z" />
    <glyph glyph-name="guillemotright" unicode="&#xbb;" horiz-adv-x="539" 
d="M274 317l-166 -191h-117l119 191l-51 193h120zM502 317l-166 -191h-116l119 191l-51 193h119z" />
    <glyph glyph-name="onequarter" unicode="&#xbc;" horiz-adv-x="805" 
d="M551 720q26 0 37.5 -6.5t11.5 -23.5q0 -16 -9 -38l-323 -740q-9 -3 -31 -3q-46 0 -46 29q0 10 6 25l327 755q14 2 27 2zM237 353h15q30 0 48 6q8 -13 8 -33q0 -24 -16 -34.5t-52 -10.5l-54 2q-60 2 -91 2q-29 0 -41 -3q-3 11 -3 21q0 22 11.5 36t32.5 14h30l47 216
q-9 -9 -22 -13t-25 -4q-25 0 -38 17t-16 39q44 7 92.5 24t113.5 47l17 -22zM741 380q-30 -124 -49 -233q35 4 51 14q11 -18 11 -40q0 -48 -76 -54l-10 -67q-15 -12 -41 -12q-52 0 -52 41q0 8 2 20l3 20q-68 3 -131 19l-3 65l212 235zM594 146q18 84 39 147l-124 -142
q45 -5 85 -5z" />
    <glyph glyph-name="onehalf" unicode="&#xbd;" horiz-adv-x="807" 
d="M551 720q26 0 37.5 -6.5t11.5 -23.5q0 -16 -9 -38l-323 -740q-9 -3 -31 -3q-46 0 -46 29q0 10 6 25l327 755q14 2 27 2zM237 353h15q30 0 48 6q8 -13 8 -33q0 -24 -16 -34.5t-52 -10.5l-54 2q-60 2 -91 2q-29 0 -41 -3q-3 11 -3 21q0 22 11.5 36t32.5 14h30l47 216
q-9 -9 -22 -13t-25 -4q-25 0 -38 17t-16 39q44 7 92.5 24t113.5 47l17 -22zM648 268q0 39 -42 39q-27 0 -48.5 -14t-31.5 -36q-14 1 -23.5 13t-9.5 30q0 40 44.5 63.5t99.5 23.5q51 0 85 -23.5t34 -72.5q0 -34 -18 -61.5t-55 -54.5q-35 -26 -112 -74q45 -9 94 -9q44 0 61 17
q15 -21 15 -45q0 -71 -97 -71q-27 0 -81 9q-33 7 -50 7q-22 0 -31 -9q-8 7 -13.5 21.5t-5.5 30.5q0 19 10 34t30 31l106 84q39 32 39 67z" />
    <glyph glyph-name="threequarters" unicode="&#xbe;" horiz-adv-x="808" 
d="M554 720q26 0 37.5 -6.5t11.5 -23.5q0 -16 -9 -38l-323 -740q-9 -3 -31 -3q-46 0 -46 29q0 10 6 25l327 755q14 2 27 2zM216 561q0 16 -12 25.5t-32 9.5q-39 0 -74 -36q-20 4 -20 31q0 42 45 64t96 22q47 0 76.5 -20t29.5 -58q0 -35 -24.5 -63t-67.5 -43q38 -10 57 -34
t19 -58q0 -36 -20.5 -65.5t-59 -46.5t-89.5 -17q-52 0 -80.5 18t-28.5 49q0 15 6 28t17 21q11 -21 31.5 -31.5t44.5 -10.5q29 0 45.5 14.5t16.5 40.5q0 52 -70 52l10 52q84 14 84 56zM744 380q-30 -124 -49 -233q35 4 51 14q11 -18 11 -40q0 -48 -76 -54l-10 -67
q-15 -12 -41 -12q-52 0 -52 41q0 8 2 20l3 20q-68 3 -131 19l-3 65l212 235zM597 146q18 84 39 147l-124 -142q45 -5 85 -5z" />
    <glyph glyph-name="questiondown" unicode="&#xbf;" horiz-adv-x="497" 
d="M450 510q27 -20 27 -56t-29 -56t-74 -20q-46 0 -74 19.5t-28 54.5q0 37 30 57.5t76 20.5q45 0 72 -20zM-0.5 45.5q29.5 41.5 70.5 71.5t110 73q75 45 111 75.5t36 65.5q29 0 48 -25t19 -63q0 -37 -17.5 -66t-42 -49t-66.5 -48q-58 -37 -87 -67.5t-29 -75.5q0 -47 46 -47
q39 0 62.5 27t23.5 69q0 26 -9 45q23 6 61 6q49 0 80.5 -17.5t31.5 -59.5q0 -68 -79.5 -99t-179.5 -31q-101 0 -160 29.5t-59 95.5q0 49 29.5 90.5z" />
    <glyph glyph-name="Agrave" unicode="&#xc0;" horiz-adv-x="588" 
d="M0 0zM511 173q8 -106 53 -133q-14 -28 -43.5 -44t-69.5 -16q-54 0 -84 28.5t-43 84.5q-5 22 -11 67h-173q-36 -87 -60 -160h-140l315 660h224zM186 274l-15 -35h138l-15 281q-61 -135 -108 -246zM473 711l-119 4q-62 2 -102 23.5t-40 69.5q0 19 7 31.5t21 22.5l245 -102z
" />
    <glyph glyph-name="Aacute" unicode="&#xc1;" horiz-adv-x="588" 
d="M0 0zM511 173q8 -106 53 -133q-14 -28 -43.5 -44t-69.5 -16q-54 0 -84 28.5t-43 84.5q-5 22 -11 67h-173q-36 -87 -60 -160h-140l315 660h224zM186 274l-15 -35h138l-15 281q-61 -135 -108 -246zM288 759l245 102q14 -10 21 -22.5t7 -31.5q0 -48 -40 -69.5t-102 -23.5
l-119 -4z" />
    <glyph glyph-name="Acircumflex" unicode="&#xc2;" horiz-adv-x="588" 
d="M0 0zM511 173q8 -106 53 -133q-14 -28 -43.5 -44t-69.5 -16q-54 0 -84 28.5t-43 84.5q-5 22 -11 67h-173q-36 -87 -60 -160h-140l315 660h224zM186 274l-15 -35h138l-15 281q-61 -135 -108 -246zM542 733l-50 -46l-116 52l-148 -52l-31 46l167 116h45z" />
    <glyph glyph-name="Atilde" unicode="&#xc3;" horiz-adv-x="588" 
d="M0 0zM511 173q8 -106 53 -133q-14 -28 -43.5 -44t-69.5 -16q-54 0 -84 28.5t-43 84.5q-5 22 -11 67h-173q-36 -87 -60 -160h-140l315 660h224zM186 274l-15 -35h138l-15 281q-61 -135 -108 -246zM572 796q0 -36 -25.5 -55t-70.5 -19q-28 0 -110 10q-78 8 -94 8
q-20 0 -38.5 -5t-28.5 -12q-20 29 -20 57q0 32 25.5 49.5t73.5 17.5q24 0 63 -4t50 -5q76 -8 96 -8q43 0 60 17q19 -23 19 -51z" />
    <glyph glyph-name="Adieresis" unicode="&#xc4;" horiz-adv-x="588" 
d="M0 0zM511 173q8 -106 53 -133q-14 -28 -43.5 -44t-69.5 -16q-54 0 -84 28.5t-43 84.5q-5 22 -11 67h-173q-36 -87 -60 -160h-140l315 660h224zM186 274l-15 -35h138l-15 281q-61 -135 -108 -246zM340 822q27 -20 27 -56t-28.5 -56t-74.5 -20t-74 19.5t-28 54.5
q0 37 30 57.5t76 20.5q45 0 72 -20zM574 822q27 -20 27 -56t-28.5 -56t-74.5 -20t-74 19.5t-28 54.5q0 37 30 57.5t76 20.5q45 0 72 -20z" />
    <glyph glyph-name="Aring" unicode="&#xc5;" horiz-adv-x="588" 
d="M0 0zM511 173q8 -106 53 -133q-14 -28 -43.5 -44t-69.5 -16q-54 0 -84 28.5t-43 84.5q-5 22 -11 67h-173q-36 -87 -60 -160h-140l315 660h224zM186 274l-15 -35h138l-15 281q-61 -135 -108 -246zM462.5 716q-38.5 -26 -90.5 -26q-42 0 -67 18t-25 51q0 43 39 69t92 26
q41 0 65.5 -18t24.5 -51q0 -43 -38.5 -69zM425.5 807q-7.5 8 -24.5 8q-25 0 -39 -15.5t-14 -40.5q0 -17 7.5 -25t24.5 -8q25 0 39 15.5t14 40.5q0 17 -7.5 25z" />
    <glyph glyph-name="AE" unicode="&#xc6;" horiz-adv-x="758" 
d="M91 0h-155l387 660h477q0 -62 -33 -93.5t-88 -31.5q-27 0 -59 7t-59 20l-24 -175h189q0 -54 -27 -83t-76 -29q-23 0 -50 6t-48 17q-12 -62 -12 -96q0 -46 21 -63t70 -17q60 0 103 16q9 -22 9 -48q0 -61 -50 -85.5t-123 -24.5q-98 0 -155.5 41t-57.5 126l1 30h-156
q-45 -90 -84 -177zM385 562q-95 -155 -172 -308h129z" />
    <glyph glyph-name="Ccedilla" unicode="&#xc7;" horiz-adv-x="604" 
d="M443 441q8 34 8 77q0 38 -11 64.5t-45 26.5q-47 0 -83.5 -58t-56 -138t-19.5 -141q0 -70 31 -105t98 -35q51 0 94 19.5t71 55.5q15 -11 20.5 -29t5.5 -36q0 -40 -29 -75t-82.5 -58t-123.5 -28l-12 -39q11 1 33 1q49 0 79.5 -20t30.5 -61q0 -35 -22.5 -62t-60.5 -42.5
t-84 -15.5q-44 0 -69.5 14t-25.5 39q0 13 4.5 26t13.5 21q10 -16 27 -24t45 -8q51 0 51 43q0 37 -58 37q-14 0 -42 -2l28 93q-119 7 -178.5 74.5t-59.5 198.5q0 119 47.5 216t139 153.5t216.5 56.5q85 0 143 -28t58 -93q0 -55 -40 -90t-96 -35q-26 0 -46 7z" />
    <glyph glyph-name="Egrave" unicode="&#xc8;" horiz-adv-x="496" 
d="M0 0zM432 535q-59 0 -116 27l-31 -175h178q0 -53 -26 -82.5t-77 -29.5q-30 0 -59 9t-34 14l-33 -178h89q67 0 99 10q7 -9 10.5 -25t3.5 -30q0 -75 -124 -75h-315l123 660h430q0 -125 -118 -125zM450 711l-119 4q-62 2 -102 23.5t-40 69.5q0 19 7 31.5t21 22.5l245 -102z
" />
    <glyph glyph-name="Eacute" unicode="&#xc9;" horiz-adv-x="496" 
d="M0 0zM432 535q-59 0 -116 27l-31 -175h178q0 -53 -26 -82.5t-77 -29.5q-30 0 -59 9t-34 14l-33 -178h89q67 0 99 10q7 -9 10.5 -25t3.5 -30q0 -75 -124 -75h-315l123 660h430q0 -125 -118 -125zM265 759l245 102q14 -10 21 -22.5t7 -31.5q0 -48 -40 -69.5t-102 -23.5
l-119 -4z" />
    <glyph glyph-name="Ecircumflex" unicode="&#xca;" horiz-adv-x="496" 
d="M0 0zM432 535q-59 0 -116 27l-31 -175h178q0 -53 -26 -82.5t-77 -29.5q-30 0 -59 9t-34 14l-33 -178h89q67 0 99 10q7 -9 10.5 -25t3.5 -30q0 -75 -124 -75h-315l123 660h430q0 -125 -118 -125zM519 733l-50 -46l-116 52l-148 -52l-31 46l167 116h45z" />
    <glyph glyph-name="Edieresis" unicode="&#xcb;" horiz-adv-x="496" 
d="M0 0zM432 535q-59 0 -116 27l-31 -175h178q0 -53 -26 -82.5t-77 -29.5q-30 0 -59 9t-34 14l-33 -178h89q67 0 99 10q7 -9 10.5 -25t3.5 -30q0 -75 -124 -75h-315l123 660h430q0 -125 -118 -125zM317 822q27 -20 27 -56t-28.5 -56t-74.5 -20t-74 19.5t-28 54.5
q0 37 30 57.5t76 20.5q45 0 72 -20zM551 822q27 -20 27 -56t-28.5 -56t-74.5 -20t-74 19.5t-28 54.5q0 37 30 57.5t76 20.5q45 0 72 -20z" />
    <glyph glyph-name="Igrave" unicode="&#xcc;" horiz-adv-x="335" 
d="M0 0zM339 660l-129 -660h-217l127 660h219zM343 711l-119 4q-62 2 -102 23.5t-40 69.5q0 19 7 31.5t21 22.5l245 -102z" />
    <glyph glyph-name="Iacute" unicode="&#xcd;" horiz-adv-x="335" 
d="M0 0zM339 660l-129 -660h-217l127 660h219zM158 759l245 102q14 -10 21 -22.5t7 -31.5q0 -48 -40 -69.5t-102 -23.5l-119 -4z" />
    <glyph glyph-name="Icircumflex" unicode="&#xce;" horiz-adv-x="335" 
d="M0 0zM339 660l-129 -660h-217l127 660h219zM412 733l-50 -46l-116 52l-148 -52l-31 46l167 116h45z" />
    <glyph glyph-name="Idieresis" unicode="&#xcf;" horiz-adv-x="335" 
d="M0 0zM339 660l-129 -660h-217l127 660h219zM210 822q27 -20 27 -56t-28.5 -56t-74.5 -20t-74 19.5t-28 54.5q0 37 30 57.5t76 20.5q45 0 72 -20zM444 822q27 -20 27 -56t-28.5 -56t-74.5 -20t-74 19.5t-28 54.5q0 37 30 57.5t76 20.5q45 0 72 -20z" />
    <glyph glyph-name="Eth" unicode="&#xd0;" horiz-adv-x="675" 
d="M0 0zM301 665q130 0 204.5 -21.5t110.5 -79t36 -164.5q0 -202 -120 -303.5t-350 -101.5q-38 0 -90.5 1.5t-98.5 3.5l56 291h-69q-3 9 -3 27q1 29 20 47t48 18h22l53 277q82 5 181 5zM252 67q77 0 120.5 67.5t66.5 197.5q18 101 18 163q0 53 -22.5 76t-74.5 23
q-23 0 -42 -3l-40 -208h88q4 -16 4 -28q0 -28 -19.5 -46t-56.5 -18h-34l-43 -221q20 -3 35 -3z" />
    <glyph glyph-name="Ntilde" unicode="&#xd1;" horiz-adv-x="687" 
d="M0 0zM117 0h-117l120 660h215l155 -455l76 455h118l-122 -660h-228l-144 438zM620 796q0 -36 -25.5 -55t-70.5 -19q-28 0 -110 10q-78 8 -94 8q-20 0 -38.5 -5t-28.5 -12q-20 29 -20 57q0 32 25.5 49.5t73.5 17.5q24 0 63 -4t50 -5q76 -8 96 -8q43 0 60 17q19 -23 19 -51
z" />
    <glyph glyph-name="Ograve" unicode="&#xd2;" horiz-adv-x="689" 
d="M22 0zM667 404q0 -117 -45 -213.5t-132.5 -153.5t-208.5 -57q-259 0 -259 277q0 117 45 213t132.5 153t208.5 57q259 0 259 -276zM308.5 539.5q-33.5 -70.5 -54.5 -226.5q-15 -111 -15 -175q0 -42 11 -64.5t43 -22.5q54 0 87.5 70.5t54.5 226.5q15 111 15 175
q0 42 -11.5 64.5t-43.5 22.5q-53 0 -86.5 -70.5zM513 711l-119 4q-62 2 -102 23.5t-40 69.5q0 19 7 31.5t21 22.5l245 -102z" />
    <glyph glyph-name="Oacute" unicode="&#xd3;" horiz-adv-x="689" 
d="M22 0zM667 404q0 -117 -45 -213.5t-132.5 -153.5t-208.5 -57q-259 0 -259 277q0 117 45 213t132.5 153t208.5 57q259 0 259 -276zM308.5 539.5q-33.5 -70.5 -54.5 -226.5q-15 -111 -15 -175q0 -42 11 -64.5t43 -22.5q54 0 87.5 70.5t54.5 226.5q15 111 15 175
q0 42 -11.5 64.5t-43.5 22.5q-53 0 -86.5 -70.5zM328 759l245 102q14 -10 21 -22.5t7 -31.5q0 -48 -40 -69.5t-102 -23.5l-119 -4z" />
    <glyph glyph-name="Ocircumflex" unicode="&#xd4;" horiz-adv-x="689" 
d="M22 0zM667 404q0 -117 -45 -213.5t-132.5 -153.5t-208.5 -57q-259 0 -259 277q0 117 45 213t132.5 153t208.5 57q259 0 259 -276zM308.5 539.5q-33.5 -70.5 -54.5 -226.5q-15 -111 -15 -175q0 -42 11 -64.5t43 -22.5q54 0 87.5 70.5t54.5 226.5q15 111 15 175
q0 42 -11.5 64.5t-43.5 22.5q-53 0 -86.5 -70.5zM582 733l-50 -46l-116 52l-148 -52l-31 46l167 116h45z" />
    <glyph glyph-name="Otilde" unicode="&#xd5;" horiz-adv-x="689" 
d="M22 0zM667 404q0 -117 -45 -213.5t-132.5 -153.5t-208.5 -57q-259 0 -259 277q0 117 45 213t132.5 153t208.5 57q259 0 259 -276zM308.5 539.5q-33.5 -70.5 -54.5 -226.5q-15 -111 -15 -175q0 -42 11 -64.5t43 -22.5q54 0 87.5 70.5t54.5 226.5q15 111 15 175
q0 42 -11.5 64.5t-43.5 22.5q-53 0 -86.5 -70.5zM612 796q0 -36 -25.5 -55t-70.5 -19q-28 0 -110 10q-78 8 -94 8q-20 0 -38.5 -5t-28.5 -12q-20 29 -20 57q0 32 25.5 49.5t73.5 17.5q24 0 63 -4t50 -5q76 -8 96 -8q43 0 60 17q19 -23 19 -51z" />
    <glyph glyph-name="Odieresis" unicode="&#xd6;" horiz-adv-x="689" 
d="M22 0zM667 404q0 -117 -45 -213.5t-132.5 -153.5t-208.5 -57q-259 0 -259 277q0 117 45 213t132.5 153t208.5 57q259 0 259 -276zM308.5 539.5q-33.5 -70.5 -54.5 -226.5q-15 -111 -15 -175q0 -42 11 -64.5t43 -22.5q54 0 87.5 70.5t54.5 226.5q15 111 15 175
q0 42 -11.5 64.5t-43.5 22.5q-53 0 -86.5 -70.5zM380 822q27 -20 27 -56t-28.5 -56t-74.5 -20t-74 19.5t-28 54.5q0 37 30 57.5t76 20.5q45 0 72 -20zM614 822q27 -20 27 -56t-28.5 -56t-74.5 -20t-74 19.5t-28 54.5q0 37 30 57.5t76 20.5q45 0 72 -20z" />
    <glyph glyph-name="multiply" unicode="&#xd7;" 
d="M430 117q11 -16 11 -34q0 -30 -22.5 -51t-56.5 -22l-105 145l-110 -116q-27 -28 -63 -28q-19 0 -33.5 12t-22.5 32l174 177l-73 101q-14 19 -14 44q0 29 18.5 48.5t51.5 26.5l107 -146l109 112q29 30 66 30q35 0 47 -50l-166 -169z" />
    <glyph glyph-name="Oslash" unicode="&#xd8;" horiz-adv-x="689" 
d="M667 404q0 -117 -45 -213.5t-132.5 -153.5t-208.5 -57q-97 0 -159 39q-37 -40 -57 -77q-25 0 -40 16.5t-16 43.5q0 36 24 63l24 27q-35 64 -35 165q0 117 45 213t132.5 153t208.5 57q86 0 141 -29q37 42 54 70q22 0 39.5 -20.5t17.5 -46.5q0 -32 -26 -60l-11 -11
q44 -67 44 -179zM450 538q-2 34 -13.5 53t-40.5 19q-54 0 -87.5 -69t-54.5 -224zM376 110.5q30 59.5 40.5 116t21.5 148.5l-199 -225v-13q0 -42 11.5 -64t43.5 -22q52 0 82 59.5z" />
    <glyph glyph-name="Ugrave" unicode="&#xd9;" horiz-adv-x="645" 
d="M26 0zM578 255q-27 -141 -102 -208t-214 -67q-106 0 -171 38.5t-65 123.5q0 21 4 54.5t9 60.5l78 403h220l-78 -416q-12 -62 -12 -101q0 -71 62 -71q37 0 59 21t34.5 57t23.5 94l79 416h150zM518 711l-119 4q-62 2 -102 23.5t-40 69.5q0 19 7 31.5t21 22.5l245 -102z" />
    <glyph glyph-name="Uacute" unicode="&#xda;" horiz-adv-x="645" 
d="M26 0zM578 255q-27 -141 -102 -208t-214 -67q-106 0 -171 38.5t-65 123.5q0 21 4 54.5t9 60.5l78 403h220l-78 -416q-12 -62 -12 -101q0 -71 62 -71q37 0 59 21t34.5 57t23.5 94l79 416h150zM333 759l245 102q14 -10 21 -22.5t7 -31.5q0 -48 -40 -69.5t-102 -23.5
l-119 -4z" />
    <glyph glyph-name="Ucircumflex" unicode="&#xdb;" horiz-adv-x="645" 
d="M26 0zM578 255q-27 -141 -102 -208t-214 -67q-106 0 -171 38.5t-65 123.5q0 21 4 54.5t9 60.5l78 403h220l-78 -416q-12 -62 -12 -101q0 -71 62 -71q37 0 59 21t34.5 57t23.5 94l79 416h150zM587 733l-50 -46l-116 52l-148 -52l-31 46l167 116h45z" />
    <glyph glyph-name="Udieresis" unicode="&#xdc;" horiz-adv-x="645" 
d="M26 0zM578 255q-27 -141 -102 -208t-214 -67q-106 0 -171 38.5t-65 123.5q0 21 4 54.5t9 60.5l78 403h220l-78 -416q-12 -62 -12 -101q0 -71 62 -71q37 0 59 21t34.5 57t23.5 94l79 416h150zM385 822q27 -20 27 -56t-28.5 -56t-74.5 -20t-74 19.5t-28 54.5q0 37 30 57.5
t76 20.5q45 0 72 -20zM619 822q27 -20 27 -56t-28.5 -56t-74.5 -20t-74 19.5t-28 54.5q0 37 30 57.5t76 20.5q45 0 72 -20z" />
    <glyph glyph-name="Yacute" unicode="&#xdd;" horiz-adv-x="548" 
d="M24 0zM434 601.5q60 78.5 136 78.5q67 0 80 -54q-80 -35 -159 -135.5t-127 -234.5l-50 -256h-217l58 294q-15 112 -32.5 176.5t-40.5 98.5t-58 54q21 27 54.5 42t76.5 15q84 0 121 -62t38 -199v-72q60 176 120 254.5zM288 759l245 102q14 -10 21 -22.5t7 -31.5
q0 -48 -40 -69.5t-102 -23.5l-119 -4z" />
    <glyph glyph-name="Thorn" unicode="&#xde;" horiz-adv-x="589" 
d="M314 537q10 1 37 1q134 0 206 -37t72 -140q0 -66 -30.5 -115.5t-83.5 -76t-121 -26.5q-101 0 -122 58q9 0 25 2q65 8 102 53t37 115q0 54 -23.5 77.5t-73.5 23.5q-23 0 -38 -3l-91 -469h-217l127 660h218z" />
    <glyph glyph-name="germandbls" unicode="&#xdf;" horiz-adv-x="746" 
d="M398 720q100 0 166 -32t66 -101q0 -32 -19 -55t-56 -54q-30 -25 -43 -39.5t-13 -32.5q0 -22 15 -34.5t49 -29.5l31 -16q43 -24 69.5 -42.5t45.5 -46.5t19 -65q0 -54 -39 -98t-100.5 -69t-125.5 -25q-68 0 -120.5 28t-52.5 82q0 39 28 64t74 25q39 0 65 -16
q-6 -19 -9.5 -42t-3.5 -40q0 -27 9.5 -39.5t30.5 -12.5q26 0 46 16.5t20 42.5q0 29 -23.5 54.5t-69.5 60.5l-26 21q-6 5 -36 28.5t-44.5 48.5t-14.5 52q0 28 15.5 52t46.5 57q37 41 55 70t18 68q0 33 -16 54t-46 21q-36 0 -62.5 -36.5t-43.5 -122.5l-94 -488
q-22 -113 -73 -164.5t-138 -51.5q-45 0 -71.5 14t-44.5 46q43 0 79 43.5t51 113.5l101 491q41 200 285 200z" />
    <glyph glyph-name="agrave" unicode="&#xe0;" horiz-adv-x="599" 
d="M13 0zM512 149q-5 -27 -5 -42q0 -21 12 -36t35 -17q-11 -36 -48 -55t-79 -19q-35 0 -62.5 14.5t-37.5 42.5q-25 -27 -65.5 -42t-88.5 -15q-85 0 -122.5 50t-37.5 147q0 101 37 181.5t107.5 126t168.5 45.5q62 0 101 -19l157 19zM349 465.5q-15 4.5 -28 4.5
q-27 0 -46.5 -21t-34.5 -70.5t-28 -136.5q-12 -82 -12 -135q0 -31 7.5 -47t30.5 -16q36 0 56.5 37.5t29.5 87.5l50 283q-10 9 -25 13.5zM334 605q-60 11 -94 34.5t-34 70.5q0 23 9 41t27 25l235 -146l-21 -48z" />
    <glyph glyph-name="aacute" unicode="&#xe1;" horiz-adv-x="599" 
d="M13 0zM512 149q-5 -27 -5 -42q0 -21 12 -36t35 -17q-11 -36 -48 -55t-79 -19q-35 0 -62.5 14.5t-37.5 42.5q-25 -27 -65.5 -42t-88.5 -15q-85 0 -122.5 50t-37.5 147q0 101 37 181.5t107.5 126t168.5 45.5q62 0 101 -19l157 19zM349 465.5q-15 4.5 -28 4.5
q-27 0 -46.5 -21t-34.5 -70.5t-28 -136.5q-12 -82 -12 -135q0 -31 7.5 -47t30.5 -16q36 0 56.5 37.5t29.5 87.5l50 283q-10 9 -25 13.5zM509 776q35 -13 35 -66q0 -47 -33.5 -70.5t-93.5 -34.5l-123 -23l-21 48z" />
    <glyph glyph-name="acircumflex" unicode="&#xe2;" horiz-adv-x="599" 
d="M13 0zM512 149q-5 -27 -5 -42q0 -21 12 -36t35 -17q-11 -36 -48 -55t-79 -19q-35 0 -62.5 14.5t-37.5 42.5q-25 -27 -65.5 -42t-88.5 -15q-85 0 -122.5 50t-37.5 147q0 101 37 181.5t107.5 126t168.5 45.5q62 0 101 -19l157 19zM349 465.5q-15 4.5 -28 4.5
q-27 0 -46.5 -21t-34.5 -70.5t-28 -136.5q-12 -82 -12 -135q0 -31 7.5 -47t30.5 -16q36 0 56.5 37.5t29.5 87.5l50 283q-10 9 -25 13.5zM557 634l-50 -46l-116 52l-148 -52l-31 46l167 116h45z" />
    <glyph glyph-name="atilde" unicode="&#xe3;" horiz-adv-x="599" 
d="M13 0zM512 149q-5 -27 -5 -42q0 -21 12 -36t35 -17q-11 -36 -48 -55t-79 -19q-35 0 -62.5 14.5t-37.5 42.5q-25 -27 -65.5 -42t-88.5 -15q-85 0 -122.5 50t-37.5 147q0 101 37 181.5t107.5 126t168.5 45.5q62 0 101 -19l157 19zM349 465.5q-15 4.5 -28 4.5
q-27 0 -46.5 -21t-34.5 -70.5t-28 -136.5q-12 -82 -12 -135q0 -31 7.5 -47t30.5 -16q36 0 56.5 37.5t29.5 87.5l50 283q-10 9 -25 13.5zM583 676q0 -36 -25.5 -55t-70.5 -19q-29 0 -111 10q-76 8 -93 8q-20 0 -38.5 -5t-28.5 -12q-20 29 -20 57q0 32 25.5 49.5t72.5 17.5
q23 0 62 -4t52 -5q76 -8 96 -8q43 0 60 17q19 -23 19 -51z" />
    <glyph glyph-name="adieresis" unicode="&#xe4;" horiz-adv-x="599" 
d="M13 0zM512 149q-5 -27 -5 -42q0 -21 12 -36t35 -17q-11 -36 -48 -55t-79 -19q-35 0 -62.5 14.5t-37.5 42.5q-25 -27 -65.5 -42t-88.5 -15q-85 0 -122.5 50t-37.5 147q0 101 37 181.5t107.5 126t168.5 45.5q62 0 101 -19l157 19zM349 465.5q-15 4.5 -28 4.5
q-27 0 -46.5 -21t-34.5 -70.5t-28 -136.5q-12 -82 -12 -135q0 -31 7.5 -47t30.5 -16q36 0 56.5 37.5t29.5 87.5l50 283q-10 9 -25 13.5zM595 729q29 -21 29 -59t-30.5 -59t-78.5 -21t-77.5 20.5t-29.5 57.5q0 39 31.5 60.5t79.5 21.5q47 0 76 -21zM355 729q29 -21 29 -59
t-30.5 -59t-78.5 -21t-77.5 20.5t-29.5 57.5q0 39 31.5 60.5t79.5 21.5q47 0 76 -21z" />
    <glyph glyph-name="aring" unicode="&#xe5;" horiz-adv-x="599" 
d="M13 0zM512 149q-5 -27 -5 -42q0 -21 12 -36t35 -17q-11 -36 -48 -55t-79 -19q-35 0 -62.5 14.5t-37.5 42.5q-25 -27 -65.5 -42t-88.5 -15q-85 0 -122.5 50t-37.5 147q0 101 37 181.5t107.5 126t168.5 45.5q62 0 101 -19l157 19zM349 465.5q-15 4.5 -28 4.5
q-27 0 -46.5 -21t-34.5 -70.5t-28 -136.5q-12 -82 -12 -135q0 -31 7.5 -47t30.5 -16q36 0 56.5 37.5t29.5 87.5l50 283q-10 9 -25 13.5zM299.5 588.5q-25.5 20.5 -25.5 59.5q0 51 40.5 81.5t97.5 30.5q44 0 68.5 -20.5t24.5 -59.5q0 -51 -39.5 -81.5t-95.5 -30.5
q-45 0 -70.5 20.5zM418.5 626.5q16.5 20.5 16.5 48.5q0 20 -9.5 32t-26.5 12q-23 0 -37.5 -20.5t-14.5 -49.5q0 -20 8 -31.5t25 -11.5q22 0 38.5 20.5z" />
    <glyph glyph-name="ae" unicode="&#xe6;" horiz-adv-x="805" 
d="M784.5 503.5q46.5 -26.5 46.5 -95.5q0 -76 -60 -117.5t-179 -52.5q-33 -3 -69 -3q-3 -21 -3 -42q0 -44 19 -65.5t63 -21.5q40 0 78.5 17t57.5 46q25 -15 25 -48q0 -40 -29.5 -72t-81.5 -50.5t-117 -18.5q-135 0 -191 83q-47 -83 -165 -83q-89 0 -127.5 48.5t-38.5 146.5
q0 101 35.5 181.5t104 127t162.5 46.5q91 0 156 -42q46 23 88.5 32.5t94.5 9.5q84 0 130.5 -26.5zM576 429.5q-29 -49.5 -46 -151.5q68 0 108 41t40 106q0 54 -37 54q-36 0 -65 -49.5zM349 465.5q-15 4.5 -28 4.5q-27 0 -46.5 -21t-34.5 -70.5t-28 -136.5q-12 -82 -12 -135
q0 -31 7.5 -47t30.5 -16q36 0 56.5 37.5t29.5 87.5l50 283q-10 9 -25 13.5z" />
    <glyph glyph-name="ccedilla" unicode="&#xe7;" horiz-adv-x="480" 
d="M343 330q8 20 13 49t5 51q0 20 -6 30.5t-23 10.5q-37 0 -66 -48t-45 -113.5t-16 -112.5q0 -44 18 -67.5t59 -23.5t76.5 21.5t50.5 58.5q20 -11 29 -25t9 -36q0 -59 -54 -97t-133 -46l-12 -40q11 1 33 1q49 0 79.5 -20t30.5 -61q0 -35 -22.5 -62t-60.5 -42.5t-84 -15.5
q-44 0 -69.5 14t-25.5 39q0 13 4.5 26t13.5 21q10 -16 27 -24t45 -8q51 0 51 43q0 37 -58 37q-14 0 -42 -2l28 93q-88 7 -135 61.5t-47 158.5q0 96 40.5 170.5t115 116.5t173.5 42q73 0 117.5 -25.5t44.5 -82.5q0 -50 -34 -75t-85 -25q-31 0 -45 8z" />
    <glyph glyph-name="egrave" unicode="&#xe8;" horiz-adv-x="503" 
d="M16 0zM515 408q0 -76 -64.5 -120.5t-192.5 -51.5q-16 -1 -51 -1q-3 -21 -3 -42q0 -44 19 -65.5t63 -21.5q40 0 78.5 17t57.5 46q25 -15 25 -48q0 -42 -31 -74.5t-82.5 -49.5t-108.5 -17q-100 0 -154.5 54.5t-54.5 164.5q0 90 37 165t111.5 120.5t183.5 45.5
q167 0 167 -122zM260.5 429.5q-29.5 -49.5 -46.5 -151.5q68 0 108 41t40 106q0 26 -8 40t-28 14q-36 0 -65.5 -49.5zM307 605q-60 11 -94 34.5t-34 70.5q0 23 9 41t27 25l235 -146l-21 -48z" />
    <glyph glyph-name="eacute" unicode="&#xe9;" horiz-adv-x="503" 
d="M16 0zM515 408q0 -76 -64.5 -120.5t-192.5 -51.5q-16 -1 -51 -1q-3 -21 -3 -42q0 -44 19 -65.5t63 -21.5q40 0 78.5 17t57.5 46q25 -15 25 -48q0 -42 -31 -74.5t-82.5 -49.5t-108.5 -17q-100 0 -154.5 54.5t-54.5 164.5q0 90 37 165t111.5 120.5t183.5 45.5
q167 0 167 -122zM260.5 429.5q-29.5 -49.5 -46.5 -151.5q68 0 108 41t40 106q0 26 -8 40t-28 14q-36 0 -65.5 -49.5zM482 776q35 -13 35 -66q0 -47 -33.5 -70.5t-93.5 -34.5l-123 -23l-21 48z" />
    <glyph glyph-name="ecircumflex" unicode="&#xea;" horiz-adv-x="503" 
d="M16 0zM515 408q0 -76 -64.5 -120.5t-192.5 -51.5q-16 -1 -51 -1q-3 -21 -3 -42q0 -44 19 -65.5t63 -21.5q40 0 78.5 17t57.5 46q25 -15 25 -48q0 -42 -31 -74.5t-82.5 -49.5t-108.5 -17q-100 0 -154.5 54.5t-54.5 164.5q0 90 37 165t111.5 120.5t183.5 45.5
q167 0 167 -122zM260.5 429.5q-29.5 -49.5 -46.5 -151.5q68 0 108 41t40 106q0 26 -8 40t-28 14q-36 0 -65.5 -49.5zM530 634l-50 -46l-116 52l-148 -52l-31 46l167 116h45z" />
    <glyph glyph-name="edieresis" unicode="&#xeb;" horiz-adv-x="503" 
d="M16 0zM515 408q0 -76 -64.5 -120.5t-192.5 -51.5q-16 -1 -51 -1q-3 -21 -3 -42q0 -44 19 -65.5t63 -21.5q40 0 78.5 17t57.5 46q25 -15 25 -48q0 -42 -31 -74.5t-82.5 -49.5t-108.5 -17q-100 0 -154.5 54.5t-54.5 164.5q0 90 37 165t111.5 120.5t183.5 45.5
q167 0 167 -122zM260.5 429.5q-29.5 -49.5 -46.5 -151.5q68 0 108 41t40 106q0 26 -8 40t-28 14q-36 0 -65.5 -49.5zM568 729q29 -21 29 -59t-30.5 -59t-78.5 -21t-77.5 20.5t-29.5 57.5q0 39 31.5 60.5t79.5 21.5q47 0 76 -21zM328 729q29 -21 29 -59t-30.5 -59t-78.5 -21
t-77.5 20.5t-29.5 57.5q0 39 31.5 60.5t79.5 21.5q47 0 76 -21z" />
    <glyph glyph-name="igrave" unicode="&#xec;" horiz-adv-x="303" 
d="M25 0zM222 107q0 -21 12 -36t35 -17q-11 -36 -48 -55t-81 -19q-52 0 -83.5 26.5t-31.5 76.5q0 49 33 211l4 20l38 196l201 20l-74 -381q-5 -27 -5 -42zM168 605q-60 11 -94 34.5t-34 70.5q0 23 9 41t27 25l235 -146l-21 -48z" />
    <glyph glyph-name="iacute" unicode="&#xed;" horiz-adv-x="303" 
d="M25 0zM222 107q0 -21 12 -36t35 -17q-11 -36 -48 -55t-81 -19q-52 0 -83.5 26.5t-31.5 76.5q0 49 33 211l4 20l38 196l201 20l-74 -381q-5 -27 -5 -42zM343 776q35 -13 35 -66q0 -47 -33.5 -70.5t-93.5 -34.5l-123 -23l-21 48z" />
    <glyph glyph-name="icircumflex" unicode="&#xee;" horiz-adv-x="303" 
d="M25 0zM222 107q0 -21 12 -36t35 -17q-11 -36 -48 -55t-81 -19q-52 0 -83.5 26.5t-31.5 76.5q0 49 33 211l4 20l38 196l201 20l-74 -381q-5 -27 -5 -42zM391 634l-50 -46l-116 52l-148 -52l-31 46l167 116h45z" />
    <glyph glyph-name="idieresis" unicode="&#xef;" horiz-adv-x="303" 
d="M2 0zM222 107q0 -21 12 -36t35 -17q-11 -36 -48 -55t-81 -19q-52 0 -83.5 26.5t-31.5 76.5q0 49 33 211l4 20l38 196l201 20l-74 -381q-5 -27 -5 -42zM429 729q29 -21 29 -59t-30.5 -59t-78.5 -21t-77.5 20.5t-29.5 57.5q0 39 31.5 60.5t79.5 21.5q47 0 76 -21zM189 729
q29 -21 29 -59t-30.5 -59t-78.5 -21t-77.5 20.5t-29.5 57.5q0 39 31.5 60.5t79.5 21.5q47 0 76 -21z" />
    <glyph glyph-name="eth" unicode="&#xf0;" horiz-adv-x="584" 
d="M598.5 656q-11.5 -11 -38.5 -21l-29 -10q18 -34 25 -69.5t7 -81.5q0 -108 -33.5 -221.5t-112 -193t-203.5 -79.5q-97 0 -148.5 52.5t-51.5 156.5q0 92 38.5 167.5t107 119t155.5 43.5q23 0 44.5 -3t32.5 -8q5 27 5 49q0 13 -1 20l-103 -37q-15 15 -15 34q0 30 33 41
l57 21q-19 15 -47 15q-11 0 -21 -3t-14 -6q-4 6 -4 18q0 27 27.5 43.5t72.5 16.5q62 0 108 -40l107 40q6 -6 9.5 -16t3.5 -20q0 -17 -11.5 -28zM380 441q-10 9 -27.5 14t-34.5 5q-38 0 -58.5 -34.5t-37.5 -120.5q-21 -106 -21 -183q0 -43 8.5 -63t28.5 -20q31 0 58 54.5
t52 174.5q18 88 32 173z" />
    <glyph glyph-name="ntilde" unicode="&#xf1;" horiz-adv-x="601" 
d="M0 0zM431 530q144 0 144 -117q0 -30 -8 -70.5t-22 -97.5q-13 -52 -19 -82.5t-6 -51.5q0 -51 47 -57q-11 -36 -48 -55t-81 -19q-52 0 -83.5 26.5t-31.5 76.5q0 25 6.5 59t21.5 98q14 59 22 98t8 66q0 49 -35 49q-37 0 -57.5 -42.5t-33.5 -106.5l-59 -304l-200 -20l104 530
l164 20l-16 -98q51 98 183 98zM563 676q0 -36 -25.5 -55t-70.5 -19q-29 0 -111 10q-76 8 -93 8q-20 0 -38.5 -5t-28.5 -12q-20 29 -20 57q0 32 25.5 49.5t72.5 17.5q23 0 62 -4t52 -5q76 -8 96 -8q43 0 60 17q19 -23 19 -51z" />
    <glyph glyph-name="ograve" unicode="&#xf2;" horiz-adv-x="565" 
d="M16 0zM495.5 477.5q53.5 -52.5 53.5 -162.5q0 -94 -38 -170t-110.5 -120.5t-171.5 -44.5q-213 0 -213 218q0 94 38.5 169.5t111.5 119t172 43.5q104 0 157.5 -52.5zM256.5 417.5q-24.5 -52.5 -41.5 -175.5q-12 -86 -12 -136q0 -33 8.5 -49.5t32.5 -16.5q40 0 64.5 52.5
t41.5 175.5q12 86 12 136q0 33 -8 49.5t-32 16.5q-41 0 -65.5 -52.5zM313 605q-60 11 -94 34.5t-34 70.5q0 23 9 41t27 25l235 -146l-21 -48z" />
    <glyph glyph-name="oacute" unicode="&#xf3;" horiz-adv-x="565" 
d="M16 0zM495.5 477.5q53.5 -52.5 53.5 -162.5q0 -94 -38 -170t-110.5 -120.5t-171.5 -44.5q-213 0 -213 218q0 94 38.5 169.5t111.5 119t172 43.5q104 0 157.5 -52.5zM256.5 417.5q-24.5 -52.5 -41.5 -175.5q-12 -86 -12 -136q0 -33 8.5 -49.5t32.5 -16.5q40 0 64.5 52.5
t41.5 175.5q12 86 12 136q0 33 -8 49.5t-32 16.5q-41 0 -65.5 -52.5zM488 776q35 -13 35 -66q0 -47 -33.5 -70.5t-93.5 -34.5l-123 -23l-21 48z" />
    <glyph glyph-name="ocircumflex" unicode="&#xf4;" horiz-adv-x="565" 
d="M16 0zM495.5 477.5q53.5 -52.5 53.5 -162.5q0 -94 -38 -170t-110.5 -120.5t-171.5 -44.5q-213 0 -213 218q0 94 38.5 169.5t111.5 119t172 43.5q104 0 157.5 -52.5zM256.5 417.5q-24.5 -52.5 -41.5 -175.5q-12 -86 -12 -136q0 -33 8.5 -49.5t32.5 -16.5q40 0 64.5 52.5
t41.5 175.5q12 86 12 136q0 33 -8 49.5t-32 16.5q-41 0 -65.5 -52.5zM536 634l-50 -46l-116 52l-148 -52l-31 46l167 116h45z" />
    <glyph glyph-name="otilde" unicode="&#xf5;" horiz-adv-x="565" 
d="M16 0zM495.5 477.5q53.5 -52.5 53.5 -162.5q0 -94 -38 -170t-110.5 -120.5t-171.5 -44.5q-213 0 -213 218q0 94 38.5 169.5t111.5 119t172 43.5q104 0 157.5 -52.5zM256.5 417.5q-24.5 -52.5 -41.5 -175.5q-12 -86 -12 -136q0 -33 8.5 -49.5t32.5 -16.5q40 0 64.5 52.5
t41.5 175.5q12 86 12 136q0 33 -8 49.5t-32 16.5q-41 0 -65.5 -52.5zM562 676q0 -36 -25.5 -55t-70.5 -19q-29 0 -111 10q-76 8 -93 8q-20 0 -38.5 -5t-28.5 -12q-20 29 -20 57q0 32 25.5 49.5t72.5 17.5q23 0 62 -4t52 -5q76 -8 96 -8q43 0 60 17q19 -23 19 -51z" />
    <glyph glyph-name="odieresis" unicode="&#xf6;" horiz-adv-x="565" 
d="M16 0zM495.5 477.5q53.5 -52.5 53.5 -162.5q0 -94 -38 -170t-110.5 -120.5t-171.5 -44.5q-213 0 -213 218q0 94 38.5 169.5t111.5 119t172 43.5q104 0 157.5 -52.5zM256.5 417.5q-24.5 -52.5 -41.5 -175.5q-12 -86 -12 -136q0 -33 8.5 -49.5t32.5 -16.5q40 0 64.5 52.5
t41.5 175.5q12 86 12 136q0 33 -8 49.5t-32 16.5q-41 0 -65.5 -52.5zM574 729q29 -21 29 -59t-30.5 -59t-78.5 -21t-77.5 20.5t-29.5 57.5q0 39 31.5 60.5t79.5 21.5q47 0 76 -21zM334 729q29 -21 29 -59t-30.5 -59t-78.5 -21t-77.5 20.5t-29.5 57.5q0 39 31.5 60.5
t79.5 21.5q47 0 76 -21z" />
    <glyph glyph-name="divide" unicode="&#xf7;" 
d="M359.5 358.5q-21.5 -16.5 -55.5 -16.5t-54.5 16t-20.5 45q0 30 22.5 47t56.5 17q33 0 53 -16.5t20 -45.5q0 -30 -21.5 -46.5zM486 250q0 -27 -21 -43t-61 -16h-344q-4 13 -4 32q0 30 21 48.5t53 18.5h351q5 -18 5 -40zM292.5 30.5q-21.5 -16.5 -55.5 -16.5t-54.5 16
t-20.5 45q0 30 22.5 47t56.5 17q33 0 53 -16.5t20 -45.5q0 -30 -21.5 -46.5z" />
    <glyph glyph-name="oslash" unicode="&#xf8;" horiz-adv-x="565" 
d="M511 459q38 -53 38 -144q0 -94 -38 -170t-110.5 -120.5t-171.5 -44.5q-76 0 -126 28q-28 -30 -48 -66q-22 0 -35 15t-13 36q0 29 20 52l19 21q-30 50 -30 132q0 94 38.5 169.5t111.5 119t172 43.5q64 0 108 -19l16 18q31 35 51 65q16 0 32 -16.5t16 -39.5q0 -27 -22 -50z
M217 257l145 160q-2 26 -10.5 39.5t-29.5 13.5q-31 0 -52 -29.5t-37 -94.5q-8 -31 -16 -89zM316 110q23 70 37 174l-150 -166v-11q0 -34 8.5 -50.5t32.5 -16.5q49 0 72 70z" />
    <glyph glyph-name="ugrave" unicode="&#xf9;" horiz-adv-x="609" 
d="M25 0zM522 149q-5 -27 -5 -42q0 -21 12 -36t35 -17q-11 -36 -48 -55t-79 -19q-35 0 -62.5 14.5t-37.5 42.5q-56 -57 -161 -57q-72 0 -111.5 28.5t-39.5 96.5q0 41 11 103t13 72l42 230l201 20l-57 -276q-12 -56 -17.5 -92.5t-5.5 -65.5q0 -24 7 -38t29 -14
q36 0 56.5 37.5t29.5 87.5l60 341l200 20zM313 605q-60 11 -94 34.5t-34 70.5q0 23 9 41t27 25l235 -146l-21 -48z" />
    <glyph glyph-name="uacute" unicode="&#xfa;" horiz-adv-x="609" 
d="M25 0zM522 149q-5 -27 -5 -42q0 -21 12 -36t35 -17q-11 -36 -48 -55t-79 -19q-35 0 -62.5 14.5t-37.5 42.5q-56 -57 -161 -57q-72 0 -111.5 28.5t-39.5 96.5q0 41 11 103t13 72l42 230l201 20l-57 -276q-12 -56 -17.5 -92.5t-5.5 -65.5q0 -24 7 -38t29 -14
q36 0 56.5 37.5t29.5 87.5l60 341l200 20zM488 776q35 -13 35 -66q0 -47 -33.5 -70.5t-93.5 -34.5l-123 -23l-21 48z" />
    <glyph glyph-name="ucircumflex" unicode="&#xfb;" horiz-adv-x="609" 
d="M25 0zM522 149q-5 -27 -5 -42q0 -21 12 -36t35 -17q-11 -36 -48 -55t-79 -19q-35 0 -62.5 14.5t-37.5 42.5q-56 -57 -161 -57q-72 0 -111.5 28.5t-39.5 96.5q0 41 11 103t13 72l42 230l201 20l-57 -276q-12 -56 -17.5 -92.5t-5.5 -65.5q0 -24 7 -38t29 -14
q36 0 56.5 37.5t29.5 87.5l60 341l200 20zM536 634l-50 -46l-116 52l-148 -52l-31 46l167 116h45z" />
    <glyph glyph-name="udieresis" unicode="&#xfc;" horiz-adv-x="609" 
d="M25 0zM522 149q-5 -27 -5 -42q0 -21 12 -36t35 -17q-11 -36 -48 -55t-79 -19q-35 0 -62.5 14.5t-37.5 42.5q-56 -57 -161 -57q-72 0 -111.5 28.5t-39.5 96.5q0 41 11 103t13 72l42 230l201 20l-57 -276q-12 -56 -17.5 -92.5t-5.5 -65.5q0 -24 7 -38t29 -14
q36 0 56.5 37.5t29.5 87.5l60 341l200 20zM574 729q29 -21 29 -59t-30.5 -59t-78.5 -21t-77.5 20.5t-29.5 57.5q0 39 31.5 60.5t79.5 21.5q47 0 76 -21zM334 729q29 -21 29 -59t-30.5 -59t-78.5 -21t-77.5 20.5t-29.5 57.5q0 39 31.5 60.5t79.5 21.5q47 0 76 -21z" />
    <glyph glyph-name="yacute" unicode="&#xfd;" horiz-adv-x="508" 
d="M14 0zM159 32l-83 -4q-4 137 -8.5 215t-12.5 147q-5 46 -14.5 69t-26.5 34q46 37 111 37q45 0 70.5 -15.5t36.5 -45t15 -79.5q2 -40 2 -82v-54l-1 -138q54 70 87 154.5t33 165.5q0 34 -7 57q34 37 90 37q39 0 64 -20t25 -64q0 -53 -37.5 -122.5t-90.5 -135t-101 -112.5
q-43 -42 -62 -70t-19 -70q0 -25 13.5 -49.5t34.5 -40.5q-24 -23 -57.5 -34.5t-69.5 -11.5q-44 0 -69.5 22.5t-25.5 65.5q0 77 103 144zM447 776q35 -13 35 -66q0 -47 -33.5 -70.5t-93.5 -34.5l-123 -23l-21 48z" />
    <glyph glyph-name="thorn" unicode="&#xfe;" horiz-adv-x="580" 
d="M283 490q25 21 54.5 31t68.5 10q86 0 123.5 -49.5t37.5 -147.5q0 -102 -36.5 -182t-107 -125.5t-168.5 -45.5q-37 0 -65 7l-29 -168l-198 -20l173 900l200 20l-23 -117q-12 -68 -30 -113zM231 45.5q15 -4.5 29 -4.5q28 0 47 21t33.5 69t26.5 131q12 84 12 134
q0 31 -7 47.5t-30 16.5q-36 0 -57.5 -37.5t-29.5 -87.5l-49 -276q10 -9 25 -13.5z" />
    <glyph glyph-name="ydieresis" unicode="&#xff;" horiz-adv-x="508" 
d="M14 0zM159 32l-83 -4q-4 137 -8.5 215t-12.5 147q-5 46 -14.5 69t-26.5 34q46 37 111 37q45 0 70.5 -15.5t36.5 -45t15 -79.5q2 -40 2 -82v-54l-1 -138q54 70 87 154.5t33 165.5q0 34 -7 57q34 37 90 37q39 0 64 -20t25 -64q0 -53 -37.5 -122.5t-90.5 -135t-101 -112.5
q-43 -42 -62 -70t-19 -70q0 -25 13.5 -49.5t34.5 -40.5q-24 -23 -57.5 -34.5t-69.5 -11.5q-44 0 -69.5 22.5t-25.5 65.5q0 77 103 144zM533 729q29 -21 29 -59t-30.5 -59t-78.5 -21t-77.5 20.5t-29.5 57.5q0 39 31.5 60.5t79.5 21.5q47 0 76 -21zM293 729q29 -21 29 -59
t-30.5 -59t-78.5 -21t-77.5 20.5t-29.5 57.5q0 39 31.5 60.5t79.5 21.5q47 0 76 -21z" />
    <glyph glyph-name="dotlessi" unicode="&#x131;" horiz-adv-x="303" 
d="M222 107q0 -21 12 -36t35 -17q-11 -36 -48 -55t-81 -19q-52 0 -83.5 26.5t-31.5 76.5q0 49 33 211l4 20l38 196l201 20l-74 -381q-5 -27 -5 -42z" />
    <glyph glyph-name="OE" unicode="&#x152;" horiz-adv-x="870" 
d="M798 304q-27 -29 -76 -29q-23 0 -50 6t-48 17q-12 -63 -12 -96q0 -46 21 -63t70 -17q60 0 103 16q9 -22 9 -48q0 -61 -49.5 -85.5t-121.5 -24.5q-61 0 -99.5 17t-61.5 53q-69 -70 -202 -70q-127 0 -193 68t-66 206q0 116 45 213t131 155t204 58q69 0 123 -20h374
q0 -63 -33 -94t-88 -31q-27 0 -59 7t-59 20l-24 -175h189q0 -54 -27 -83zM380.5 121.5q33.5 70.5 54.5 226.5q15 111 15 175q0 42 -11.5 64.5t-43.5 22.5q-53 0 -86.5 -70.5t-54.5 -226.5q-15 -111 -15 -175q0 -42 11 -64.5t43 -22.5q54 0 87.5 70.5z" />
    <glyph glyph-name="oe" unicode="&#x153;" horiz-adv-x="813" 
d="M792 503.5q47 -26.5 47 -94.5q0 -75 -60.5 -118.5t-169.5 -52.5q-36 -3 -78 -3q-3 -16 -3 -35q0 -94 83 -94q37 0 76 16t59 47q25 -15 25 -48q0 -43 -32 -75t-82.5 -49t-102.5 -17q-44 0 -84 12t-66 34q-75 -46 -173 -46q-215 0 -215 217q0 94 38 169.5t110 119.5t169 44
q99 0 154 -45q39 23 82 34t98 11q78 0 125 -26.5zM584.5 429.5q-29.5 -49.5 -46.5 -151.5q68 0 108 41t40 106q0 26 -8 40t-28 14q-36 0 -65.5 -49.5zM308.5 92.5q24.5 52.5 41.5 175.5q12 86 12 136q0 33 -8 49.5t-32 16.5q-41 0 -65.5 -52.5t-41.5 -175.5
q-12 -86 -12 -136q0 -33 8.5 -49.5t32.5 -16.5q40 0 64.5 52.5z" />
    <glyph glyph-name="uni02BC" unicode="&#x2bc;" horiz-adv-x="243" 
d="M157.5 725.5q23.5 5.5 44.5 5.5q93 0 93 -88q0 -35 -23 -70.5t-64 -59t-92 -23.5q-22 0 -46 6q63 68 63 148q0 38 -11 68q12 8 35.5 13.5z" />
    <glyph glyph-name="circumflex" unicode="&#x2c6;" horiz-adv-x="377" 
d="M436 634l-50 -46l-116 52l-148 -52l-31 46l167 116h45z" />
    <glyph glyph-name="ring" unicode="&#x2da;" horiz-adv-x="248" 
d="M111.5 588.5q-25.5 20.5 -25.5 59.5q0 51 40.5 81.5t97.5 30.5q44 0 68.5 -20.5t24.5 -59.5q0 -51 -39.5 -81.5t-95.5 -30.5q-45 0 -70.5 20.5zM230.5 626.5q16.5 20.5 16.5 48.5q0 20 -9.5 32t-26.5 12q-23 0 -37.5 -20.5t-14.5 -49.5q0 -20 8 -31.5t25 -11.5
q22 0 38.5 20.5z" />
    <glyph glyph-name="tilde" unicode="&#x2dc;" horiz-adv-x="430" 
d="M484 676q0 -36 -25.5 -55t-70.5 -19q-29 0 -111 10q-76 8 -93 8q-20 0 -38.5 -5t-28.5 -12q-20 29 -20 57q0 32 25.5 49.5t72.5 17.5q23 0 62 -4t52 -5q76 -8 96 -8q43 0 60 17q19 -23 19 -51z" />
    <glyph glyph-name="uni2002" unicode="&#x2002;" horiz-adv-x="400" 
 />
    <glyph glyph-name="endash" unicode="&#x2013;" horiz-adv-x="501" 
d="M500 259q-1 -31 -22.5 -50t-60.5 -19h-412q-4 13 -4 27q0 34 21 54.5t53 20.5h420q5 -18 5 -33z" />
    <glyph glyph-name="emdash" unicode="&#x2014;" horiz-adv-x="1001" 
d="M1000 262q0 -34 -22.5 -53t-60.5 -19h-912q-4 13 -4 28q0 34 20 54t54 20h920q5 -17 5 -30z" />
    <glyph glyph-name="quoteleft" unicode="&#x2018;" horiz-adv-x="258" 
d="M240 541q0 -36 11 -66q-12 -8 -35.5 -13.5t-44.5 -5.5q-43 0 -68.5 25t-25.5 72q0 48 26 88.5t70.5 64.5t97.5 24q21 0 45 -6q-76 -83 -76 -183z" />
    <glyph glyph-name="quoteright" unicode="&#x2019;" horiz-adv-x="307" 
d="M157.5 725.5q23.5 5.5 44.5 5.5q42 0 67.5 -25.5t25.5 -72.5t-26 -87.5t-70 -64.5t-97 -24q-22 0 -46 6q77 83 77 183q0 36 -11 66q12 8 35.5 13.5z" />
    <glyph glyph-name="quotesinglbase" unicode="&#x201a;" horiz-adv-x="256" 
d="M51 132.5q24 5.5 46 5.5q42 0 66.5 -23t24.5 -69q0 -48 -26 -89.5t-70.5 -67t-97.5 -25.5q-21 0 -45 6q77 83 77 183q0 36 -11 66q12 8 36 13.5z" />
    <glyph glyph-name="quotedblleft" unicode="&#x201c;" horiz-adv-x="475" 
d="M83.5 642.5q25.5 40.5 70 64.5t97.5 24q22 0 46 -6q-77 -83 -77 -183q0 -36 11 -66q-12 -8 -35.5 -13.5t-44.5 -5.5q-43 0 -68 25.5t-25 72.5t25.5 87.5zM321 642q26 41 70.5 65t96.5 24q22 0 46 -6q-77 -84 -77 -183q0 -36 11 -66q-12 -8 -35 -13.5t-44 -5.5
q-43 0 -68.5 25.5t-25.5 71.5q0 47 26 88z" />
    <glyph glyph-name="quotedblright" unicode="&#x201d;" horiz-adv-x="493" 
d="M143.5 725.5q23.5 5.5 44.5 5.5q44 0 69 -25.5t25 -72.5q0 -48 -26 -88.5t-70.5 -64t-97.5 -23.5q-22 0 -46 6q77 83 77 183q0 36 -11 66q12 8 35.5 13.5zM381 725.5q23 5.5 44 5.5q43 0 68.5 -25.5t25.5 -71.5q0 -47 -26 -88t-70.5 -65t-96.5 -24q-22 0 -46 6
q77 84 77 183q0 36 -11 66q12 8 35 13.5z" />
    <glyph glyph-name="quotedblbase" unicode="&#x201e;" horiz-adv-x="534" 
d="M182 -47q-26 -41 -70.5 -65t-96.5 -24q-22 0 -46 6q77 83 77 183q0 36 -11 66q12 8 35.5 13.5t44.5 5.5q42 0 67.5 -25.5t25.5 -71.5q0 -47 -26 -88zM420 -47q-26 -41 -70.5 -65t-97.5 -24q-22 0 -46 6q77 83 77 183q0 36 -11 66q12 8 35.5 13.5t44.5 5.5
q43 0 68.5 -25.5t25.5 -71.5q0 -47 -26 -88z" />
    <glyph glyph-name="bullet" unicode="&#x2022;" horiz-adv-x="329" 
d="M247.5 182q-35.5 -28 -92.5 -28q-56 0 -89.5 27t-33.5 75q0 50 36 78.5t93 28.5q55 0 88.5 -27.5t33.5 -75.5q0 -50 -35.5 -78z" />
    <glyph glyph-name="ellipsis" unicode="&#x2026;" horiz-adv-x="699" 
d="M14 0zM642 112q27 -20 27 -56t-29 -56t-74 -20q-46 0 -74 19.5t-28 54.5q0 37 30 57.5t76 20.5q45 0 72 -20zM192 112q27 -20 27 -56t-29 -56t-74 -20q-46 0 -74 19.5t-28 54.5q0 37 30 57.5t76 20.5q45 0 72 -20zM419 112q27 -20 27 -56t-29 -56t-74 -20q-46 0 -74 19.5
t-28 54.5q0 37 30 57.5t76 20.5q45 0 72 -20z" />
    <glyph glyph-name="guilsinglleft" unicode="&#x2039;" horiz-adv-x="308" 
d="M188 510h119l-123 -193l48 -191h-116l-95 191z" />
    <glyph glyph-name="guilsinglright" unicode="&#x203a;" horiz-adv-x="310" 
d="M274 317l-166 -191h-117l119 191l-51 193h120z" />
    <glyph glyph-name="fraction" unicode="&#x2044;" horiz-adv-x="288" 
d="M-10 -91q-46 0 -46 29q0 10 6 25l327 755q14 2 27 2q26 0 37.5 -6.5t11.5 -23.5q0 -16 -9 -38l-323 -740q-9 -3 -31 -3z" />
    <glyph glyph-name="Euro" unicode="&#x20ac;" 
d="M451 438q7 35 7 75q0 35 -10.5 56.5t-43.5 21.5q-40 0 -72 -49.5t-52 -124.5h135q6 -15 6 -28q0 -23 -20 -35t-56 -12h-80q-6 -31 -6 -58h130q6 -15 6 -28q0 -23 -20 -35t-56 -12h-56q8 -42 34 -61.5t77 -19.5q50 0 92 19t69 54q14 -11 19.5 -29t5.5 -35q0 -42 -33 -78
t-92.5 -57.5t-136.5 -21.5q-115 0 -173 56t-66 173h-67q-5 13 -5 27q0 23 18 35.5t49 12.5h5q1 20 7 58h-48q-5 13 -5 27q0 23 18 35.5t49 12.5h5q39 112 128 177.5t220 65.5q84 0 139.5 -24t55.5 -84q0 -53 -39 -87t-93 -34q-25 0 -45 7z" />
    <glyph glyph-name="trademark" unicode="&#x2122;" horiz-adv-x="722" 
d="M88 596q-21 0 -39 -3q-2 14 -2 26q0 23 13.5 32t40.5 9h147q35 0 53 6q4 -5 6.5 -14.5t2.5 -18.5q0 -23 -15.5 -30t-44.5 -7h-28l-37 -209q-5 -25 -5 -45q0 -23 7 -34q-23 -19 -55 -19q-29 0 -39.5 14t-10.5 39q0 27 15 114l26 140h-35zM504 445l-36 215h-107l-85 -363
h60l52 247l42 -247h67q38 108 103 247q-11 -98 -11 -157q0 -51 15 -74.5t54 -23.5q23 0 38.5 7.5t20.5 19.5q-17 20 -24 41.5t-7 68.5q0 26 11 234h-99q-42 -106 -94 -215z" />
    <glyph glyph-name="minus" unicode="&#x2212;" 
d="M496 262q0 -32 -22.5 -52t-60.5 -20h-343q-4 13 -4 27q0 33 20.5 54t53.5 21h351q5 -18 5 -30z" />
    <glyph glyph-name="uni2215" unicode="&#x2215;" horiz-adv-x="117" 
d="M251 720q26 0 37.5 -6.5t11.5 -23.5q0 -16 -9 -38l-323 -740q-9 -3 -31 -3q-46 0 -46 29q0 10 6 25l327 755q14 2 27 2z" />
    <glyph glyph-name="Dcroat" horiz-adv-x="675" 
d="M301 665q130 0 204.5 -21.5t110.5 -79t36 -164.5q0 -202 -120 -303.5t-350 -101.5q-38 0 -90.5 1.5t-98.5 3.5l56 291h-69q-3 9 -3 27q1 29 20 47t48 18h22l53 277q82 5 181 5zM252 67q77 0 120.5 67.5t66.5 197.5q18 101 18 163q0 53 -22.5 76t-74.5 23q-23 0 -42 -3
l-40 -208h88q4 -16 4 -28q0 -28 -19.5 -46t-56.5 -18h-34l-43 -221q20 -3 35 -3z" />
    <glyph glyph-name="Ldot" horiz-adv-x="442" 
d="M120 660h218l-98 -540h89q67 0 99 10q7 -9 10.5 -25t3.5 -30q0 -43 -34 -59t-90 -16h-319zM431 381.5q14 -13.5 14 -37.5q0 -6 -2 -18q-7 -32 -29 -51t-53 -19q-26 0 -40.5 13.5t-14.5 36.5q0 5 2 17q7 33 30 52.5t54 19.5q25 0 39 -13.5z" />
    <glyph glyph-name="uni1E9E" horiz-adv-x="757" 
d="M50 331q27 137 87 214t140 106t181 29t166 -25t104 -74q-52 -24 -107 -62t-55 -87q0 -23 13 -38.5t42 -38.5q42 -32 65 -64t23 -87q0 -68 -39 -119t-103 -78t-139 -27q-65 0 -113.5 23.5t-48.5 83.5q0 40 23.5 66t63.5 26q30 0 56 -13q-12 -36 -12 -63q0 -55 46 -55
q34 0 51.5 25t17.5 51q0 23 -14.5 39.5t-44.5 39.5q-41 32 -64 62.5t-23 80.5q0 75 55 132t147 104q-16 22 -43 37t-63 15q-76 0 -120.5 -73.5t-72.5 -218.5l-67 -342h-217z" />
    <glyph glyph-name="Y.loclGUA" horiz-adv-x="683" 
d="M589 156q-23 -121 -66 -198.5t-117.5 -117.5t-189.5 -40q-88 0 -149 30t-61 97q0 54 36.5 79t90.5 25q29 0 60 -11q-15 -34 -15 -72q0 -81 63 -81q65 0 100.5 72t55.5 190q-25 -30 -67.5 -45.5t-91.5 -15.5q-88 0 -138.5 40t-50.5 122q0 21 4 54.5t9 60.5l61 315h220
l-61 -328q-12 -62 -12 -101q0 -71 55 -71q45 0 68 45t39 127l62 328h190z" />
    <glyph glyph-name="Yacute.loclGUA" horiz-adv-x="683" 
d="M6 0zM589 156q-23 -121 -66 -198.5t-117.5 -117.5t-189.5 -40q-88 0 -149 30t-61 97q0 54 36.5 79t90.5 25q29 0 60 -11q-15 -34 -15 -72q0 -81 63 -81q65 0 100.5 72t55.5 190q-25 -30 -67.5 -45.5t-91.5 -15.5q-88 0 -138.5 40t-50.5 122q0 21 4 54.5t9 60.5l61 315
h220l-61 -328q-12 -62 -12 -101q0 -71 55 -71q45 0 68 45t39 127l62 328h190zM347 759l245 102q14 -10 21 -22.5t7 -31.5q0 -48 -40 -69.5t-102 -23.5l-119 -4z" />
    <glyph glyph-name="uni1EF8.loclGUA" horiz-adv-x="683" 
d="M6 0zM589 156q-23 -121 -66 -198.5t-117.5 -117.5t-189.5 -40q-88 0 -149 30t-61 97q0 54 36.5 79t90.5 25q29 0 60 -11q-15 -34 -15 -72q0 -81 63 -81q65 0 100.5 72t55.5 190q-25 -30 -67.5 -45.5t-91.5 -15.5q-88 0 -138.5 40t-50.5 122q0 21 4 54.5t9 60.5l61 315
h220l-61 -328q-12 -62 -12 -101q0 -71 55 -71q45 0 68 45t39 127l62 328h190zM631 796q0 -36 -25.5 -55t-70.5 -19q-28 0 -110 10q-78 8 -94 8q-20 0 -38.5 -5t-28.5 -12q-20 29 -20 57q0 32 25.5 49.5t73.5 17.5q24 0 63 -4t50 -5q76 -8 96 -8q43 0 60 17q19 -23 19 -51z
" />
    <glyph glyph-name="Oacute.loclPLK" horiz-adv-x="689" 
d="M22 0zM667 404q0 -117 -45 -213.5t-132.5 -153.5t-208.5 -57q-259 0 -259 277q0 117 45 213t132.5 153t208.5 57q259 0 259 -276zM308.5 539.5q-33.5 -70.5 -54.5 -226.5q-15 -111 -15 -175q0 -42 11 -64.5t43 -22.5q54 0 87.5 70.5t54.5 226.5q15 111 15 175
q0 42 -11.5 64.5t-43.5 22.5q-53 0 -86.5 -70.5zM444 858q87 0 87 -45q0 -21 -20.5 -50t-61.5 -72l-73 9z" />
    <glyph glyph-name="i.loclTRK" horiz-adv-x="303" 
d="M25 0zM222 107q0 -21 12 -36t35 -17q-11 -36 -48 -55t-81 -19q-52 0 -83.5 26.5t-31.5 76.5q0 49 33 211l4 20l38 196l201 20l-74 -381q-5 -27 -5 -42zM307 729q29 -21 29 -59t-30.5 -59t-78.5 -21t-77.5 20.5t-29.5 57.5q0 39 31.5 60.5t79.5 21.5q47 0 76 -21z" />
    <glyph glyph-name="ldot" horiz-adv-x="355" 
d="M218 149q-5 -27 -5 -42q0 -21 12 -36t35 -17q-11 -36 -48 -55t-81 -19q-52 0 -83.5 26.5t-31.5 76.5q0 49 33 211l4 20l73 386l202 20zM388 389.5q14 -13.5 14 -37.5q0 -6 -2 -18q-7 -32 -29 -51t-53 -19q-26 0 -40.5 13.5t-14.5 36.5q0 5 2 17q7 33 30 52.5t54 19.5
q25 0 39 -13.5z" />
    <glyph glyph-name="y.loclGUA" horiz-adv-x="569" 
d="M502 137q-23 -118 -57.5 -190.5t-97 -109.5t-165.5 -37q-87 0 -154 26.5t-67 89.5q0 42 31 63t77 21q32 0 59.5 -10.5t43.5 -32.5q-23 -26 -23 -51q0 -37 38 -37q46 0 75.5 59.5t52.5 191.5q-27 -30 -69.5 -46t-89.5 -16q-63 0 -98 31t-35 94q0 41 11 103t13 72l28 152
l201 20l-45 -199q-23 -103 -23 -142q0 -28 9.5 -41t29.5 -13q34 0 54.5 35.5t29.5 86.5l46 253l200 20z" />
    <glyph glyph-name="yacute.loclGUA" horiz-adv-x="569" 
d="M0 0zM502 137q-23 -118 -57.5 -190.5t-97 -109.5t-165.5 -37q-87 0 -154 26.5t-67 89.5q0 42 31 63t77 21q32 0 59.5 -10.5t43.5 -32.5q-23 -26 -23 -51q0 -37 38 -37q46 0 75.5 59.5t52.5 191.5q-27 -30 -69.5 -46t-89.5 -16q-63 0 -98 31t-35 94q0 41 11 103t13 72
l28 152l201 20l-45 -199q-23 -103 -23 -142q0 -28 9.5 -41t29.5 -13q34 0 54.5 35.5t29.5 86.5l46 253l200 20zM479 776q35 -13 35 -66q0 -47 -33.5 -70.5t-93.5 -34.5l-123 -23l-21 48z" />
    <glyph glyph-name="ydieresis.loclGUA" horiz-adv-x="569" 
d="M0 0zM502 137q-23 -118 -57.5 -190.5t-97 -109.5t-165.5 -37q-87 0 -154 26.5t-67 89.5q0 42 31 63t77 21q32 0 59.5 -10.5t43.5 -32.5q-23 -26 -23 -51q0 -37 38 -37q46 0 75.5 59.5t52.5 191.5q-27 -30 -69.5 -46t-89.5 -16q-63 0 -98 31t-35 94q0 41 11 103t13 72
l28 152l201 20l-45 -199q-23 -103 -23 -142q0 -28 9.5 -41t29.5 -13q34 0 54.5 35.5t29.5 86.5l46 253l200 20zM565 729q29 -21 29 -59t-30.5 -59t-78.5 -21t-77.5 20.5t-29.5 57.5q0 39 31.5 60.5t79.5 21.5q47 0 76 -21zM325 729q29 -21 29 -59t-30.5 -59t-78.5 -21
t-77.5 20.5t-29.5 57.5q0 39 31.5 60.5t79.5 21.5q47 0 76 -21z" />
    <glyph glyph-name="uni1EF9.loclGUA" horiz-adv-x="569" 
d="M0 0zM502 137q-23 -118 -57.5 -190.5t-97 -109.5t-165.5 -37q-87 0 -154 26.5t-67 89.5q0 42 31 63t77 21q32 0 59.5 -10.5t43.5 -32.5q-23 -26 -23 -51q0 -37 38 -37q46 0 75.5 59.5t52.5 191.5q-27 -30 -69.5 -46t-89.5 -16q-63 0 -98 31t-35 94q0 41 11 103t13 72
l28 152l201 20l-45 -199q-23 -103 -23 -142q0 -28 9.5 -41t29.5 -13q34 0 54.5 35.5t29.5 86.5l46 253l200 20zM553 676q0 -36 -25.5 -55t-70.5 -19q-29 0 -111 10q-76 8 -93 8q-20 0 -38.5 -5t-28.5 -12q-20 29 -20 57q0 32 25.5 49.5t72.5 17.5q23 0 62 -4t52 -5
q76 -8 96 -8q43 0 60 17q19 -23 19 -51z" />
    <glyph glyph-name="oacute.loclPLK" horiz-adv-x="565" 
d="M16 0zM495.5 477.5q53.5 -52.5 53.5 -162.5q0 -94 -38 -170t-110.5 -120.5t-171.5 -44.5q-213 0 -213 218q0 94 38.5 169.5t111.5 119t172 43.5q104 0 157.5 -52.5zM256.5 417.5q-24.5 -52.5 -41.5 -175.5q-12 -86 -12 -136q0 -33 8.5 -49.5t32.5 -16.5q40 0 64.5 52.5
t41.5 175.5q12 86 12 136q0 33 -8 49.5t-32 16.5q-41 0 -65.5 -52.5zM402 778q87 0 87 -45q0 -21 -19.5 -49t-56.5 -67l-54 -57l-48 22z" />
    <glyph glyph-name="uni03BC" horiz-adv-x="617" 
d="M602 530l-72 -381q-5 -27 -5 -42q0 -21 12 -36t35 -17q-11 -36 -48 -55t-79 -19q-35 0 -62.5 14.5t-37.5 42.5q-20 -20 -46.5 -31t-62.5 -19q-21 -5 -39 -6l-27 -161l-200 -20l87 449q1 7 3 14.5t3 15.5q7 32 13.5 68t6.5 54q0 24 -12 38.5t-34 16.5q11 36 47.5 55
t81.5 19q52 0 83 -26.5t31 -76.5q0 -24 -6.5 -58.5t-21.5 -98.5q-14 -59 -22 -98t-8 -66q0 -49 35 -49q64 0 91 149l54 304z" />
    <glyph glyph-name="uni2153" horiz-adv-x="822" 
d="M551 720q26 0 37.5 -6.5t11.5 -23.5q0 -16 -9 -38l-323 -740q-9 -3 -31 -3q-46 0 -46 29q0 10 6 25l327 755q14 2 27 2zM237 353h15q30 0 48 6q8 -13 8 -33q0 -24 -16 -34.5t-52 -10.5l-54 2q-60 2 -91 2q-29 0 -41 -3q-3 11 -3 21q0 22 11.5 36t32.5 14h30l47 216
q-9 -9 -22 -13t-25 -4q-25 0 -38 17t-16 39q44 7 92.5 24t113.5 47l17 -22zM676 278q0 16 -12 25.5t-32 9.5q-39 0 -74 -36q-20 4 -20 31q0 42 45 64t96 22q47 0 76.5 -20t29.5 -58q0 -35 -24.5 -63t-67.5 -43q38 -10 57 -34t19 -58q0 -36 -20.5 -65.5t-59 -46.5t-89.5 -17
q-52 0 -80.5 18t-28.5 49q0 15 6 28t17 21q11 -21 31.5 -31.5t44.5 -10.5q29 0 45.5 14.5t16.5 40.5q0 52 -70 52l10 52q84 14 84 56z" />
    <glyph glyph-name="uni2154" horiz-adv-x="822" 
d="M566 720q26 0 37.5 -6.5t11.5 -23.5q0 -16 -9 -38l-323 -740q-9 -3 -31 -3q-46 0 -46 29q0 10 6 25l327 755q14 2 27 2zM226 558q0 39 -42 39q-27 0 -48.5 -14t-31.5 -36q-14 1 -23.5 13t-9.5 30q0 40 44.5 63.5t99.5 23.5q51 0 85 -23.5t34 -72.5q0 -34 -18 -61.5
t-55 -54.5q-35 -26 -112 -74q45 -9 94 -9q44 0 61 17q15 -21 15 -45q0 -71 -97 -71q-27 0 -81 9q-33 7 -50 7q-22 0 -31 -9q-8 7 -13.5 21.5t-5.5 30.5q0 19 10 34t30 31l106 84q39 32 39 67zM689 278q0 16 -12 25.5t-32 9.5q-39 0 -74 -36q-20 4 -20 31q0 42 45 64t96 22
q47 0 76.5 -20t29.5 -58q0 -35 -24.5 -62.5t-67.5 -43.5q38 -10 57 -34t19 -58q0 -36 -20.5 -65.5t-59 -46.5t-89.5 -17q-52 0 -80.5 18t-28.5 49q0 15 6 28t17 21q11 -21 31.5 -31.5t44.5 -10.5q29 0 46 14.5t17 40.5q0 52 -71 52l10 52q84 14 84 56z" />
    <glyph glyph-name="oneeighth" horiz-adv-x="820" 
d="M551 720q26 0 37.5 -6.5t11.5 -23.5q0 -16 -9 -38l-323 -740q-9 -3 -31 -3q-46 0 -46 29q0 10 6 25l327 755q14 2 27 2zM237 353h15q30 0 48 6q8 -13 8 -33q0 -24 -16 -34.5t-52 -10.5l-54 2q-60 2 -91 2q-29 0 -41 -3q-3 11 -3 21q0 22 11.5 36t32.5 14h30l47 216
q-9 -9 -22 -13t-25 -4q-25 0 -38 17t-16 39q44 7 92.5 24t113.5 47l17 -22zM742 53.5q-22 -30.5 -60.5 -48.5t-84.5 -18q-53 0 -88 23t-35 68q0 67 86 108q-20 16 -29 33.5t-9 39.5q0 35 21 65t58 47t81 17t72 -18.5t28 -57.5q0 -35 -22.5 -60t-57.5 -41q37 -30 49.5 -47.5
t12.5 -42.5q0 -37 -22 -67.5zM699 292q0 17 -9 28t-27 11t-30.5 -10t-12.5 -27q0 -20 17 -32l30 -23q32 20 32 53zM565 93q0 -22 9.5 -34t27.5 -12q20 0 32.5 13t12.5 31t-16 32l-37 32q-29 -23 -29 -62z" />
    <glyph glyph-name="quotesingle.loclGUA" horiz-adv-x="150" 
d="M43 465q21 87 32.5 148.5t12.5 110.5q36 6 57 6q80 0 80 -81q0 -47 -31.5 -119t-63.5 -105h-96z" />
    <glyph glyph-name="uni20B2" 
d="M416 421q7 37 7 78q0 44 -10 63.5t-33 19.5q-46 0 -79.5 -51t-51 -127.5t-17.5 -149.5q0 -155 80 -155q24 0 34 2l33 201l172 18q-24 -76 -38 -161t-14 -160q-28 -19 -62 -19q-48 0 -79 42q-26 -22 -52 -32l-6 -32q-7 -43 -22.5 -59t-48.5 -16q-25 0 -43 5l17 95
q-88 12 -131.5 80t-43.5 178q0 111 42 200t113 144t155 70l6 35q8 44 22.5 59.5t45.5 15.5q21 0 43 -5l-20 -102q71 -5 116.5 -33t45.5 -86q0 -55 -39.5 -90t-95.5 -35q-26 0 -46 7zM398 122q6 3 10 7z" />
    <glyph glyph-name="dotaccent" horiz-adv-x="223" 
d="M262 729q29 -21 29 -59t-30.5 -59t-78.5 -21t-77.5 20.5t-29.5 57.5q0 39 31.5 60.5t79.5 21.5q47 0 76 -21z" />
    <glyph glyph-name="acute.case" horiz-adv-x="237" 
d="M82 759l245 102q14 -10 21 -22.5t7 -31.5q0 -48 -40 -69.5t-102 -23.5l-119 -4z" />
    <glyph glyph-name="circumflex.case" horiz-adv-x="300" 
d="M422 733l-50 -46l-116 52l-148 -52l-31 46l167 116h45z" />
    <glyph glyph-name="dieresis.case" horiz-adv-x="425" 
d="M265 822q27 -20 27 -56t-28.5 -56t-74.5 -20t-74 19.5t-28 54.5q0 37 30 57.5t76 20.5q45 0 72 -20zM499 822q27 -20 27 -56t-28.5 -56t-74.5 -20t-74 19.5t-28 54.5q0 37 30 57.5t76 20.5q45 0 72 -20z" />
    <glyph glyph-name="grave.case" horiz-adv-x="256" 
d="M354 711l-119 4q-62 2 -102 23.5t-40 69.5q0 19 7 31.5t21 22.5l245 -102z" />
    <glyph glyph-name="acute.loclPLK.case" horiz-adv-x="237" 
d="M240 858q87 0 87 -45q0 -21 -20.5 -50t-61.5 -72l-73 9z" />
    <glyph glyph-name="ring.case" horiz-adv-x="191" 
d="M266.5 716q-38.5 -26 -90.5 -26q-42 0 -67 18t-25 51q0 43 39 69t92 26q41 0 65.5 -18t24.5 -51q0 -43 -38.5 -69zM229.5 807q-7.5 8 -24.5 8q-25 0 -39 -15.5t-14 -40.5q0 -17 7.5 -25t24.5 -8q25 0 39 15.5t14 40.5q0 17 -7.5 25z" />
    <glyph glyph-name="tilde.case" horiz-adv-x="359" 
d="M470 796q0 -36 -25.5 -55t-70.5 -19q-28 0 -110 10q-78 8 -94 8q-20 0 -38.5 -5t-28.5 -12q-20 29 -20 57q0 32 25.5 49.5t73.5 17.5q24 0 63 -4t50 -5q76 -8 96 -8q43 0 60 17q19 -23 19 -51z" />
    <glyph glyph-name="acute.loclPLK" horiz-adv-x="281" 
d="M220 778q87 0 87 -45q0 -21 -19.5 -49t-56.5 -67l-54 -57l-48 22z" />
    <glyph glyph-name=".ttfautohint" horiz-adv-x="99" 
d="M0 0z" />
    </font>
</defs>
</svg>
