<?xml version="1.0" standalone="no"?>
<!DOCTYPE svg PUBLIC "-//W3C//DTD SVG 1.1//EN" "http://www.w3.org/Graphics/SVG/1.1/DTD/svg11.dtd" >
<svg xmlns="http://www.w3.org/2000/svg" xmlns:xlink="http://www.w3.org/1999/xlink" version="1.1">
<metadata>
Created by FontForge 20170731 at Sun Dec  4 11:51:17 2016
 By Aleksey,,,
Copyright 2016 The Sansita Project Authors (omnibus.type@gmail.com)
</metadata>
<defs>
<font id="Sansita-Regular" horiz-adv-x="541" >
  <font-face 
    font-family="Sansita"
    font-weight="400"
    font-stretch="normal"
    units-per-em="1000"
    panose-1="3 6 5 2 3 6 2 2 5 6"
    ascent="800"
    descent="-200"
    x-height="510"
    cap-height="660"
    bbox="-70 -253 879 867"
    underline-thickness="50"
    underline-position="-150"
    unicode-range="U+000D-2215"
  />
<missing-glyph horiz-adv-x="514" 
d="M7 0v700h500v-700h-500zM257 395l169 255h-340zM56 605v-510l171 255zM287 350l169 -255v510zM87 50h340l-171 255z" />
    <glyph glyph-name="f_f" unicode="ff" horiz-adv-x="602" 
d="M655 700.5q46 -19.5 46 -65.5q0 -34 -21.5 -52t-57.5 -18q-26 0 -40 11q8 24 8 45q0 26 -12.5 40.5t-37.5 14.5q-39 0 -52.5 -29.5t-13.5 -82.5v-54h109v-45h-108v-465l-110 -12v477h-179v-465l-110 -12v477h-71v45h71l3 44q10 156 213 156q72 0 132 -19q43 29 122 29
q63 0 109 -19.5zM205.5 636.5q-20.5 -29.5 -20.5 -82.5v-44h180v62q0 49 -16.5 71.5t-60.5 22.5q-62 0 -82.5 -29.5z" />
    <glyph glyph-name="fi" unicode="fi" horiz-adv-x="545" 
d="M343.5 662.5q-22.5 13.5 -56.5 13.5q-54 0 -78 -27.5t-24 -84.5v-54h290v-428q0 -49 31 -66q-8 -15 -26 -23t-38 -8q-38 0 -57.5 22t-19.5 62v396h-179v-465l-110 -12v477h-71v45h71l3 54q4 82 61 119t152 37q77 0 136.5 -21.5t59.5 -75.5q0 -29 -24 -46t-56 -17
q-31 0 -51 14q9 24 9 44q0 31 -22.5 44.5z" />
    <glyph glyph-name="fl" unicode="fl" horiz-adv-x="549" 
d="M475 82q0 -49 31 -66q-8 -15 -26 -23t-38 -8q-38 0 -57.5 22t-19.5 62v513q0 49 -16.5 71.5t-61.5 22.5q-61 0 -81.5 -29.5t-20.5 -82.5v-54h109v-45h-108v-465l-110 -12v477h-71v45h71l3 54q10 156 212 156q70 0 118 -15l66 7v-630z" />
    <glyph glyph-name=".notdef" horiz-adv-x="514" 
d="M7 0v700h500v-700h-500zM257 395l169 255h-340zM56 605v-510l171 255zM287 350l169 -255v510zM87 50h340l-171 255z" />
    <glyph glyph-name=".null" horiz-adv-x="0" 
 />
    <glyph glyph-name="nonmarkingreturn" unicode="&#xd;" horiz-adv-x="175" 
 />
    <glyph glyph-name="NULL" horiz-adv-x="0" 
 />
    <glyph glyph-name="NULL" horiz-adv-x="0" 
 />
    <glyph glyph-name="space" unicode=" " horiz-adv-x="175" 
 />
    <glyph glyph-name="exclam" unicode="!" horiz-adv-x="245" 
d="M173 663.5q15 -16.5 15 -50.5q0 -40 -6 -114l-24 -290q-12 -9 -33 -9q-28 0 -37 15t-11 49l-12 395q11 10 27.5 15.5t32.5 5.5q33 0 48 -16.5zM174 90q20 -16 20 -46q0 -31 -21.5 -47.5t-54.5 -16.5t-53 16t-20 46q0 31 21.5 47.5t54.5 16.5t53 -16z" />
    <glyph glyph-name="quotedbl" unicode="&#x22;" horiz-adv-x="384" 
d="M46 704q22 6 43 6q44 0 61.5 -20.5t17.5 -66.5q0 -33 -13 -73t-27 -59h-68q0 135 -14 213zM216 704q22 6 43 6q44 0 62 -20.5t18 -66.5q0 -33 -13 -72.5t-28 -59.5h-68q0 135 -14 213z" />
    <glyph glyph-name="numbersign" unicode="#" 
d="M421 653v-162h112q9 -20 9 -35q0 -23 -12.5 -36.5t-35.5 -13.5h-73v-143h112q9 -20 9 -35q0 -23 -12.5 -36.5t-35.5 -13.5h-73v-126q0 -26 -14.5 -39t-40.5 -13q-23 0 -39 10v168h-113v-126q0 -26 -15 -39t-41 -13q-22 0 -38 10v168h-113q-9 20 -9 35q0 23 13 36.5
t36 13.5h73v143h-113q-9 20 -9 35q0 23 13 36.5t36 13.5h73v120q0 26 14.5 39t40.5 13q23 0 39 -10v-162h113v120q0 26 15 39t41 13q22 0 38 -10zM327 406h-113v-143h113v143z" />
    <glyph glyph-name="dollar" unicode="$" 
d="M430.5 36q-51.5 -43 -123.5 -54v-42q0 -57 -47 -57q-25 0 -39 9v88q-65 8 -113 41t-48 103q0 36 21 58.5t56 22.5t52 -16q-8 -22 -8 -50q0 -95 91 -95q44 0 72 24.5t28 66.5q0 31 -16.5 56t-41 43.5t-67.5 44.5q-52 32 -84.5 57t-55.5 63.5t-23 91.5q0 76 46 115.5
t110 50.5v40q0 28 10.5 43t35.5 15q23 0 40 -9v-88q62 -7 105.5 -39t43.5 -98q0 -36 -21 -58.5t-57 -22.5q-35 0 -52 16q8 22 8 50q0 88 -78 88q-38 0 -59.5 -18.5t-21.5 -54.5t18 -63t44 -47t71 -48q50 -30 81 -54.5t52.5 -60t21.5 -83.5q0 -86 -51.5 -129z" />
    <glyph glyph-name="percent" unicode="%" horiz-adv-x="923" 
d="M674 676.5q14 -10.5 24 -25.5l-379 -640q-12 -20 -23 -30t-28 -10q-14 0 -28 10.5t-24 25.5l380 640q11 20 22 30t28 10q14 0 28 -10.5zM370 483q0 -97 -38 -150t-124 -53q-164 0 -164 197q0 93 39.5 145t124.5 52q162 0 162 -191zM154 584.5q-13 -41.5 -13 -105.5
q0 -69 12 -109t55 -40q42 0 53.5 40.5t11.5 108.5q0 64 -12.5 105.5t-52.5 41.5q-41 0 -54 -41.5zM879 184q0 -97 -38 -150t-124 -53q-164 0 -164 197q0 93 39.5 145t124.5 52q162 0 162 -191zM663 285.5q-13 -41.5 -13 -105.5q0 -69 11.5 -109t55.5 -40q42 0 53.5 40.5
t11.5 108.5q0 64 -12.5 105.5t-52.5 41.5q-41 0 -54 -41.5z" />
    <glyph glyph-name="ampersand" unicode="&#x26;" horiz-adv-x="681" 
d="M681 47q0 -34 -24.5 -50.5t-64.5 -16.5q-30 0 -66.5 12.5t-74.5 35.5q-74 -50 -162 -50q-111 0 -180 52.5t-69 153.5q0 116 116 167q-46 89 -46 159q0 83 57 126.5t150 43.5q183 0 183 -126q0 -36 -21 -58.5t-56 -22.5t-52 16q8 22 8 50q0 71 -71 71q-41 0 -63 -24
t-22 -72q0 -55 33 -122t86 -132t112 -114q14 42 14 100q0 66 -43 112q12 7 30 11.5t33 4.5q52 0 74.5 -31t22.5 -86q0 -40 -15.5 -81.5t-44.5 -78.5q51 -23 86 -23q34 0 56 11q14 -14 14 -38zM204 91.5q41 -40.5 111 -40.5q44 0 77 17q-54 43 -107 101t-93 119
q-13 -12 -21 -34.5t-8 -51.5q0 -70 41 -110.5z" />
    <glyph glyph-name="quotesingle" unicode="'" horiz-adv-x="214" 
d="M46 704q22 6 43 6q44 0 61.5 -20.5t17.5 -66.5q0 -33 -13 -73t-27 -59h-68q0 135 -14 213z" />
    <glyph glyph-name="parenleft" unicode="(" horiz-adv-x="375" 
d="M429 779q-96 -70 -146 -195t-50 -284t50 -284t146 -195q-13 -21 -47 -21q-69 0 -132.5 70.5t-102 186t-38.5 243.5t38.5 243.5t102 186t132.5 70.5q34 0 47 -21z" />
    <glyph glyph-name="parenright" unicode=")" horiz-adv-x="374" 
d="M134.5 730.5q61.5 -69.5 96.5 -185t35 -245.5t-35 -245t-96.5 -184.5t-134.5 -69.5q-36 0 -54 21q96 70 146.5 195t50.5 283t-50 283.5t-147 195.5q18 21 54 21q73 0 134.5 -69.5z" />
    <glyph glyph-name="asterisk" unicode="*" horiz-adv-x="427" 
d="M402 569q3 -9 3 -16q0 -40 -75 -64q-24 -7 -46 -11l91 -96q-7 -22 -27 -37q-13 -9 -26 -9q-32 0 -71 54q-17 21 -37 64l-72 -133q-24 0 -43 14q-20 14 -20 36q0 29 32 70q15 21 35 41l-124 23q-3 12 -3 24q0 11 3 21q11 33 50 33q20 0 55 -11q29 -10 55 -24l-18 135
q20 14 43 14q31 0 42 -26t11 -67q0 -24 -5 -56l120 57q19 -13 27 -36z" />
    <glyph glyph-name="plus" unicode="+" 
d="M477 248q0 -23 -13 -36.5t-36 -13.5h-116v-140q0 -26 -14.5 -39t-40.5 -13q-23 0 -39 10v182h-146q-9 20 -9 35q0 23 13 36.5t36 13.5h106v132q0 26 15 39t41 13q22 0 38 -10v-174h156q9 -20 9 -35z" />
    <glyph glyph-name="comma" unicode="," horiz-adv-x="235" 
d="M173 75.5q20 -22.5 20 -63.5q0 -32 -15 -63t-41 -50.5t-57 -19.5q-21 0 -38 7q37 55 37 122q0 22 -5 39.5t-16 37.5q23 13 56 13q39 0 59 -22.5z" />
    <glyph glyph-name="hyphen" unicode="-" horiz-adv-x="411" 
d="M48 232q0 46 57 49l247 8q5 -8 8 -19.5t3 -20.5q0 -24 -15 -35.5t-43 -13.5l-246 -8q-11 15 -11 40z" />
    <glyph glyph-name="period" unicode="." horiz-adv-x="241" 
d="M174 90q20 -16 20 -46q0 -31 -21.5 -47.5t-54.5 -16.5t-53 16t-20 46q0 31 21.5 47.5t54.5 16.5t53 -16z" />
    <glyph glyph-name="slash" unicode="/" horiz-adv-x="328" 
d="M292 753q0 -10 -3 -31l-155 -918q-12 -4 -37 -4q-61 0 -61 45q0 10 3 31l155 918q12 4 37 4q61 0 61 -45z" />
    <glyph glyph-name="zero" unicode="0" 
d="M449 585.5q54 -94.5 54 -246.5q0 -155 -54.5 -258t-179.5 -103t-178.5 97.5t-53.5 251.5t53.5 253.5t178.5 99.5q126 0 180 -94.5zM356 124q21 76 21 208q0 123 -21.5 200.5t-86.5 77.5q-64 0 -85 -77t-21 -201q0 -132 20.5 -208t85.5 -76q66 0 87 76z" />
    <glyph glyph-name="one" unicode="1" 
d="M499 74v-74h-433v74h180v458q-78 -47 -107.5 -61.5t-49.5 -14.5q-54 0 -54 66q110 43 296 154l32 -16v-586h136z" />
    <glyph glyph-name="two" unicode="2" 
d="M413.5 631q62.5 -49 62.5 -143q0 -55 -23.5 -105t-79 -110t-158.5 -146q-18 -15 -36 -33l311 1l-7 -95h-448l-7 73q103 80 211 194q54 62 82.5 112t28.5 108q0 48 -33 74.5t-85 26.5q-113 0 -159 -129q-20 9 -28 27t-11 52q5 45 36 77t77 48.5t95 16.5q109 0 171.5 -49z
" />
    <glyph glyph-name="three" unicode="3" 
d="M398.5 639q61.5 -40 61.5 -121q0 -55 -30.5 -99t-82.5 -68q67 -13 107.5 -55t40.5 -106t-34 -112t-95 -74t-141 -26q-82 0 -139 32.5t-57 99.5q0 40 25 52q45 -92 169 -92q71 0 108.5 30t37.5 90q0 59 -39 87t-107 28q-26 0 -50 -3v63q74 2 121 34t47 95q0 46 -33.5 69.5
t-94.5 23.5q-51 0 -86 -25t-50 -74q-21 7 -30 21.5t-9 37.5q0 43 29 73t74 44.5t93 14.5q103 0 164.5 -40z" />
    <glyph glyph-name="four" unicode="4" 
d="M436 218h89l-7 -74h-82v-144h-117v144h-272q-17 0 -27 11.5t-10 30.5q0 22 22 56l287 418h117v-442zM319 520l-208 -302h208v302z" />
    <glyph glyph-name="five" unicode="5" 
d="M447 559h-281l-12 -161q45 5 92 5q243 0 243 -203q0 -64 -33 -114.5t-91.5 -79t-130.5 -28.5q-90 0 -148.5 33t-58.5 99q0 40 25 52q47 -92 178 -92q63 0 98 34t35 96q0 65 -47.5 95t-129.5 30q-53 0 -127 -14l26 349h355z" />
    <glyph glyph-name="six" unicode="6" 
d="M416.5 657q42.5 -23 42.5 -66q0 -14 -6.5 -24t-19.5 -19q-40 41 -105 41q-82 0 -122.5 -60.5t-44.5 -159.5q16 38 57.5 59t91.5 21q89 0 137 -63.5t48 -160.5q0 -70 -27.5 -126.5t-78.5 -88.5t-119 -32q-233 0 -233 329q0 98 32 183.5t96 137.5t155 52q54 0 96.5 -23z
M197.5 330.5q-23.5 -44.5 -27.5 -112.5q3 -70 26 -120t74 -50q52 0 75.5 51t23.5 119q0 60 -25 108.5t-74 48.5t-72.5 -44.5z" />
    <glyph glyph-name="seven" unicode="7" 
d="M515 660l7 -73l-276 -609l-132 22l293 566l-371 -1l7 95h472z" />
    <glyph glyph-name="eight" unicode="8" 
d="M442 428.5q-35 -41.5 -91 -71.5q69 -40 111 -86t42 -108q0 -94 -64 -139.5t-170 -45.5q-103 0 -168 46.5t-65 137.5q0 57 39.5 105t99.5 76q-55 40 -86 79.5t-31 90.5q0 81 60 124t152 43q91 0 148.5 -39t57.5 -118q0 -53 -35 -94.5zM217 456.5q27 -29.5 77 -62.5
q30 23 46.5 56.5t16.5 72.5t-24 63t-62 24t-59.5 -23.5t-21.5 -63.5q0 -37 27 -66.5zM354 208q-19 26 -46 46t-77 51q-31 -27 -49 -65t-18 -78q0 -53 27.5 -83.5t78.5 -30.5q50 0 76.5 27t26.5 77q0 30 -19 56z" />
    <glyph glyph-name="nine" unicode="9" 
d="M495 351q0 -98 -32 -183.5t-96 -137.5t-155 -52q-54 0 -96.5 23t-42.5 66q0 14 6.5 24t19.5 19q40 -41 105 -41q84 0 123.5 60t43.5 160q-19 -39 -59 -59.5t-90 -20.5q-89 0 -137 63.5t-48 160.5q0 70 27.5 126.5t78.5 88.5t119 32q233 0 233 -329zM186.5 559
q-23.5 -51 -23.5 -119q0 -62 23.5 -109.5t75.5 -47.5q54 0 77 44.5t23 112.5t-24 119t-76 51t-75.5 -51z" />
    <glyph glyph-name="colon" unicode=":" horiz-adv-x="251" 
d="M51 0zM180 513q20 -16 20 -46q0 -31 -21.5 -47.5t-54.5 -16.5t-53 16t-20 46q0 31 21.5 47.5t54.5 16.5t53 -16zM180 90q20 -16 20 -46q0 -31 -21.5 -47.5t-54.5 -16.5t-53 16t-20 46q0 31 21.5 47.5t54.5 16.5t53 -16z" />
    <glyph glyph-name="semicolon" unicode=";" horiz-adv-x="257" 
d="M54 0zM186 513q20 -16 20 -46q0 -31 -21.5 -47.5t-54.5 -16.5t-53 16t-20 46q0 31 21.5 47.5t54.5 16.5t53 -16zM185 75.5q20 -22.5 20 -63.5q0 -32 -15 -63t-41 -50.5t-57 -19.5q-21 0 -38 7q37 55 37 122q0 22 -5 39.5t-16 37.5q23 13 56 13q39 0 59 -22.5z" />
    <glyph glyph-name="less" unicode="&#x3c;" 
d="M427.5 120q8.5 -15 8.5 -30q0 -24 -17 -36t-43 -12l-290 233l238 181q18 13 30.5 19.5t26.5 6.5q25 0 40 -14t15 -39l-203 -154l173 -129q13 -11 21.5 -26z" />
    <glyph glyph-name="equal" unicode="=" 
d="M63 299q0 23 13 36.5t36 13.5h356q9 -20 9 -35q0 -23 -13 -36.5t-36 -13.5h-356q-9 20 -9 35zM63 138q0 23 13 36.5t36 13.5h356q9 -20 9 -35q0 -23 -13 -36.5t-36 -13.5h-356q-9 20 -9 35z" />
    <glyph glyph-name="greater" unicode="&#x3e;" 
d="M455 249l-238 -181q-21 -14 -32 -20t-25 -6q-25 0 -40 14t-15 39l203 154l-173 129q-13 11 -21.5 26t-8.5 30q0 24 17 36t43 12z" />
    <glyph glyph-name="question" unicode="?" horiz-adv-x="414" 
d="M342 647q54 -33 54 -107q0 -39 -15.5 -72.5t-37 -59t-57.5 -60.5q-45 -44 -66 -72.5t-21 -63.5q-4 -4 -15.5 -6.5t-21.5 -2.5q-24 0 -35.5 12t-11.5 36q0 25 16 49t52 66q45 51 69 90t24 84q0 36 -19.5 58t-59.5 22q-35 0 -56 -17t-21 -52q0 -18 9 -49q-15 -11 -44 -11
q-38 0 -60.5 19t-22.5 56q0 63 60 88.5t138 25.5q88 0 142 -33zM215 90q20 -16 20 -46q0 -31 -21.5 -47.5t-54.5 -16.5t-53 16t-20 46q0 31 21.5 47.5t54.5 16.5t53 -16z" />
    <glyph glyph-name="at" unicode="@" horiz-adv-x="830" 
d="M606.5 565.5q83.5 -35.5 131.5 -106.5t48 -173q0 -64 -23 -115t-67.5 -80.5t-106.5 -29.5q-34 0 -63.5 11.5t-44.5 36.5q-27 -48 -100 -48q-51 0 -85 29.5t-34 77.5q0 116 202 116v55q0 35 -8.5 52.5t-36.5 17.5q-47 0 -47 -47q0 -17 6 -34q-11 -8 -36 -8q-27 0 -45 13.5
t-18 38.5q0 39 43.5 61t104.5 22q71 0 100 -30.5t29 -103.5v-170q0 -22 9.5 -32.5t33.5 -10.5q52 0 73 41t21 112q0 136 -71 207.5t-207 71.5q-86 0 -148.5 -36.5t-95.5 -102.5t-33 -153q0 -135 72.5 -207.5t207.5 -72.5q53 0 95 8.5t69 33.5q17 -11 17 -34q0 -38 -53.5 -56
t-126.5 -18q-110 0 -195 41t-132.5 119t-47.5 186q0 103 45 183t129 125t197 45q108 0 191.5 -35.5zM360 171q0 -24 13 -39t36 -15q28 0 41.5 20.5t13.5 51.5v49q-104 0 -104 -67z" />
    <glyph glyph-name="A" unicode="A" horiz-adv-x="503" 
d="M332 660l171 -660h-118l-40 168h-196l-39 -168h-110l183 660h149zM167 242h161l-81 343z" />
    <glyph glyph-name="B" unicode="B" horiz-adv-x="540" 
d="M440 428.5q-25 -37.5 -64 -59.5q66 -13 101.5 -60t35.5 -116q0 -67 -37 -112.5t-98.5 -68t-133.5 -22.5q-84 0 -184 15v651q118 8 188 8q102 0 159.5 -35t57.5 -121q0 -42 -25 -79.5zM228 386q59 0 88 27t29 85q0 96 -104 96q-31 0 -64 -5v-200q23 -3 51 -3zM244 60
q70 0 107.5 32t37.5 98q0 75 -40.5 101.5t-126.5 26.5q-27 0 -45 -3v-249q36 -6 67 -6z" />
    <glyph glyph-name="C" unicode="C" horiz-adv-x="512" 
d="M184.5 530.5q-24.5 -79.5 -24.5 -198.5t26 -190.5t109 -71.5q52 0 89 29t53 80q21 -7 30 -21.5t9 -37.5q0 -45 -27.5 -77t-71 -48.5t-92.5 -16.5q-136 0 -193.5 94t-57.5 255q0 160 61.5 256.5t198.5 96.5q88 0 140.5 -35t52.5 -111q0 -36 -21 -58.5t-57 -22.5
q-35 0 -52 16q8 22 8 50q0 91 -80 91q-76 0 -100.5 -79.5z" />
    <glyph glyph-name="D" unicode="D" horiz-adv-x="564" 
d="M268 664q262 0 262 -318q0 -356 -286 -356q-84 0 -184 15v651q118 8 208 8zM350 95q36 35 47 92.5t11 144.5q0 116 -31 189t-116 73q-37 0 -84 -5v-523q36 -6 67 -6q70 0 106 35z" />
    <glyph glyph-name="E" unicode="E" horiz-adv-x="438" 
d="M395 660v-74h-218v-210h188v-74h-188v-228h232l-7 -74h-342v660h335z" />
    <glyph glyph-name="F" unicode="F" horiz-adv-x="417" 
d="M395 660v-74h-218v-224h188v-74h-188v-288h-117v660h335z" />
    <glyph glyph-name="G" unicode="G" horiz-adv-x="546" 
d="M188 530.5q-28 -79.5 -28 -198.5q0 -122 28 -199t113 -77q47 0 86 13l-4 234l109 14v-298q-36 -19 -92 -30t-102 -11q-142 0 -203 92.5t-61 256.5q0 162 64.5 257.5t206.5 95.5q89 0 144 -35t55 -111q0 -36 -21 -58.5t-57 -22.5q-33 0 -52 16q8 22 8 50q0 43 -22 67
t-64 24q-80 0 -108 -79.5z" />
    <glyph glyph-name="H" unicode="H" horiz-adv-x="578" 
d="M518 660v-660h-117v297h-224v-297h-117v660h117v-289h224v289h117z" />
    <glyph glyph-name="I" unicode="I" horiz-adv-x="237" 
d="M177 660v-660h-117v660h117z" />
    <glyph glyph-name="J" unicode="J" horiz-adv-x="237" 
d="M147.5 -89q-29.5 -71 -111.5 -71q-29 0 -51.5 12t-22.5 35q58 0 78 47t20 125v601h117v-565q0 -113 -29.5 -184z" />
    <glyph glyph-name="K" unicode="K" horiz-adv-x="495" 
d="M177 0h-117v660h117v-660zM381 660h121l-192 -307l206 -353h-128l-190 334z" />
    <glyph glyph-name="L" unicode="L" horiz-adv-x="400" 
d="M60 660h117v-586h218l-7 -74h-328v660z" />
    <glyph glyph-name="M" unicode="M" horiz-adv-x="729" 
d="M669 660v-660h-117v551l-160 -551h-78l-160 553v-553h-94v660h176l133 -475l132 475h168z" />
    <glyph glyph-name="N" unicode="N" horiz-adv-x="568" 
d="M419 0l-265 452v-452h-94v660h89l265 -452v452h94v-660h-89z" />
    <glyph glyph-name="O" unicode="O" horiz-adv-x="581" 
d="M547 339q0 -361 -256 -361q-140 0 -198.5 93t-58.5 256q0 160 60.5 256.5t196.5 96.5q256 0 256 -341zM396 127.5q25 79.5 25 204.5q0 119 -26 198.5t-104 79.5q-79 0 -105 -79.5t-26 -198.5q0 -125 25 -204.5t106 -79.5q80 0 105 79.5z" />
    <glyph glyph-name="P" unicode="P" horiz-adv-x="495" 
d="M434 333.5q-51 -53.5 -137 -53.5q-32 0 -56 10.5t-24 35.5q76 0 112 35t36 109q0 63 -30.5 93.5t-93.5 30.5q-31 0 -64 -5v-589h-117v656q118 8 188 8q114 0 175.5 -44.5t61.5 -145.5q0 -87 -51 -140.5z" />
    <glyph glyph-name="Q" unicode="Q" horiz-adv-x="581" 
d="M547 339q0 -361 -256 -361q102 -23 169 -23q25 0 44 4.5t35 17.5q23 -32 23 -58q0 -32 -21.5 -47t-57.5 -15q-33 0 -66.5 8.5t-77.5 23.5q-40 13 -67.5 20t-52.5 7q-37 0 -55 -8q-7 7 -11 16.5t-4 18.5q0 44 65 44q-97 24 -138.5 112.5t-41.5 227.5q0 160 60.5 256.5
t196.5 96.5q256 0 256 -341zM186 530.5q-26 -79.5 -26 -198.5q0 -125 25 -204.5t106 -79.5q80 0 105 79.5t25 204.5q0 119 -26 198.5t-104 79.5q-79 0 -105 -79.5z" />
    <glyph glyph-name="R" unicode="R" horiz-adv-x="531" 
d="M450.5 363q-34.5 -48 -94.5 -65l174 -298h-128l-178 316q-6 11 -6 20q75 0 111 33.5t36 105.5q0 60 -30.5 89.5t-93.5 29.5q-31 0 -64 -5v-589h-117v656q118 8 188 8q237 0 237 -185q0 -68 -34.5 -116z" />
    <glyph glyph-name="S" unicode="S" horiz-adv-x="472" 
d="M382.5 647q52.5 -33 52.5 -106q0 -36 -21 -58.5t-57 -22.5q-35 0 -52 16q8 22 8 50q0 88 -78 88q-38 0 -59.5 -18.5t-21.5 -54.5q0 -33 17 -60t42.5 -48t69.5 -51q52 -35 83.5 -62.5t53.5 -66t22 -88.5q0 -89 -61 -138t-158 -49q-88 0 -145.5 35.5t-57.5 110.5
q0 36 21 58.5t56 22.5t52 -16q-7 -20 -7 -50q0 -95 90 -95q44 0 72 24.5t28 66.5q0 33 -17 60t-42.5 48t-69.5 51q-52 35 -83.5 62.5t-53.5 66t-22 88.5q0 80 56.5 124.5t143.5 44.5q86 0 138.5 -33z" />
    <glyph glyph-name="T" unicode="T" horiz-adv-x="401" 
d="M420 660l-7 -74h-154v-586h-117v586h-157v74h435z" />
    <glyph glyph-name="U" unicode="U" horiz-adv-x="547" 
d="M474.5 109.5q-17.5 -63.5 -64.5 -97.5t-136 -34q-86 0 -133.5 28.5t-66.5 85.5t-19 149v419h117v-408q0 -66 6.5 -107.5t30.5 -69t73 -27.5t73 29.5t30 73.5t6 112v397h101v-386q0 -101 -17.5 -164.5z" />
    <glyph glyph-name="V" unicode="V" horiz-adv-x="479" 
d="M484 660l-176 -660h-150l-163 660h118l131 -585l130 585h110z" />
    <glyph glyph-name="W" unicode="W" horiz-adv-x="795" 
d="M800 660l-162 -660h-150l-97 474l-97 -474h-150l-149 660h118l117 -585l116 585h111l117 -585l116 585h110z" />
    <glyph glyph-name="X" unicode="X" horiz-adv-x="516" 
d="M508 660l-188 -320l195 -340h-128l-138 248l-128 -248h-120l198 337l-184 323h128l127 -230l118 230h120z" />
    <glyph glyph-name="Y" unicode="Y" horiz-adv-x="504" 
d="M310 305v-305h-117v293l-192 367h128l130 -271l123 271h120z" />
    <glyph glyph-name="Z" unicode="Z" horiz-adv-x="420" 
d="M400 660l7 -73l-278 -513h287l-7 -74h-398l-7 73l278 513h-260l7 74h371z" />
    <glyph glyph-name="bracketleft" unicode="[" horiz-adv-x="301" 
d="M341 760q0 -36 -44 -36h-100v-848h100q44 0 44 -36q0 -18 -6 -30h-255v980h255q6 -12 6 -30z" />
    <glyph glyph-name="backslash" unicode="\" horiz-adv-x="328" 
d="M134 794l155 -918q3 -21 3 -31q0 -45 -61 -45q-25 0 -37 4l-155 918q-3 21 -3 31q0 45 61 45q25 0 37 -4z" />
    <glyph glyph-name="bracketright" unicode="]" horiz-adv-x="301" 
d="M-34 -190q-6 12 -6 30q0 36 44 36h100v848h-100q-44 0 -44 36q0 18 6 30h256v-980h-256z" />
    <glyph glyph-name="asciicircum" unicode="^" horiz-adv-x="478" 
d="M367.5 467.5q41.5 -76.5 103.5 -123.5q-16 -49 -62 -49q-49 0 -94.5 58.5t-79.5 183.5q-46 -128 -86 -185t-81 -57q-45 0 -61 49q65 37 114 121.5t77 194.5h102q26 -116 67.5 -192.5z" />
    <glyph glyph-name="underscore" unicode="_" horiz-adv-x="508" 
d="M7 -94q0 26 15 37t44 11h427q8 -15 8 -40q0 -48 -58 -48h-427q-9 14 -9 40z" />
    <glyph glyph-name="grave" unicode="`" horiz-adv-x="239" 
d="M94 621q-36 16 -60 35t-24 46q0 20 13.5 36t33.5 21l172 -152l-25 -35z" />
    <glyph glyph-name="a" unicode="a" horiz-adv-x="500" 
d="M281.5 -5.5q-36.5 -16.5 -82.5 -16.5q-69 0 -115.5 42t-46.5 109q0 162 289 162v87q0 50 -15 74.5t-57 24.5q-35 0 -58 -18.5t-23 -51.5q0 -21 8 -45q-14 -11 -40 -11q-36 0 -57 18t-21 52q0 48 54 78.5t144 30.5q66 0 104 -19.5t54.5 -60t16.5 -108.5v-260q0 -49 31 -66
q-8 -15 -23.5 -23t-35.5 -8q-29 0 -48 16.5t-23 44.5q-19 -35 -55.5 -51.5zM304 78.5q22 33.5 22 83.5v79q-169 0 -169 -108q0 -40 21.5 -64t59.5 -24q44 0 66 33.5z" />
    <glyph glyph-name="b" unicode="b" horiz-adv-x="524" 
d="M180 599q0 -109 -10 -160q19 42 57 66.5t84 24.5q95 0 138 -76t43 -192q0 -128 -55 -206t-169 -78q-49 0 -103.5 12.5t-94.5 34.5v675l110 12v-113zM273 38q61 0 80 62t19 157q0 85 -18.5 140.5t-75.5 55.5q-58 0 -78 -54.5t-20 -138.5v-192q44 -30 93 -30z" />
    <glyph glyph-name="c" unicode="c" horiz-adv-x="446" 
d="M148 253q0 -89 22.5 -143.5t87.5 -54.5q44 0 75.5 23.5t42.5 66.5q17 -8 24.5 -18.5t7.5 -28.5q0 -36 -23.5 -63.5t-60.5 -42t-76 -14.5q-110 0 -163 71.5t-53 192.5q0 129 57.5 208.5t173.5 79.5q68 0 112 -28t44 -86q0 -34 -21 -52t-57 -18q-11 0 -22.5 3t-18.5 8
q8 24 8 45q0 69 -60 69q-100 0 -100 -218z" />
    <glyph glyph-name="d" unicode="d" horiz-adv-x="527" 
d="M484 16q-8 -15 -23.5 -23t-35.5 -8q-29 0 -48 16.5t-23 44.5q-16 -33 -51.5 -50.5t-76.5 -17.5q-102 0 -148 78t-46 200q0 126 54.5 200t169.5 74q48 0 87 -13v183l110 12v-630q0 -49 31 -66zM251 470q-61 0 -80 -58t-19 -151q0 -89 22 -152.5t81 -63.5q44 0 66 33.5
t22 83.5v277q-46 31 -92 31z" />
    <glyph glyph-name="e" unicode="e" horiz-adv-x="458" 
d="M411 98q0 -36 -24 -63.5t-62 -42t-77 -14.5q-110 0 -163 71.5t-53 192.5q0 129 57.5 208.5t174.5 79.5q74 0 119 -38.5t45 -108.5q0 -87 -60.5 -122t-164.5 -35q-29 0 -55 2q3 -79 26.5 -126t83.5 -47q44 0 77.5 22.5t52.5 63.5q23 -11 23 -43zM172 416.5
q-22 -56.5 -24 -138.5q30 -2 44 -2q126 0 126 101q0 41 -17.5 68.5t-52.5 27.5q-54 0 -76 -56.5z" />
    <glyph glyph-name="f" unicode="f" horiz-adv-x="313" 
d="M76 -12v477h-71v45h71l3 54q9 156 178 156q63 0 108.5 -19.5t45.5 -65.5q0 -34 -21 -52t-57 -18q-26 0 -40 11q8 24 8 45q0 26 -12.5 40.5t-37.5 14.5q-39 0 -52.5 -29.5t-13.5 -82.5v-54h109v-45h-108v-465z" />
    <glyph glyph-name="g" unicode="g" horiz-adv-x="519" 
d="M315 -109.5q22 31.5 27 75.5t5 111v27q-19 -28 -52 -42t-70 -14q-98 0 -143.5 66t-45.5 177q0 113 55 176t163 63q50 0 101 -19l98 11v-421q0 -97 -17.5 -162t-65 -102t-132.5 -37q-71 0 -121.5 28t-50.5 86q0 34 21 52t57 18q26 0 40 -11q-7 -21 -7 -45q0 -69 70 -69
q46 0 68 31.5zM250 470q-55 0 -75.5 -49t-20.5 -125q0 -81 20.5 -131t79.5 -50q45 0 67 33t22 84v206q-47 32 -93 32z" />
    <glyph glyph-name="h" unicode="h" horiz-adv-x="532" 
d="M180 599q0 -109 -10 -160q21 45 59 68t89 23q84 0 117 -46.5t33 -141.5v-260q0 -49 31 -66q-8 -15 -26 -23t-38 -8q-39 0 -58 22t-19 62v259q0 63 -14 94t-62 31q-61 0 -81.5 -54t-20.5 -139v-260h-110v700l110 12v-113z" />
    <glyph glyph-name="i" unicode="i" horiz-adv-x="244" 
d="M175.5 704q20.5 -16 20.5 -46q0 -31 -21.5 -47.5t-55.5 -16.5q-33 0 -53 16t-20 46q0 31 21.5 47.5t54.5 16.5t53.5 -16zM174 82q0 -49 31 -66q-8 -15 -26 -23t-39 -8q-38 0 -57 22t-19 62v441h110v-428z" />
    <glyph glyph-name="j" unicode="j" horiz-adv-x="247" 
d="M179.5 704q20.5 -16 20.5 -46q0 -31 -21.5 -47.5t-55.5 -16.5q-33 0 -53 16t-20 46q0 31 21.5 47.5t54.5 16.5t53.5 -16zM41 -200q-28 0 -49 11t-21 33q56 0 77.5 45t21.5 118v503h111v-475q0 -235 -140 -235z" />
    <glyph glyph-name="k" unicode="k" horiz-adv-x="477" 
d="M70 0v700l110 12v-712h-110zM361 510h116l-173 -212l177 -298h-128l-159 280z" />
    <glyph glyph-name="l" unicode="l" horiz-adv-x="252" 
d="M178 712v-630q0 -49 31 -66q-8 -15 -26.5 -23t-38.5 -8q-38 0 -57 22t-19 62v631z" />
    <glyph glyph-name="m" unicode="m" horiz-adv-x="809" 
d="M66 510l92 12l5 -90q19 48 58.5 73t92.5 25q59 0 92 -23.5t47 -69.5q39 93 142 93q84 0 117 -46.5t33 -141.5v-260q0 -49 31 -66q-8 -15 -26 -23t-38 -8q-39 0 -58 22t-19 62v259q0 63 -14 94t-62 31q-57 0 -76 -54t-19 -139v-260h-110v328q0 63 -14 94t-62 31
q-61 0 -81.5 -54t-20.5 -139v-260h-110v510z" />
    <glyph glyph-name="n" unicode="n" horiz-adv-x="528" 
d="M66 510l92 12l5 -90q19 48 58.5 73t92.5 25q84 0 117 -46.5t33 -141.5v-260q0 -49 31 -66q-8 -15 -26 -23t-38 -8q-39 0 -58 22t-19 62v259q0 63 -14 94t-62 31q-61 0 -81.5 -54t-20.5 -139v-260h-110v510z" />
    <glyph glyph-name="o" unicode="o" horiz-adv-x="503" 
d="M417 457.5q54 -72.5 54 -195.5q0 -131 -52 -207.5t-168 -76.5q-114 0 -166.5 73t-52.5 201q0 124 54 201t165 77q112 0 166 -72.5zM332 99q19 61 19 158q0 89 -20.5 151t-79.5 62q-99 0 -99 -213q0 -97 18.5 -158t80.5 -61t81 61z" />
    <glyph glyph-name="p" unicode="p" horiz-adv-x="523" 
d="M451 454.5q40 -75.5 40 -192.5q0 -128 -55 -206t-169 -78q-48 0 -87 13v-172l-110 -12v703l92 12l5 -90q42 98 150 98q94 0 134 -75.5zM203 411.5q-23 -41.5 -23 -104.5v-238q46 -31 92 -31q61 0 80 62t19 157q0 89 -17 142.5t-76 53.5q-52 0 -75 -41.5z" />
    <glyph glyph-name="q" unicode="q" horiz-adv-x="524" 
d="M344 -91q0 80 11 137q-16 -33 -51.5 -50.5t-76.5 -17.5q-102 0 -148.5 78t-46.5 200q0 126 54.5 200t168.5 74q50 0 101 -19l98 11v-702l-110 -12v101zM251 470q-61 0 -80 -58t-19 -151q0 -88 22 -152t82 -64q44 0 66 33.5t22 83.5v276q-47 32 -93 32z" />
    <glyph glyph-name="r" unicode="r" horiz-adv-x="395" 
d="M188.5 395.5q-12.5 -57.5 -12.5 -137.5v-258h-110v510l92 12l5 -90q14 45 49 71.5t81 26.5q50 0 79.5 -29t29.5 -79q0 -81 -78 -81q-26 0 -40 11q7 26 7 45q0 56 -47 56q-43 0 -55.5 -57.5z" />
    <glyph glyph-name="s" unicode="s" horiz-adv-x="444" 
d="M180 461.5q-18 -15.5 -18 -44.5q0 -39 26.5 -63.5t81.5 -54.5q44 -24 70.5 -43t45.5 -48.5t19 -71.5q0 -76 -54.5 -117t-138.5 -41q-73 0 -122.5 25t-49.5 83q0 34 21 52t57 18q26 0 40 -11q-8 -24 -8 -45q0 -32 20 -50.5t54 -18.5q37 0 56.5 19.5t19.5 57.5
q0 39 -26.5 63.5t-81.5 54.5q-44 25 -70.5 44t-45.5 48.5t-19 71.5q0 67 54 103.5t131 36.5q71 0 116.5 -25.5t45.5 -83.5q0 -34 -21.5 -52t-57.5 -18q-26 0 -40 11q8 24 8 45q0 33 -16.5 51.5t-48.5 18.5q-30 0 -48 -15.5z" />
    <glyph glyph-name="t" unicode="t" horiz-adv-x="285" 
d="M5 465l-1 30q45 18 85.5 48t68.5 66h31v-99h92v-45h-94v-364q0 -30 11 -45t35 -19q-5 -23 -26.5 -37.5t-49.5 -14.5q-81 0 -81 92v388h-71z" />
    <glyph glyph-name="u" unicode="u" horiz-adv-x="532" 
d="M462 82q0 -49 31 -66q-8 -15 -23.5 -23t-35.5 -8q-29 0 -48 16.5t-23 44.5q-16 -33 -51.5 -50.5t-76.5 -17.5q-72 0 -109.5 31.5t-49.5 86t-12 140.5v274h110v-269q0 -61 4.5 -100.5t24.5 -67.5t61 -28q44 0 66 33.5t22 83.5v348h110v-428z" />
    <glyph glyph-name="v" unicode="v" horiz-adv-x="422" 
d="M423 510l-149 -510h-136l-138 510h114l102 -443l102 443h105z" />
    <glyph glyph-name="w" unicode="w" horiz-adv-x="691" 
d="M692 510l-138 -510h-136l-79 359l-76 -359h-136l-127 510h114l91 -443l91 443h109l91 -443l91 443h105z" />
    <glyph glyph-name="x" unicode="x" horiz-adv-x="446" 
d="M214 179l-94 -179h-115l167 253l-155 257h128l92 -166l84 166h116l-157 -241l162 -269h-128z" />
    <glyph glyph-name="y" unicode="y" horiz-adv-x="423" 
d="M423 510l-227 -703l-110 13l99 228h-50l-127 462h114l95 -395l102 395h104z" />
    <glyph glyph-name="z" unicode="z" horiz-adv-x="380" 
d="M356 510l7 -59l-234 -384l241 8l-7 -75h-346l-7 61l231 381l-222 -13l8 81h329z" />
    <glyph glyph-name="braceleft" unicode="{" horiz-adv-x="328" 
d="M308 793v-45h-24q-38 0 -50 -26t-12 -84v-206q0 -54 -19 -84.5t-62 -36.5q36 -3 52.5 -20t20.5 -40t4 -61v-209q0 -54 11.5 -91t48.5 -37h24l-3 -46q-48 -7 -78 -7q-51 0 -76.5 18t-33 48.5t-7.5 79.5v219q0 56 -13.5 85.5t-59.5 29.5l2 56q72 0 72 115v218q0 49 10.5 77
t36.5 41t75 13q38 0 81 -7z" />
    <glyph glyph-name="bar" unicode="|" horiz-adv-x="254" 
d="M179 800h-104v-1000h104v1000z" />
    <glyph glyph-name="braceright" unicode="}" horiz-adv-x="380" 
d="M125 347.5q19 -30.5 61 -36.5q-36 -3 -52.5 -20t-20 -39.5t-3.5 -61.5v-209q0 -54 -11.5 -91t-48.5 -37h-24l3 -46q48 -7 78 -7q51 0 76.5 18t32.5 48t7 80v219q0 56 13.5 85.5t60.5 29.5l-2 56q-37 0 -55 30t-18 85v218q0 49 -10 77t-36 41t-75 13q-38 0 -81 -7v-45h24
q38 0 50 -26t12 -84v-206q0 -54 19 -84.5z" />
    <glyph glyph-name="asciitilde" unicode="~" 
d="M329 256q-26 5 -52 11q-80 20 -117 20q-36 0 -58 -14t-22 -39q0 -13 6.5 -27t17.5 -25q6 10 25 17t40 7q16 0 41.5 -5t51.5 -11q82 -20 118 -20t58 14t22 39q0 13 -6.5 27t-17.5 25q-6 -10 -25 -17t-40 -7q-16 0 -42 5z" />
    <glyph glyph-name="uni00A0" unicode="&#xa0;" horiz-adv-x="175" 
 />
    <glyph glyph-name="exclamdown" unicode="&#xa1;" horiz-adv-x="245" 
d="M177 514q20 -16 20 -46q0 -31 -21.5 -47.5t-54.5 -16.5t-53 16t-20 46q0 31 21.5 47.5t54.5 16.5t53 -16zM157 295q9 -15 11 -49l12 -395q-11 -10 -27.5 -15.5t-32.5 -5.5q-33 0 -48 16.5t-15 50.5q0 40 6 114l24 290q12 9 33 9q28 0 37 -15z" />
    <glyph glyph-name="cent" unicode="&#xa2;" 
d="M472.5 191.5q7.5 -10.5 7.5 -28.5q0 -35 -22 -61.5t-54 -41t-63 -17.5v-35q0 -57 -47 -57q-25 0 -39 9v89q-82 18 -131.5 80.5t-49.5 177.5q0 121 49 189t131 89v44q0 28 10.5 43t35.5 15q22 0 40 -9v-83q57 -1 104 -26.5t47 -87.5q0 -34 -21 -52t-58 -18q-26 0 -40 11
q8 24 8 45q0 69 -61 69q-129 0 -129 -218q0 -89 28.5 -143.5t111.5 -54.5q44 0 75.5 23.5t42.5 66.5q17 -8 24.5 -18.5z" />
    <glyph glyph-name="sterling" unicode="&#xa3;" 
d="M360 476q8 22 8 50q0 45 -15 67.5t-54 22.5t-52.5 -29.5t-13.5 -82.5v-103h162q6 -12 6 -29q0 -34 -42 -34h-126v-128q0 -88 -56 -125h285l-7 -85h-390l-7 63q38 14 52.5 40.5t14.5 72.5v162h-67q-6 12 -6 29q0 34 42 34h31v103q0 79 47.5 117.5t132.5 38.5
q86 0 135 -24.5t49 -94.5q0 -36 -21 -58.5t-56 -22.5t-52 16z" />
    <glyph glyph-name="currency" unicode="&#xa4;" 
d="M415 242l85 -82l-67 -62l-80 87q-37 -17 -84 -17t-83 17l-79 -87l-67 62l84 83q-20 38 -20 89q0 49 21 89l-102 87l53 63l103 -94q40 24 91 24t91 -24l102 94l53 -63l-101 -87q21 -37 21 -89q0 -54 -21 -90zM338.5 263q24.5 28 24.5 71q0 44 -25.5 72.5t-67.5 28.5
t-67.5 -28.5t-25.5 -72.5q0 -43 24 -71t68 -28q45 0 69.5 28z" />
    <glyph glyph-name="yen" unicode="&#xa5;" 
d="M328 249v-71h126q6 -12 6 -29q0 -34 -42 -34h-90v-115h-117v115h-128q-6 12 -6 29q0 34 42 34h92v71h-128q-6 12 -6 29q0 34 42 34h81l-181 348h128l130 -271l123 271h121l-189 -348h122q6 -12 6 -29q0 -34 -42 -34h-90z" />
    <glyph glyph-name="brokenbar" unicode="&#xa6;" horiz-adv-x="255" 
d="M180 388v272h-105v-272h105zM180 0v272h-105v-272h105z" />
    <glyph glyph-name="section" unicode="&#xa7;" horiz-adv-x="495" 
d="M388 32q19 -31 19 -73q0 -65 -53 -101.5t-132 -36.5q-66 0 -114 26.5t-48 81.5q0 35 20 52t53 17q27 0 42 -11q-5 -22 -5 -39q0 -36 18.5 -56t52.5 -20q29 0 45.5 15.5t16.5 43.5q0 40 -28.5 69.5t-87.5 69.5q-46 33 -73 55.5t-46.5 55t-19.5 72.5q0 49 28.5 85.5
t83.5 70.5q-34 28 -53 60.5t-19 75.5q0 41 25.5 72t67.5 47t91 16q65 0 114.5 -27t49.5 -82q0 -34 -20.5 -51t-53.5 -17q-26 0 -41 11q4 17 4 40q0 35 -16 55t-51 20q-30 0 -48 -15.5t-18 -44.5q0 -38 28.5 -67.5t86.5 -69.5q46 -33 74 -56.5t47.5 -55.5t19.5 -72
q0 -49 -30 -86.5t-84 -70.5q35 -28 54 -59zM169.5 221.5q18.5 -27.5 41 -44.5t76.5 -53q29 21 43 41.5t14 50.5q0 46 -29.5 77t-89.5 70l-18 12q-28 -20 -42 -40.5t-14 -49.5q0 -36 18.5 -63.5z" />
    <glyph glyph-name="dieresis" unicode="&#xa8;" horiz-adv-x="369" 
d="M10 594zM338.5 704q20.5 -16 20.5 -46q0 -31 -21.5 -47.5t-55.5 -16.5q-33 0 -53 16t-20 46q0 31 21.5 47.5t54.5 16.5t53.5 -16zM139.5 704q20.5 -16 20.5 -46q0 -31 -21.5 -47.5t-55.5 -16.5q-33 0 -53 16t-20 46q0 31 21.5 47.5t54.5 16.5t53.5 -16z" />
    <glyph glyph-name="copyright" unicode="&#xa9;" horiz-adv-x="799" 
d="M582.5 570q81.5 -45 127.5 -125.5t46 -181.5q0 -102 -45.5 -179.5t-126 -120t-184.5 -42.5t-184.5 42.5t-126 120t-45.5 179.5q0 101 46 181.5t127.5 125.5t182.5 45t182.5 -45zM259 516q-59 -37 -90 -102.5t-31 -150.5q0 -130 68 -205t194 -75t194 75t68 205
q0 85 -31 150.5t-90 102.5t-141 37t-141 -37zM499 447q33 -21 33 -65q0 -24 -18 -37.5t-45 -13.5q-22 0 -35 8q6 15 6 32q0 24 -7.5 36.5t-27.5 12.5q-36 0 -49.5 -45.5t-13.5 -103.5q0 -61 15.5 -98t60.5 -37q30 0 52.5 15t30.5 43q12 -5 17.5 -12.5t5.5 -19.5
q0 -40 -35 -63t-82 -23q-82 0 -123 49.5t-41 137.5q0 93 43.5 149t129.5 56q50 0 83 -21z" />
    <glyph glyph-name="ordfeminine" unicode="&#xaa;" horiz-adv-x="435" 
d="M312.5 643.5q29.5 -30.5 29.5 -103.5v-184q0 -35 22 -47q-13 -26 -48 -26q-21 0 -34.5 12t-15.5 33q-27 -48 -100 -48q-51 0 -84.5 29.5t-33.5 77.5q0 116 201 116v55q0 35 -8.5 52.5t-36.5 17.5q-47 0 -47 -47q0 -17 6 -34q-11 -8 -36 -8q-27 0 -44.5 13.5t-17.5 38.5
q0 39 43.5 61t103.5 22q71 0 100.5 -30.5zM145 390q0 -24 13 -39t36 -15q28 0 41.5 20.5t13.5 51.5v49q-104 0 -104 -67zM373 202q0 -19 -10 -29.5t-29 -10.5h-268q-7 16 -7 30q0 19 10 29.5t29 10.5h268q7 -16 7 -30z" />
    <glyph glyph-name="guillemotleft" unicode="&#xab;" horiz-adv-x="493" 
d="M158 509h94l-81 -192l81 -191h-95l-119 191zM358 509h97l-86 -192l81 -191h-95l-119 191z" />
    <glyph glyph-name="logicalnot" unicode="&#xac;" 
d="M465 11q-24 -11 -40 -11q-27 0 -42 14t-15 40v145h-324q-9 20 -9 35q0 23 13 36.5t36 13.5h381v-273z" />
    <glyph glyph-name="uni00AD" unicode="&#xad;" horiz-adv-x="411" 
d="M48 232q0 46 57 49l247 8q5 -8 8 -19.5t3 -20.5q0 -24 -15 -35.5t-43 -13.5l-246 -8q-11 15 -11 40z" />
    <glyph glyph-name="registered" unicode="&#xae;" horiz-adv-x="799" 
d="M582.5 635q81.5 -45 127.5 -125.5t46 -181.5q0 -102 -45.5 -179.5t-126 -120t-184.5 -42.5t-184.5 42.5t-126 120t-45.5 179.5q0 101 46 181.5t127.5 125.5t182.5 45t182.5 -45zM259 581q-59 -37 -90 -102.5t-31 -150.5q0 -130 68 -205t194 -75t194 75t68 205
q0 85 -31 150.5t-90 102.5t-141 37t-141 -37zM509 507.5q39 -23.5 39 -82.5q0 -39 -19.5 -66t-56.5 -37l90 -170h-98l-82 178q-3 5 -3 11q38 0 56 18.5t18 59.5q0 67 -64 67q-8 0 -28 -2v-332h-91v375q68 4 130 4q70 0 109 -23.5z" />
    <glyph glyph-name="macron" unicode="&#xaf;" horiz-adv-x="295" 
d="M285 656q0 -21 -14.5 -32.5t-43.5 -11.5h-210q-7 16 -7 36q0 22 13.5 34t37.5 12h216q8 -20 8 -38z" />
    <glyph glyph-name="degree" unicode="&#xb0;" horiz-adv-x="363" 
d="M96 390q-38 20 -60 56t-22 83q0 72 46.5 113.5t120.5 41.5q75 0 121.5 -41.5t46.5 -113.5q0 -71 -47.5 -115t-120.5 -44q-47 0 -85 20zM238 455q18 29 18 74q0 43 -18.5 71t-56.5 28q-37 0 -55.5 -28t-18.5 -71q0 -45 18 -74t56 -29q39 0 57 29z" />
    <glyph glyph-name="plusminus" unicode="&#xb1;" 
d="M452 294q0 -24 -12.5 -37t-36.5 -13h-86v-74q0 -26 -14.5 -39t-40.5 -13q-23 0 -39 10v116h-126q-9 20 -9 35q0 24 12.5 37t36.5 13h86v85q0 26 14.5 39t40.5 13q23 0 39 -10v-127h126q9 -20 9 -35zM424 93q7 -19 7 -32q0 -47 -45 -47h-274q-7 19 -7 32q0 47 45 47h274z
" />
    <glyph glyph-name="uni00B2" unicode="&#xb2;" horiz-adv-x="360" 
d="M269 645.5q33 -27.5 33 -84.5q0 -31 -11.5 -55t-36.5 -51.5t-84 -85.5q-8 -5 -13.5 -10t-10.5 -9h164l-4 -65h-252l-4 52l100 106q28 31 44 57.5t16 56.5q0 53 -50 53q-30 0 -51.5 -17t-30.5 -47q-23 7 -23 40q0 43 35.5 65t85.5 22q60 0 93 -27.5z" />
    <glyph glyph-name="uni00B3" unicode="&#xb3;" horiz-adv-x="363" 
d="M260 650.5q33 -21.5 33 -69.5q0 -32 -17 -57t-47 -38q39 -8 61.5 -31t22.5 -60q0 -60 -44.5 -90.5t-112.5 -30.5q-45 0 -75.5 18.5t-30.5 56.5q0 31 16 38q25 -51 90 -51q29 0 47 15.5t18 43.5q0 59 -70 59q-19 0 -30 -2v47q38 0 61.5 17t23.5 51q0 21 -13.5 32t-36.5 11
q-27 0 -45.5 -14.5t-27.5 -41.5q-22 8 -22 43q0 37 32.5 56t77.5 19q56 0 89 -21.5z" />
    <glyph glyph-name="acute" unicode="&#xb4;" horiz-adv-x="239" 
d="M182 759q20 -5 33.5 -21t13.5 -36q0 -27 -24 -46t-61 -35l-109 -49l-25 35z" />
    <glyph glyph-name="uni00B5" unicode="&#xb5;" horiz-adv-x="538" 
d="M70 0zM499 16q-8 -15 -23.5 -23t-35.5 -8q-29 0 -48 16.5t-23 44.5q-16 -33 -51.5 -50.5t-76.5 -17.5q-34 0 -61 8v-166l-110 -12v702l110 12v-281q0 -61 4.5 -100.5t24.5 -67.5t61 -28q44 0 66 33.5t22 83.5v348h110v-428q0 -49 31 -66z" />
    <glyph glyph-name="paragraph" unicode="&#xb6;" horiz-adv-x="674" 
d="M228 -126q52 0 71.5 34.5t19.5 98.5v258q-38 -11 -76 -11q-94 0 -144.5 56t-50.5 153q0 112 68.5 159.5t195.5 47.5q62 0 111 -10v-625q0 -110 -40 -172.5t-135 -62.5q-50 0 -83.5 20t-33.5 52q0 10 4 18t11 12q32 -28 82 -28zM696.5 601.5q-16.5 -18.5 -55.5 -18.5
q-25 0 -42 5v-588l-98 -15v675h212q0 -40 -16.5 -58.5z" />
    <glyph glyph-name="periodcentered" unicode="&#xb7;" horiz-adv-x="241" 
d="M174 307q20 -16 20 -46q0 -31 -21.5 -47.5t-54.5 -16.5t-53 16t-20 46q0 31 21.5 47.5t54.5 16.5t53 -16z" />
    <glyph glyph-name="cedilla" unicode="&#xb8;" horiz-adv-x="246" 
d="M206 -86.5q30 -22.5 30 -67.5q0 -44 -39 -71.5t-92 -27.5q-37 0 -66 13.5t-29 42.5q0 16 10 25q25 -28 70 -28q28 0 46.5 10.5t18.5 32.5q0 26 -22 36t-59 10q-23 0 -42 -3l47 125h47l-29 -76q9 1 28 1q51 0 81 -22.5z" />
    <glyph glyph-name="uni00B9" unicode="&#xb9;" horiz-adv-x="335" 
d="M292 339v-54h-239v54h78v248q-10 -10 -25.5 -16t-27.5 -6q-41 0 -41 48q35 10 79.5 29.5t73.5 37.5l29 -9v-332h73z" />
    <glyph glyph-name="ordmasculine" unicode="&#xba;" horiz-adv-x="435" 
d="M377 483q0 -97 -38 -150t-124 -53q-164 0 -164 197q0 93 39.5 145t124.5 52q162 0 162 -191zM268.5 370.5q11.5 40.5 11.5 108.5q0 64 -12.5 105.5t-52.5 41.5q-41 0 -54 -41.5t-13 -105.5q0 -69 11.5 -109t55.5 -40q42 0 53.5 40.5zM59 192q0 19 10 29.5t29 10.5h268
q7 -16 7 -30q0 -19 -10 -29.5t-29 -10.5h-268q-7 16 -7 30z" />
    <glyph glyph-name="guillemotright" unicode="&#xbb;" horiz-adv-x="493" 
d="M135 509l122 -192l-119 -191h-95l81 191l-86 192h97zM336 509l120 -192l-119 -191h-96l81 191l-81 192h95z" />
    <glyph glyph-name="onequarter" unicode="&#xbc;" horiz-adv-x="795" 
d="M510 682q0 -12 -6 -36l-178 -735q-12 -2 -25 -2q-50 0 -50 38q0 12 6 36l178 735q12 2 25 2q50 0 50 -38zM201 671v-332h73v-54h-240v54h78v248q-10 -10 -25.5 -16t-27.5 -6q-41 0 -41 48q35 10 79.5 29.5t73.5 37.5zM723 138h53l-4 -54h-49v-84h-88v84h-146
q-11 0 -16.5 7t-5.5 19q0 11 11 31l147 247h98v-250zM635 305l-95 -167h95v167z" />
    <glyph glyph-name="onehalf" unicode="&#xbd;" horiz-adv-x="795" 
d="M529 682q0 -12 -6 -36l-178 -735q-12 -2 -25 -2q-50 0 -50 38q0 12 6 36l178 735q12 2 25 2q50 0 50 -38zM219 671v-332h73v-54h-239v54h78v248q-10 -10 -25.5 -16t-27.5 -6q-41 0 -41 48q35 10 79.5 29.5t73.5 37.5zM723 360.5q33 -27.5 33 -84.5q0 -31 -11.5 -55
t-37 -51.5t-84.5 -85.5l-23 -19h164l-4 -65h-252l-4 52l100 106q28 31 44 57.5t16 56.5q0 53 -50 53q-30 0 -51.5 -17t-30.5 -47q-23 7 -23 40q0 43 35.5 65t85.5 22q60 0 93 -27.5z" />
    <glyph glyph-name="threequarters" unicode="&#xbe;" horiz-adv-x="795" 
d="M510 682q0 -12 -6 -36l-178 -735q-12 -2 -25 -2q-50 0 -50 38q0 12 6 36l178 735q12 2 25 2q50 0 50 -38zM241 650.5q33 -21.5 33 -69.5q0 -32 -17 -57t-47 -38q39 -8 61.5 -31t22.5 -60q0 -60 -44.5 -90.5t-112.5 -30.5q-45 0 -75.5 18.5t-30.5 56.5q0 31 16 38
q25 -51 90 -51q29 0 47.5 15.5t18.5 43.5q0 30 -19 44.5t-52 14.5q-19 0 -30 -2v47q38 0 61.5 17t23.5 51q0 21 -13.5 32t-36.5 11q-27 0 -45.5 -14.5t-27.5 -41.5q-22 8 -22 43q0 37 32.5 56t77.5 19q56 0 89 -21.5zM723 138h53l-4 -54h-49v-84h-88v84h-146q-11 0 -16.5 7
t-5.5 19q0 11 11 31l147 247h98v-250zM635 305l-95 -167h95v167z" />
    <glyph glyph-name="questiondown" unicode="&#xbf;" horiz-adv-x="414" 
d="M290 514q20 -16 20 -46q0 -31 -21.5 -47.5t-54.5 -16.5t-53 16t-20 46q0 31 21.5 47.5t54.5 16.5t53 -16zM283 260q0 -25 -16 -49t-52 -66q-45 -51 -69 -90t-24 -84q0 -36 19.5 -58t59.5 -22q35 0 56.5 17t21.5 52q0 18 -9 49q15 11 43 11q39 0 61 -19t22 -56
q0 -63 -60 -88.5t-138 -25.5q-87 0 -141.5 33t-54.5 107q0 39 15.5 72.5t37.5 58.5t58 61q45 44 66 72.5t21 63.5q4 4 15.5 6.5t21.5 2.5q46 0 46 -48z" />
    <glyph glyph-name="Agrave" unicode="&#xc0;" horiz-adv-x="503" 
d="M0 0zM332 660l171 -660h-118l-40 168h-196l-39 -168h-110l183 660h149zM167 242h161l-81 343zM200 720q-51 4 -80.5 17t-29.5 49q0 15 7.5 28.5t20.5 22.5l213 -84l-11 -42z" />
    <glyph glyph-name="Aacute" unicode="&#xc1;" horiz-adv-x="503" 
d="M0 0zM332 660l171 -660h-118l-40 168h-196l-39 -168h-110l183 660h149zM167 242h161l-81 343zM387 837q13 -9 21 -22.5t8 -28.5q0 -36 -30 -49t-81 -17l-119 -9l-11 42z" />
    <glyph glyph-name="Acircumflex" unicode="&#xc2;" horiz-adv-x="503" 
d="M0 0zM332 660l171 -660h-118l-40 168h-196l-39 -168h-110l183 660h149zM167 242h161l-81 343zM135 669l-29 35l145 132h4l149 -132l-30 -35l-120 73z" />
    <glyph glyph-name="Atilde" unicode="&#xc3;" horiz-adv-x="503" 
d="M0 0zM332 660l171 -660h-118l-40 168h-196l-39 -168h-110l183 660h149zM167 242h161l-81 343zM397 798q7 -14 7 -29q0 -24 -17 -36.5t-44 -12.5q-23 0 -85 12q-58 12 -77 12q-37 0 -53 -15q-13 8 -20 22t-7 29q0 24 17 36.5t44 12.5q28 0 86 -13q7 -1 33.5 -6t42.5 -5
q37 0 53 15q13 -8 20 -22z" />
    <glyph glyph-name="Adieresis" unicode="&#xc4;" horiz-adv-x="503" 
d="M0 0zM332 660l171 -660h-118l-40 168h-196l-39 -168h-110l183 660h149zM167 242h161l-81 343zM407.5 820q20.5 -16 20.5 -46q0 -31 -21.5 -47.5t-55.5 -16.5q-33 0 -53 16t-20 46q0 31 21.5 47.5t54.5 16.5t53.5 -16zM208.5 820q20.5 -16 20.5 -46q0 -31 -21.5 -47.5
t-55.5 -16.5q-33 0 -53 16t-20 46q0 31 21.5 47.5t54.5 16.5t53.5 -16z" />
    <glyph glyph-name="Aring" unicode="&#xc5;" horiz-adv-x="503" 
d="M0 0zM332 660l171 -660h-118l-40 168h-196l-39 -168h-110l183 660h149zM167 242h161l-81 343zM181 725q-29 23 -29 61t28 59.5t72 21.5t72.5 -21.5t28.5 -59.5t-29 -61t-72 -23q-42 0 -71 23zM284 750q11 14 11 36q0 21 -11 34t-32 13q-20 0 -31 -13t-11 -34
q0 -22 10.5 -36t31.5 -14t32 14z" />
    <glyph glyph-name="AE" unicode="&#xc6;" horiz-adv-x="675" 
d="M631 660v-74h-203v-210h173v-74h-173v-228h217l-7 -74h-328v168h-175l-70 -168h-111l301 660h376zM310 586l-144 -344h144v344z" />
    <glyph glyph-name="Ccedilla" unicode="&#xc7;" horiz-adv-x="512" 
d="M467 157.5q9 -14.5 9 -37.5q0 -44 -27 -76t-70 -48.5t-92 -17.5l-16 -43q9 1 28 1q51 0 81 -22.5t30 -67.5q0 -44 -39 -71.5t-92 -27.5q-37 0 -66 13.5t-29 42.5q0 16 10 25q25 -28 70 -28q28 0 46.5 10.5t18.5 32.5q0 26 -22 36t-59 10q-23 0 -42 -3l36 95
q-113 15 -160.5 106.5t-47.5 239.5q0 160 61.5 256.5t198.5 96.5q88 0 140.5 -35t52.5 -111q0 -36 -21 -58.5t-57 -22.5q-35 0 -52 16q8 22 8 50q0 91 -80 91q-76 0 -100.5 -79.5t-24.5 -198.5t26 -190.5t109 -71.5q52 0 89 29t53 80q21 -7 30 -21.5z" />
    <glyph glyph-name="Egrave" unicode="&#xc8;" horiz-adv-x="438" 
d="M60 0zM395 660v-74h-218v-210h188v-74h-188v-228h232l-7 -74h-342v660h335zM173 720q-51 4 -80.5 17t-29.5 49q0 15 7.5 28.5t20.5 22.5l213 -84l-11 -42z" />
    <glyph glyph-name="Eacute" unicode="&#xc9;" horiz-adv-x="438" 
d="M60 0zM395 660v-74h-218v-210h188v-74h-188v-228h232l-7 -74h-342v660h335zM363 837q13 -9 21 -22.5t8 -28.5q0 -36 -30 -49t-81 -17l-119 -9l-11 42z" />
    <glyph glyph-name="Ecircumflex" unicode="&#xca;" horiz-adv-x="438" 
d="M60 0zM395 660v-74h-218v-210h188v-74h-188v-228h232l-7 -74h-342v660h335zM111 669l-29 35l145 132h4l149 -132l-30 -35l-120 73z" />
    <glyph glyph-name="Edieresis" unicode="&#xcb;" horiz-adv-x="438" 
d="M55 0zM395 660v-74h-218v-210h188v-74h-188v-228h232l-7 -74h-342v660h335zM383.5 820q20.5 -16 20.5 -46q0 -31 -21.5 -47.5t-55.5 -16.5q-33 0 -53 16t-20 46q0 31 21.5 47.5t54.5 16.5t53.5 -16zM184.5 820q20.5 -16 20.5 -46q0 -31 -21.5 -47.5t-55.5 -16.5
q-33 0 -53 16t-20 46q0 31 21.5 47.5t54.5 16.5t53.5 -16z" />
    <glyph glyph-name="Igrave" unicode="&#xcc;" horiz-adv-x="237" 
d="M0 0zM177 660v-660h-117v660h117zM64 720q-51 4 -80.5 17t-29.5 49q0 15 7.5 28.5t20.5 22.5l213 -84l-11 -42z" />
    <glyph glyph-name="Iacute" unicode="&#xcd;" horiz-adv-x="237" 
d="M42 0zM177 660v-660h-117v660h117zM254 837q13 -9 21 -22.5t8 -28.5q0 -36 -30 -49t-81 -17l-119 -9l-11 42z" />
    <glyph glyph-name="Icircumflex" unicode="&#xce;" horiz-adv-x="237" 
d="M0 0zM177 660v-660h-117v660h117zM0 669l-29 35l145 132h4l149 -132l-30 -35l-120 73z" />
    <glyph glyph-name="Idieresis" unicode="&#xcf;" horiz-adv-x="237" 
d="M0 0zM177 660v-660h-117v660h117zM272.5 820q20.5 -16 20.5 -46q0 -31 -21.5 -47.5t-55.5 -16.5q-33 0 -53 16t-20 46q0 31 21.5 47.5t54.5 16.5t53.5 -16zM73.5 820q20.5 -16 20.5 -46q0 -31 -21.5 -47.5t-55.5 -16.5q-33 0 -53 16t-20 46q0 31 21.5 47.5t54.5 16.5
t53.5 -16z" />
    <glyph glyph-name="Eth" unicode="&#xd0;" horiz-adv-x="574" 
d="M540 346q0 -356 -286 -356q-84 0 -184 15v292h-76q-8 13 -8 37q0 43 53 43h31v279q118 8 208 8q262 0 262 -318zM360 95q36 35 47 92.5t11 144.5q0 116 -31 189t-116 73q-37 0 -84 -5v-212h133q8 -13 8 -37q0 -43 -53 -43h-88v-231q36 -6 67 -6q70 0 106 35z" />
    <glyph glyph-name="Ntilde" unicode="&#xd1;" horiz-adv-x="568" 
d="M60 0zM419 0l-265 452v-452h-94v660h89l265 -452v452h94v-660h-89zM427 798q7 -14 7 -29q0 -24 -17 -36.5t-44 -12.5q-23 0 -85 12q-58 12 -77 12q-37 0 -53 -15q-13 8 -20 22t-7 29q0 24 17 36.5t44 12.5q28 0 86 -13q7 -1 33.5 -6t42.5 -5q37 0 53 15q13 -8 20 -22z
" />
    <glyph glyph-name="Ograve" unicode="&#xd2;" horiz-adv-x="581" 
d="M34 0zM547 339q0 -361 -256 -361q-140 0 -198.5 93t-58.5 256q0 160 60.5 256.5t196.5 96.5q256 0 256 -341zM396 127.5q25 79.5 25 204.5q0 119 -26 198.5t-104 79.5q-79 0 -105 -79.5t-26 -198.5q0 -125 25 -204.5t106 -79.5q80 0 105 79.5zM237 720q-51 4 -80.5 17
t-29.5 49q0 15 7.5 28.5t20.5 22.5l213 -84l-11 -42z" />
    <glyph glyph-name="Oacute" unicode="&#xd3;" horiz-adv-x="581" 
d="M34 0zM547 339q0 -361 -256 -361q-140 0 -198.5 93t-58.5 256q0 160 60.5 256.5t196.5 96.5q256 0 256 -341zM396 127.5q25 79.5 25 204.5q0 119 -26 198.5t-104 79.5q-79 0 -105 -79.5t-26 -198.5q0 -125 25 -204.5t106 -79.5q80 0 105 79.5zM427 837q13 -9 21 -22.5
t8 -28.5q0 -36 -30 -49t-81 -17l-119 -9l-11 42z" />
    <glyph glyph-name="Ocircumflex" unicode="&#xd4;" horiz-adv-x="581" 
d="M34 0zM547 339q0 -361 -256 -361q-140 0 -198.5 93t-58.5 256q0 160 60.5 256.5t196.5 96.5q256 0 256 -341zM396 127.5q25 79.5 25 204.5q0 119 -26 198.5t-104 79.5q-79 0 -105 -79.5t-26 -198.5q0 -125 25 -204.5t106 -79.5q80 0 105 79.5zM173 669l-29 35l145 132h4
l149 -132l-30 -35l-120 73z" />
    <glyph glyph-name="Otilde" unicode="&#xd5;" horiz-adv-x="581" 
d="M34 0zM547 339q0 -361 -256 -361q-140 0 -198.5 93t-58.5 256q0 160 60.5 256.5t196.5 96.5q256 0 256 -341zM396 127.5q25 79.5 25 204.5q0 119 -26 198.5t-104 79.5q-79 0 -105 -79.5t-26 -198.5q0 -125 25 -204.5t106 -79.5q80 0 105 79.5zM435 798q7 -14 7 -29
q0 -24 -17 -36.5t-44 -12.5q-23 0 -85 12q-58 12 -77 12q-37 0 -53 -15q-13 8 -20 22t-7 29q0 24 17 36.5t44 12.5q28 0 86 -13q7 -1 33.5 -6t42.5 -5q37 0 53 15q13 -8 20 -22z" />
    <glyph glyph-name="Odieresis" unicode="&#xd6;" horiz-adv-x="581" 
d="M34 0zM547 339q0 -361 -256 -361q-140 0 -198.5 93t-58.5 256q0 160 60.5 256.5t196.5 96.5q256 0 256 -341zM396 127.5q25 79.5 25 204.5q0 119 -26 198.5t-104 79.5q-79 0 -105 -79.5t-26 -198.5q0 -125 25 -204.5t106 -79.5q80 0 105 79.5zM445.5 820
q20.5 -16 20.5 -46q0 -31 -21.5 -47.5t-55.5 -16.5q-33 0 -53 16t-20 46q0 31 21.5 47.5t54.5 16.5t53.5 -16zM246.5 820q20.5 -16 20.5 -46q0 -31 -21.5 -47.5t-55.5 -16.5q-33 0 -53 16t-20 46q0 31 21.5 47.5t54.5 16.5t53.5 -16z" />
    <glyph glyph-name="multiply" unicode="&#xd7;" 
d="M486 70q0 -24 -17 -36t-43 -12l-152 160l-113 -133q-26 -30 -52 -30q-25 0 -40 14t-15 39l156 176l-97 96q-30 30 -30 56q0 24 17 36t43 12l126 -134l90 102q13 14 25.5 22t27.5 8q24 0 39 -14t16 -39l-134 -145l123 -122q30 -30 30 -56z" />
    <glyph glyph-name="Oslash" unicode="&#xd8;" horiz-adv-x="581" 
d="M560 636l-55 -77q42 -83 42 -220q0 -361 -256 -361q-102 0 -163 53l-60 -84q-15 3 -34.5 14t-19.5 28q0 14 15 35l50 70q-45 83 -45 233q0 160 60.5 256.5t196.5 96.5q104 0 166 -57l64 90q15 -3 34.5 -14t19.5 -28q0 -14 -15 -35zM165 215l228 319q-32 76 -102 76
q-79 0 -105 -79.5t-26 -198.5q0 -68 5 -117zM416 435l-226 -317q32 -70 101 -70q80 0 105 79.5t25 204.5q0 59 -5 103z" />
    <glyph glyph-name="Ugrave" unicode="&#xd9;" horiz-adv-x="547" 
d="M55 0zM474.5 109.5q-17.5 -63.5 -64.5 -97.5t-136 -34q-86 0 -133.5 28.5t-66.5 85.5t-19 149v419h117v-408q0 -66 6.5 -107.5t30.5 -69t73 -27.5t73 29.5t30 73.5t6 112v397h101v-386q0 -101 -17.5 -164.5zM228 720q-51 4 -80.5 17t-29.5 49q0 15 7.5 28.5t20.5 22.5
l213 -84l-11 -42z" />
    <glyph glyph-name="Uacute" unicode="&#xda;" horiz-adv-x="547" 
d="M55 0zM474.5 109.5q-17.5 -63.5 -64.5 -97.5t-136 -34q-86 0 -133.5 28.5t-66.5 85.5t-19 149v419h117v-408q0 -66 6.5 -107.5t30.5 -69t73 -27.5t73 29.5t30 73.5t6 112v397h101v-386q0 -101 -17.5 -164.5zM418 837q13 -9 21 -22.5t8 -28.5q0 -36 -30 -49t-81 -17
l-119 -9l-11 42z" />
    <glyph glyph-name="Ucircumflex" unicode="&#xdb;" horiz-adv-x="547" 
d="M55 0zM474.5 109.5q-17.5 -63.5 -64.5 -97.5t-136 -34q-86 0 -133.5 28.5t-66.5 85.5t-19 149v419h117v-408q0 -66 6.5 -107.5t30.5 -69t73 -27.5t73 29.5t30 73.5t6 112v397h101v-386q0 -101 -17.5 -164.5zM165 669l-29 35l145 132h4l149 -132l-30 -35l-120 73z" />
    <glyph glyph-name="Udieresis" unicode="&#xdc;" horiz-adv-x="547" 
d="M55 0zM474.5 109.5q-17.5 -63.5 -64.5 -97.5t-136 -34q-86 0 -133.5 28.5t-66.5 85.5t-19 149v419h117v-408q0 -66 6.5 -107.5t30.5 -69t73 -27.5t73 29.5t30 73.5t6 112v397h101v-386q0 -101 -17.5 -164.5zM437.5 820q20.5 -16 20.5 -46q0 -31 -21.5 -47.5t-55.5 -16.5
q-33 0 -53 16t-20 46q0 31 21.5 47.5t54.5 16.5t53.5 -16zM238.5 820q20.5 -16 20.5 -46q0 -31 -21.5 -47.5t-55.5 -16.5q-33 0 -53 16t-20 46q0 31 21.5 47.5t54.5 16.5t53.5 -16z" />
    <glyph glyph-name="Yacute" unicode="&#xdd;" horiz-adv-x="504" 
d="M1 0zM310 305v-305h-117v293l-192 367h128l130 -271l123 271h120zM394 837q13 -9 21 -22.5t8 -28.5q0 -36 -30 -49t-81 -17l-119 -9l-11 42z" />
    <glyph glyph-name="Thorn" unicode="&#xde;" horiz-adv-x="495" 
d="M177 536q48 2 71 2q114 0 175.5 -44.5t61.5 -145.5q0 -87 -51 -140.5t-137 -53.5q-32 0 -56 10.5t-24 35.5q76 0 112 35t36 109q0 63 -30.5 93.5t-93.5 30.5q-31 0 -64 -5v-463h-117v660h117v-124z" />
    <glyph glyph-name="germandbls" unicode="&#xdf;" horiz-adv-x="600" 
d="M125 680.5q55 39.5 157 39.5q80 0 138 -25.5t58 -85.5q0 -29 -18 -52.5t-53 -54.5q-30 -26 -45 -45t-15 -40q0 -39 26.5 -63.5t81.5 -54.5q44 -24 70.5 -43t45.5 -48.5t19 -71.5q0 -76 -54.5 -117t-138.5 -41q-73 0 -122.5 25t-49.5 83q0 34 21 52t57 18q11 0 22.5 -3
t18.5 -8q-8 -24 -8 -45q0 -33 20 -51t53 -18q37 0 56.5 19.5t19.5 57.5q0 39 -26.5 63.5t-81.5 54.5q-44 25 -70.5 44t-45.5 48.5t-19 71.5q0 29 18 52.5t53 54.5q30 26 45 45t15 40q0 44 -26 69t-71 25q-55 0 -75.5 -31.5t-20.5 -95.5v-454q0 -235 -139 -235q-28 0 -49 11
t-21 33q56 0 77.5 45t21.5 118v482q0 92 55 131.5z" />
    <glyph glyph-name="agrave" unicode="&#xe0;" horiz-adv-x="500" 
d="M37 0zM281.5 -5.5q-36.5 -16.5 -82.5 -16.5q-69 0 -115.5 42t-46.5 109q0 162 289 162v87q0 50 -15 74.5t-57 24.5q-35 0 -58 -18.5t-23 -51.5q0 -21 8 -45q-14 -11 -40 -11q-36 0 -57 18t-21 52q0 48 54 78.5t144 30.5q66 0 104 -19.5t54.5 -60t16.5 -108.5v-260
q0 -49 31 -66q-8 -15 -23.5 -23t-35.5 -8q-29 0 -48 16.5t-23 44.5q-19 -35 -55.5 -51.5zM304 78.5q22 33.5 22 83.5v79q-169 0 -169 -108q0 -40 21.5 -64t59.5 -24q44 0 66 33.5zM196 621q-36 16 -60 35t-24 46q0 20 13.5 36t33.5 21l172 -152l-25 -35z" />
    <glyph glyph-name="aacute" unicode="&#xe1;" horiz-adv-x="500" 
d="M37 0zM281.5 -5.5q-36.5 -16.5 -82.5 -16.5q-69 0 -115.5 42t-46.5 109q0 162 289 162v87q0 50 -15 74.5t-57 24.5q-35 0 -58 -18.5t-23 -51.5q0 -21 8 -45q-14 -11 -40 -11q-36 0 -57 18t-21 52q0 48 54 78.5t144 30.5q66 0 104 -19.5t54.5 -60t16.5 -108.5v-260
q0 -49 31 -66q-8 -15 -23.5 -23t-35.5 -8q-29 0 -48 16.5t-23 44.5q-19 -35 -55.5 -51.5zM304 78.5q22 33.5 22 83.5v79q-169 0 -169 -108q0 -40 21.5 -64t59.5 -24q44 0 66 33.5zM338 759q20 -5 33.5 -21t13.5 -36q0 -27 -24 -46t-61 -35l-109 -49l-25 35z" />
    <glyph glyph-name="acircumflex" unicode="&#xe2;" horiz-adv-x="500" 
d="M37 0zM281.5 -5.5q-36.5 -16.5 -82.5 -16.5q-69 0 -115.5 42t-46.5 109q0 162 289 162v87q0 50 -15 74.5t-57 24.5q-35 0 -58 -18.5t-23 -51.5q0 -21 8 -45q-14 -11 -40 -11q-36 0 -57 18t-21 52q0 48 54 78.5t144 30.5q66 0 104 -19.5t54.5 -60t16.5 -108.5v-260
q0 -49 31 -66q-8 -15 -23.5 -23t-35.5 -8q-29 0 -48 16.5t-23 44.5q-19 -35 -55.5 -51.5zM304 78.5q22 33.5 22 83.5v79q-169 0 -169 -108q0 -40 21.5 -64t59.5 -24q44 0 66 33.5zM129 575l-29 35l145 132h4l149 -132l-30 -35l-120 73z" />
    <glyph glyph-name="atilde" unicode="&#xe3;" horiz-adv-x="500" 
d="M37 0zM281.5 -5.5q-36.5 -16.5 -82.5 -16.5q-69 0 -115.5 42t-46.5 109q0 162 289 162v87q0 50 -15 74.5t-57 24.5q-35 0 -58 -18.5t-23 -51.5q0 -21 8 -45q-14 -11 -40 -11q-36 0 -57 18t-21 52q0 48 54 78.5t144 30.5q66 0 104 -19.5t54.5 -60t16.5 -108.5v-260
q0 -49 31 -66q-8 -15 -23.5 -23t-35.5 -8q-29 0 -48 16.5t-23 44.5q-19 -35 -55.5 -51.5zM304 78.5q22 33.5 22 83.5v79q-169 0 -169 -108q0 -40 21.5 -64t59.5 -24q44 0 66 33.5zM392 675q7 -14 7 -29q0 -24 -17 -36.5t-44 -12.5q-22 0 -84 12q-58 12 -78 12q-37 0 -53 -15
q-13 8 -20 22t-7 29q0 24 17.5 36.5t44.5 12.5q24 0 84 -12q58 -12 77 -12q37 0 54 15q12 -8 19 -22z" />
    <glyph glyph-name="adieresis" unicode="&#xe4;" horiz-adv-x="500" 
d="M37 0zM281.5 -5.5q-36.5 -16.5 -82.5 -16.5q-69 0 -115.5 42t-46.5 109q0 162 289 162v87q0 50 -15 74.5t-57 24.5q-35 0 -58 -18.5t-23 -51.5q0 -21 8 -45q-14 -11 -40 -11q-36 0 -57 18t-21 52q0 48 54 78.5t144 30.5q66 0 104 -19.5t54.5 -60t16.5 -108.5v-260
q0 -49 31 -66q-8 -15 -23.5 -23t-35.5 -8q-29 0 -48 16.5t-23 44.5q-19 -35 -55.5 -51.5zM304 78.5q22 33.5 22 83.5v79q-169 0 -169 -108q0 -40 21.5 -64t59.5 -24q44 0 66 33.5zM402.5 704q20.5 -16 20.5 -46q0 -31 -21.5 -47.5t-55.5 -16.5q-33 0 -53 16t-20 46
q0 31 21.5 47.5t54.5 16.5t53.5 -16zM203.5 704q20.5 -16 20.5 -46q0 -31 -21.5 -47.5t-55.5 -16.5q-33 0 -53 16t-20 46q0 31 21.5 47.5t54.5 16.5t53.5 -16z" />
    <glyph glyph-name="aring" unicode="&#xe5;" horiz-adv-x="500" 
d="M37 0zM281.5 -5.5q-36.5 -16.5 -82.5 -16.5q-69 0 -115.5 42t-46.5 109q0 162 289 162v87q0 50 -15 74.5t-57 24.5q-35 0 -58 -18.5t-23 -51.5q0 -21 8 -45q-14 -11 -40 -11q-36 0 -57 18t-21 52q0 48 54 78.5t144 30.5q66 0 104 -19.5t54.5 -60t16.5 -108.5v-260
q0 -49 31 -66q-8 -15 -23.5 -23t-35.5 -8q-29 0 -48 16.5t-23 44.5q-19 -35 -55.5 -51.5zM304 78.5q22 33.5 22 83.5v79q-169 0 -169 -108q0 -40 21.5 -64t59.5 -24q44 0 66 33.5zM171 589.5q-31 26.5 -31 70.5t30.5 69t77.5 25t77.5 -25t30.5 -69t-31 -70.5t-77 -26.5
t-77 26.5zM285.5 614.5q12.5 17.5 12.5 45.5q0 27 -12.5 43.5t-37.5 16.5t-37.5 -16.5t-12.5 -43.5q0 -28 12.5 -45.5t37.5 -17.5t37.5 17.5z" />
    <glyph glyph-name="ae" unicode="&#xe6;" horiz-adv-x="746" 
d="M699 98q0 -36 -24 -63.5t-62 -42t-77 -14.5q-118 0 -174 88q-17 -44 -54.5 -66t-88.5 -22q-80 0 -131 39t-51 112q0 92 81 125t208 33v91q0 50 -15 74.5t-57 24.5q-35 0 -58 -18.5t-23 -51.5q0 -21 8 -45q-14 -11 -40 -11q-36 0 -57 18t-21 52q0 48 54 78.5t144 30.5
q53 0 87.5 -12.5t55.5 -39.5q57 52 148 52q74 0 119 -38.5t45 -108.5q0 -86 -60 -119.5t-165 -33.5q-29 0 -55 2q3 -81 26.5 -129t83.5 -48q44 0 77.5 22.5t52.5 63.5q23 -11 23 -43zM460 416.5q-22 -56.5 -24 -134.5l45 -2q61 0 93.5 22t32.5 75q0 41 -18 68.5t-53 27.5
q-54 0 -76 -56.5zM326 237q-77 0 -123 -22t-46 -82q0 -40 21.5 -64t59.5 -24q44 0 66 33.5t22 83.5v75z" />
    <glyph glyph-name="ccedilla" unicode="&#xe7;" horiz-adv-x="446" 
d="M400.5 126.5q7.5 -10.5 7.5 -28.5q0 -36 -23.5 -63.5t-60.5 -42t-76 -14.5h-8l-16 -43q9 1 28 1q51 0 81 -22.5t30 -67.5q0 -44 -39 -71.5t-92 -27.5q-37 0 -66 13.5t-29 42.5q0 16 10 25q25 -28 70 -28q28 0 46.5 10.5t18.5 32.5q0 26 -22 36t-59 10q-23 0 -42 -3l36 97
q-83 17 -123 85.5t-40 173.5q0 129 57.5 208.5t173.5 79.5q68 0 112 -28t44 -86q0 -34 -21 -52t-57 -18q-11 0 -22.5 3t-18.5 8q8 24 8 45q0 69 -60 69q-100 0 -100 -218q0 -89 22.5 -143.5t87.5 -54.5q44 0 75.5 23.5t42.5 66.5q17 -8 24.5 -18.5z" />
    <glyph glyph-name="egrave" unicode="&#xe8;" horiz-adv-x="458" 
d="M32 0zM411 98q0 -36 -24 -63.5t-62 -42t-77 -14.5q-110 0 -163 71.5t-53 192.5q0 129 57.5 208.5t174.5 79.5q74 0 119 -38.5t45 -108.5q0 -87 -60.5 -122t-164.5 -35q-29 0 -55 2q3 -79 26.5 -126t83.5 -47q44 0 77.5 22.5t52.5 63.5q23 -11 23 -43zM172 416.5
q-22 -56.5 -24 -138.5q30 -2 44 -2q126 0 126 101q0 41 -17.5 68.5t-52.5 27.5q-54 0 -76 -56.5zM195 621q-36 16 -60 35t-24 46q0 20 13.5 36t33.5 21l172 -152l-25 -35z" />
    <glyph glyph-name="eacute" unicode="&#xe9;" horiz-adv-x="458" 
d="M32 0zM411 98q0 -36 -24 -63.5t-62 -42t-77 -14.5q-110 0 -163 71.5t-53 192.5q0 129 57.5 208.5t174.5 79.5q74 0 119 -38.5t45 -108.5q0 -87 -60.5 -122t-164.5 -35q-29 0 -55 2q3 -79 26.5 -126t83.5 -47q44 0 77.5 22.5t52.5 63.5q23 -11 23 -43zM172 416.5
q-22 -56.5 -24 -138.5q30 -2 44 -2q126 0 126 101q0 41 -17.5 68.5t-52.5 27.5q-54 0 -76 -56.5zM337 759q20 -5 33.5 -21t13.5 -36q0 -27 -24 -46t-61 -35l-109 -49l-25 35z" />
    <glyph glyph-name="ecircumflex" unicode="&#xea;" horiz-adv-x="458" 
d="M32 0zM411 98q0 -36 -24 -63.5t-62 -42t-77 -14.5q-110 0 -163 71.5t-53 192.5q0 129 57.5 208.5t174.5 79.5q74 0 119 -38.5t45 -108.5q0 -87 -60.5 -122t-164.5 -35q-29 0 -55 2q3 -79 26.5 -126t83.5 -47q44 0 77.5 22.5t52.5 63.5q23 -11 23 -43zM172 416.5
q-22 -56.5 -24 -138.5q30 -2 44 -2q126 0 126 101q0 41 -17.5 68.5t-52.5 27.5q-54 0 -76 -56.5zM128 575l-29 35l145 132h4l149 -132l-30 -35l-120 73z" />
    <glyph glyph-name="edieresis" unicode="&#xeb;" horiz-adv-x="458" 
d="M32 0zM411 98q0 -36 -24 -63.5t-62 -42t-77 -14.5q-110 0 -163 71.5t-53 192.5q0 129 57.5 208.5t174.5 79.5q74 0 119 -38.5t45 -108.5q0 -87 -60.5 -122t-164.5 -35q-29 0 -55 2q3 -79 26.5 -126t83.5 -47q44 0 77.5 22.5t52.5 63.5q23 -11 23 -43zM172 416.5
q-22 -56.5 -24 -138.5q30 -2 44 -2q126 0 126 101q0 41 -17.5 68.5t-52.5 27.5q-54 0 -76 -56.5zM401.5 704q20.5 -16 20.5 -46q0 -31 -21.5 -47.5t-55.5 -16.5q-33 0 -53 16t-20 46q0 31 21.5 47.5t54.5 16.5t53.5 -16zM202.5 704q20.5 -16 20.5 -46q0 -31 -21.5 -47.5
t-55.5 -16.5q-33 0 -53 16t-20 46q0 31 21.5 47.5t54.5 16.5t53.5 -16z" />
    <glyph glyph-name="igrave" unicode="&#xec;" horiz-adv-x="244" 
d="M0 0zM174 82q0 -49 31 -66q-8 -15 -26 -23t-39 -8q-38 0 -57 22t-19 62v441h110v-428zM67 621q-36 16 -60 35t-24 46q0 20 13.5 36t33.5 21l172 -152l-25 -35z" />
    <glyph glyph-name="iacute" unicode="&#xed;" horiz-adv-x="244" 
d="M37 0zM174 82q0 -49 31 -66q-8 -15 -26 -23t-39 -8q-38 0 -57 22t-19 62v441h110v-428zM209 759q20 -5 33.5 -21t13.5 -36q0 -27 -24 -46t-61 -35l-109 -49l-25 35z" />
    <glyph glyph-name="icircumflex" unicode="&#xee;" horiz-adv-x="244" 
d="M0 0zM174 82q0 -49 31 -66q-8 -15 -26 -23t-39 -8q-38 0 -57 22t-19 62v441h110v-428zM0 575l-29 35l145 132h4l149 -132l-30 -35l-120 73z" />
    <glyph glyph-name="idieresis" unicode="&#xef;" horiz-adv-x="244" 
d="M0 0zM174 82q0 -49 31 -66q-8 -15 -26 -23t-39 -8q-38 0 -57 22t-19 62v441h110v-428zM273.5 704q20.5 -16 20.5 -46q0 -31 -21.5 -47.5t-55.5 -16.5q-33 0 -53 16t-20 46q0 31 21.5 47.5t54.5 16.5t53.5 -16zM74.5 704q20.5 -16 20.5 -46q0 -31 -21.5 -47.5t-55.5 -16.5
q-33 0 -53 16t-20 46q0 31 21.5 47.5t54.5 16.5t53.5 -16z" />
    <glyph glyph-name="eth" unicode="&#xf0;" horiz-adv-x="532" 
d="M391 647l87 31q7 -6 12.5 -16.5t5.5 -19.5q0 -10 -8 -17.5t-27 -14.5l-37 -14q30 -56 44 -129.5t14 -151.5q0 -148 -52 -241.5t-173 -93.5q-70 0 -121 31.5t-77.5 87.5t-26.5 128q0 120 58 193t168 73q45 0 84 -13q-5 48 -16 81l-93 -34q-6 6 -11.5 16.5t-5.5 19.5
q-2 20 29 31l51 19q-32 35 -83 35q-14 0 -29 -4t-25 -11q-10 11 -10 32q0 26 24 40.5t63 14.5q95 0 155 -73zM356 301q0 42 -1.5 63t-3.5 39q-43 30 -93 30q-62 0 -81 -59.5t-19 -139.5q0 -77 22.5 -135.5t76.5 -58.5q99 0 99 261z" />
    <glyph glyph-name="ntilde" unicode="&#xf1;" horiz-adv-x="528" 
d="M66 0zM66 510l92 12l5 -90q19 48 58.5 73t92.5 25q84 0 117 -46.5t33 -141.5v-260q0 -49 31 -66q-8 -15 -26 -23t-38 -8q-39 0 -58 22t-19 62v259q0 63 -14 94t-62 31q-61 0 -81.5 -54t-20.5 -139v-260h-110v510zM428 675q7 -14 7 -29q0 -24 -17 -36.5t-44 -12.5
q-22 0 -84 12q-58 12 -78 12q-37 0 -53 -15q-13 8 -20 22t-7 29q0 24 17.5 36.5t44.5 12.5q24 0 84 -12q58 -12 77 -12q37 0 54 15q12 -8 19 -22z" />
    <glyph glyph-name="ograve" unicode="&#xf2;" horiz-adv-x="503" 
d="M32 0zM417 457.5q54 -72.5 54 -195.5q0 -131 -52 -207.5t-168 -76.5q-114 0 -166.5 73t-52.5 201q0 124 54 201t165 77q112 0 166 -72.5zM332 99q19 61 19 158q0 89 -20.5 151t-79.5 62q-99 0 -99 -213q0 -97 18.5 -158t80.5 -61t81 61zM199 621q-36 16 -60 35t-24 46
q0 20 13.5 36t33.5 21l172 -152l-25 -35z" />
    <glyph glyph-name="oacute" unicode="&#xf3;" horiz-adv-x="503" 
d="M32 0zM417 457.5q54 -72.5 54 -195.5q0 -131 -52 -207.5t-168 -76.5q-114 0 -166.5 73t-52.5 201q0 124 54 201t165 77q112 0 166 -72.5zM332 99q19 61 19 158q0 89 -20.5 151t-79.5 62q-99 0 -99 -213q0 -97 18.5 -158t80.5 -61t81 61zM341 759q20 -5 33.5 -21t13.5 -36
q0 -27 -24 -46t-61 -35l-109 -49l-25 35z" />
    <glyph glyph-name="ocircumflex" unicode="&#xf4;" horiz-adv-x="503" 
d="M32 0zM417 457.5q54 -72.5 54 -195.5q0 -131 -52 -207.5t-168 -76.5q-114 0 -166.5 73t-52.5 201q0 124 54 201t165 77q112 0 166 -72.5zM332 99q19 61 19 158q0 89 -20.5 151t-79.5 62q-99 0 -99 -213q0 -97 18.5 -158t80.5 -61t81 61zM132 575l-29 35l145 132h4
l149 -132l-30 -35l-120 73z" />
    <glyph glyph-name="otilde" unicode="&#xf5;" horiz-adv-x="503" 
d="M32 0zM417 457.5q54 -72.5 54 -195.5q0 -131 -52 -207.5t-168 -76.5q-114 0 -166.5 73t-52.5 201q0 124 54 201t165 77q112 0 166 -72.5zM332 99q19 61 19 158q0 89 -20.5 151t-79.5 62q-99 0 -99 -213q0 -97 18.5 -158t80.5 -61t81 61zM395 675q7 -14 7 -29
q0 -24 -17 -36.5t-44 -12.5q-22 0 -84 12q-58 12 -78 12q-37 0 -53 -15q-13 8 -20 22t-7 29q0 24 17.5 36.5t44.5 12.5q24 0 84 -12q58 -12 77 -12q37 0 54 15q12 -8 19 -22z" />
    <glyph glyph-name="odieresis" unicode="&#xf6;" horiz-adv-x="503" 
d="M32 0zM417 457.5q54 -72.5 54 -195.5q0 -131 -52 -207.5t-168 -76.5q-114 0 -166.5 73t-52.5 201q0 124 54 201t165 77q112 0 166 -72.5zM332 99q19 61 19 158q0 89 -20.5 151t-79.5 62q-99 0 -99 -213q0 -97 18.5 -158t80.5 -61t81 61zM405.5 704q20.5 -16 20.5 -46
q0 -31 -21.5 -47.5t-55.5 -16.5q-33 0 -53 16t-20 46q0 31 21.5 47.5t54.5 16.5t53.5 -16zM206.5 704q20.5 -16 20.5 -46q0 -31 -21.5 -47.5t-55.5 -16.5q-33 0 -53 16t-20 46q0 31 21.5 47.5t54.5 16.5t53.5 -16z" />
    <glyph glyph-name="divide" unicode="&#xf7;" 
d="M319 356q-18 -14 -48 -14q-29 0 -46.5 13.5t-17.5 37.5q0 25 19 40t48 15t46 -14t17 -39t-18 -39zM63 233q0 23 13 36.5t36 13.5h356q9 -20 9 -35q0 -23 -13 -36.5t-36 -13.5h-356q-9 20 -9 35zM319 47q-18 -14 -48 -14q-29 0 -46.5 13.5t-17.5 37.5q0 25 19 40t48 15
t46 -14t17 -39t-18 -39z" />
    <glyph glyph-name="oslash" unicode="&#xf8;" horiz-adv-x="503" 
d="M480 510l-50 -71q41 -67 41 -177q0 -131 -52 -207.5t-168 -76.5q-77 0 -126 34l-46 -65q-16 3 -35.5 14t-19.5 28q0 14 15 35l33 46q-40 67 -40 182q0 124 54 201t165 77q76 0 125 -34l65 91q15 -3 34.5 -14t19.5 -28q0 -14 -15 -35zM154 185l170 238q-25 47 -73 47
q-99 0 -99 -213q0 -47 2 -72zM348 325l-171 -240q25 -47 74 -47q62 0 81 61t19 158q0 34 -3 68z" />
    <glyph glyph-name="ugrave" unicode="&#xf9;" horiz-adv-x="532" 
d="M64 0zM462 82q0 -49 31 -66q-8 -15 -23.5 -23t-35.5 -8q-29 0 -48 16.5t-23 44.5q-16 -33 -51.5 -50.5t-76.5 -17.5q-72 0 -109.5 31.5t-49.5 86t-12 140.5v274h110v-269q0 -61 4.5 -100.5t24.5 -67.5t61 -28q44 0 66 33.5t22 83.5v348h110v-428zM212 621q-36 16 -60 35
t-24 46q0 20 13.5 36t33.5 21l172 -152l-25 -35z" />
    <glyph glyph-name="uacute" unicode="&#xfa;" horiz-adv-x="532" 
d="M64 0zM462 82q0 -49 31 -66q-8 -15 -23.5 -23t-35.5 -8q-29 0 -48 16.5t-23 44.5q-16 -33 -51.5 -50.5t-76.5 -17.5q-72 0 -109.5 31.5t-49.5 86t-12 140.5v274h110v-269q0 -61 4.5 -100.5t24.5 -67.5t61 -28q44 0 66 33.5t22 83.5v348h110v-428zM354 759q20 -5 33.5 -21
t13.5 -36q0 -27 -24 -46t-61 -35l-109 -49l-25 35z" />
    <glyph glyph-name="ucircumflex" unicode="&#xfb;" horiz-adv-x="532" 
d="M64 0zM462 82q0 -49 31 -66q-8 -15 -23.5 -23t-35.5 -8q-29 0 -48 16.5t-23 44.5q-16 -33 -51.5 -50.5t-76.5 -17.5q-72 0 -109.5 31.5t-49.5 86t-12 140.5v274h110v-269q0 -61 4.5 -100.5t24.5 -67.5t61 -28q44 0 66 33.5t22 83.5v348h110v-428zM145 575l-29 35l145 132
h4l149 -132l-30 -35l-120 73z" />
    <glyph glyph-name="udieresis" unicode="&#xfc;" horiz-adv-x="532" 
d="M64 0zM462 82q0 -49 31 -66q-8 -15 -23.5 -23t-35.5 -8q-29 0 -48 16.5t-23 44.5q-16 -33 -51.5 -50.5t-76.5 -17.5q-72 0 -109.5 31.5t-49.5 86t-12 140.5v274h110v-269q0 -61 4.5 -100.5t24.5 -67.5t61 -28q44 0 66 33.5t22 83.5v348h110v-428zM418.5 704
q20.5 -16 20.5 -46q0 -31 -21.5 -47.5t-55.5 -16.5q-33 0 -53 16t-20 46q0 31 21.5 47.5t54.5 16.5t53.5 -16zM219.5 704q20.5 -16 20.5 -46q0 -31 -21.5 -47.5t-55.5 -16.5q-33 0 -53 16t-20 46q0 31 21.5 47.5t54.5 16.5t53.5 -16z" />
    <glyph glyph-name="yacute" unicode="&#xfd;" horiz-adv-x="423" 
d="M8 0zM423 510l-227 -703l-110 13l99 228h-50l-127 462h114l95 -395l102 395h104zM308 759q20 -5 33.5 -21t13.5 -36q0 -27 -24 -46t-61 -35l-109 -49l-25 35z" />
    <glyph glyph-name="thorn" unicode="&#xfe;" horiz-adv-x="523" 
d="M180 599q0 -109 -10 -160q42 91 147 91q94 0 134 -75.5t40 -192.5q0 -128 -55 -206t-169 -78q-48 0 -87 13v-172l-110 -12v893l110 12v-113zM203 411.5q-23 -41.5 -23 -104.5v-238q46 -31 92 -31q61 0 80 62t19 157q0 89 -17 142.5t-76 53.5q-52 0 -75 -41.5z" />
    <glyph glyph-name="ydieresis" unicode="&#xff;" horiz-adv-x="423" 
d="M8 0zM423 510l-227 -703l-110 13l99 228h-50l-127 462h114l95 -395l102 395h104zM372.5 704q20.5 -16 20.5 -46q0 -31 -21.5 -47.5t-55.5 -16.5q-33 0 -53 16t-20 46q0 31 21.5 47.5t54.5 16.5t53.5 -16zM173.5 704q20.5 -16 20.5 -46q0 -31 -21.5 -47.5t-55.5 -16.5
q-33 0 -53 16t-20 46q0 31 21.5 47.5t54.5 16.5t53.5 -16z" />
    <glyph glyph-name="dotlessi" unicode="&#x131;" horiz-adv-x="244" 
d="M174 82q0 -49 31 -66q-8 -15 -26 -23t-39 -8q-38 0 -57 22t-19 62v441h110v-428z" />
    <glyph glyph-name="OE" unicode="&#x152;" horiz-adv-x="758" 
d="M721 0h-319q-49 -22 -111 -22q-140 0 -198.5 93t-58.5 256q0 160 60.5 256.5t196.5 96.5q62 0 108 -20h315v-74h-198v-210h168v-74h-168v-228h212zM399 97v463q-50 50 -108 50q-79 0 -105 -79.5t-26 -198.5q0 -125 25 -204.5t106 -79.5q59 0 108 49z" />
    <glyph glyph-name="oe" unicode="&#x153;" horiz-adv-x="777" 
d="M730 98q0 -36 -24 -63.5t-62 -42t-77 -14.5q-102 0 -157 65q-55 -65 -159 -65q-114 0 -166.5 73t-52.5 201q0 124 54 201t165 77q107 0 165 -71q61 71 167 71q74 0 119 -38.5t45 -108.5q0 -87 -60.5 -122t-164.5 -35q-29 0 -55 2q3 -79 26.5 -126t83.5 -47
q44 0 77.5 22.5t52.5 63.5q23 -11 23 -43zM491 416.5q-22 -56.5 -24 -137.5q24 -3 44 -3q127 0 127 101q0 41 -18 68.5t-53 27.5q-54 0 -76 -56.5zM330.5 408q-20.5 62 -79.5 62q-99 0 -99 -213q0 -97 18.5 -158t80.5 -61q60 0 79.5 57t20.5 147v15q0 89 -20.5 151z" />
    <glyph glyph-name="uni02BC" unicode="&#x2bc;" horiz-adv-x="201" 
d="M149 624q0 -30 -13.5 -59t-36 -47t-49.5 -18q-20 0 -35 7q39 57 39 115q0 42 -19 79q20 12 46 12q68 0 68 -89z" />
    <glyph glyph-name="circumflex" unicode="&#x2c6;" horiz-adv-x="318" 
d="M39 575l-29 35l145 132h4l149 -132l-30 -35l-120 73z" />
    <glyph glyph-name="ring" unicode="&#x2da;" horiz-adv-x="236" 
d="M41 589.5q-31 26.5 -31 70.5t30.5 69t77.5 25t77.5 -25t30.5 -69t-31 -70.5t-77 -26.5t-77 26.5zM155.5 614.5q12.5 17.5 12.5 45.5q0 27 -12.5 43.5t-37.5 16.5t-37.5 -16.5t-12.5 -43.5q0 -28 12.5 -45.5t37.5 -17.5t37.5 17.5z" />
    <glyph glyph-name="tilde" unicode="&#x2dc;" horiz-adv-x="324" 
d="M306 675q7 -14 7 -29q0 -24 -17 -36.5t-44 -12.5q-22 0 -84 12q-58 12 -78 12q-37 0 -53 -15q-13 8 -20 22t-7 29q0 24 17.5 36.5t44.5 12.5q24 0 84 -12q58 -12 77 -12q37 0 54 15q12 -8 19 -22z" />
    <glyph glyph-name="uni2002" unicode="&#x2002;" horiz-adv-x="402" 
 />
    <glyph glyph-name="endash" unicode="&#x2013;" horiz-adv-x="442" 
d="M7 237q0 47 58 47h361q9 -16 9 -40q0 -47 -59 -47h-360q-9 14 -9 40z" />
    <glyph glyph-name="emdash" unicode="&#x2014;" horiz-adv-x="868" 
d="M7 237q0 47 58 47h787q9 -16 9 -40q0 -25 -15.5 -36t-44.5 -11h-785q-9 14 -9 40z" />
    <glyph glyph-name="quoteleft" unicode="&#x2018;" horiz-adv-x="233" 
d="M63 513.5q-20 22.5 -20 63.5q0 32 15 63t41 50.5t57 19.5q21 0 38 -7q-37 -55 -37 -122q0 -22 5 -39.5t16 -37.5q-23 -13 -56 -13q-39 0 -59 22.5z" />
    <glyph glyph-name="quoteright" unicode="&#x2019;" horiz-adv-x="232" 
d="M170 687.5q20 -22.5 20 -63.5q0 -32 -15 -63t-41 -50.5t-57 -19.5q-21 0 -38 7q37 55 37 122q0 22 -5 39.5t-16 37.5q23 13 56 13q39 0 59 -22.5z" />
    <glyph glyph-name="quotesinglbase" unicode="&#x201a;" horiz-adv-x="232" 
d="M170 75.5q20 -22.5 20 -63.5q0 -32 -15 -63t-41 -50.5t-57 -19.5q-21 0 -38 7q37 55 37 122q0 22 -5 39.5t-16 37.5q23 13 56 13q39 0 59 -22.5z" />
    <glyph glyph-name="quotedblleft" unicode="&#x201c;" horiz-adv-x="422" 
d="M62 513.5q-20 22.5 -20 63.5q0 32 15 63t41 50.5t57 19.5q21 0 38 -7q-37 -55 -37 -122q0 -22 5 -39.5t16 -37.5q-23 -13 -56 -13q-39 0 -59 22.5zM251 513.5q-20 22.5 -20 63.5q0 32 15.5 63t41.5 50.5t57 19.5q21 0 38 -7q-37 -55 -37 -122q0 -22 5 -39.5t16 -37.5
q-23 -13 -56 -13q-40 0 -60 22.5z" />
    <glyph glyph-name="quotedblright" unicode="&#x201d;" horiz-adv-x="422" 
d="M170 687.5q20 -22.5 20 -63.5q0 -32 -15 -63t-41 -50.5t-57 -19.5q-21 0 -38 7q37 55 37 122q0 22 -5 39.5t-16 37.5q23 13 56 13q39 0 59 -22.5zM360 687.5q20 -22.5 20 -63.5q0 -32 -15 -63t-41.5 -50.5t-57.5 -19.5q-21 0 -38 7q37 55 37 122q0 22 -5 39.5t-16 37.5
q23 13 56 13q40 0 60 -22.5z" />
    <glyph glyph-name="quotedblbase" unicode="&#x201e;" horiz-adv-x="422" 
d="M170 75.5q20 -22.5 20 -63.5q0 -32 -15 -63t-41 -50.5t-57 -19.5q-21 0 -38 7q37 55 37 122q0 22 -5 39.5t-16 37.5q23 13 56 13q39 0 59 -22.5zM360 75.5q20 -22.5 20 -63.5q0 -32 -15 -63t-41.5 -50.5t-57.5 -19.5q-21 0 -38 7q37 55 37 122q0 22 -5 39.5t-16 37.5
q23 13 56 13q40 0 60 -22.5z" />
    <glyph glyph-name="bullet" unicode="&#x2022;" horiz-adv-x="253" 
d="M175.5 317.5q25.5 -20.5 25.5 -58.5q0 -39 -27 -60t-69 -21q-43 0 -68.5 20.5t-25.5 58.5q0 39 27.5 60t70.5 21q41 0 66.5 -20.5z" />
    <glyph glyph-name="ellipsis" unicode="&#x2026;" horiz-adv-x="671" 
d="M45 0zM399 90q20 -16 20 -46q0 -31 -21.5 -47.5t-54.5 -16.5t-53 16t-20 46q0 31 21.5 47.5t54.5 16.5t53 -16zM617 90q20 -16 20 -46q0 -31 -21.5 -47.5t-54.5 -16.5t-53 16t-20 46q0 31 21.5 47.5t54.5 16.5t53 -16zM174 90q20 -16 20 -46q0 -31 -21.5 -47.5
t-54.5 -16.5t-53 16t-20 46q0 31 21.5 47.5t54.5 16.5t53 -16z" />
    <glyph glyph-name="guilsinglleft" unicode="&#x2039;" horiz-adv-x="290" 
d="M158 509h94l-81 -192l81 -191h-95l-119 191z" />
    <glyph glyph-name="guilsinglright" unicode="&#x203a;" horiz-adv-x="290" 
d="M252 317l-119 -191h-95l81 191l-81 192h94z" />
    <glyph glyph-name="fraction" unicode="&#x2044;" horiz-adv-x="295" 
d="M227 720q50 0 50 -38q0 -12 -6 -36l-178 -735q-12 -2 -25 -2q-50 0 -50 38q0 12 6 36l178 735q12 2 25 2z" />
    <glyph glyph-name="Euro" unicode="&#x20ac;" 
d="M514 157.5q9 -14.5 9 -37.5q0 -45 -27.5 -77t-71.5 -48.5t-93 -16.5q-217 0 -253 236h-74q-6 12 -6 29q0 34 42 34h33q-1 11 -1 32q0 26 1 39h-69q-6 12 -6 29q0 34 42 34h41q19 108 80 178.5t177 70.5q84 0 136.5 -29t52.5 -93q0 -36 -21 -58.5t-57 -22.5q-35 0 -52 16
q8 22 8 50q0 36 -19 51.5t-57 15.5q-114 0 -129 -179h213q6 -12 6 -29q0 -34 -42 -34h-180v-33q0 -25 1 -38h215q6 -12 6 -29q0 -34 -42 -34h-173q25 -144 138 -144q56 0 89 25.5t53 83.5q21 -7 30 -21.5z" />
    <glyph glyph-name="trademark" unicode="&#x2122;" horiz-adv-x="720" 
d="M266 660l-4 -54h-84v-309h-85v309h-86v54h259zM638 660l35 -363h-82l-24 287l-68 -287h-73l-66 288l-24 -288h-66l35 363h111l57 -256l56 256h109z" />
    <glyph glyph-name="minus" unicode="&#x2212;" 
d="M63 234q0 23 13 36.5t36 13.5h356q9 -20 9 -35q0 -23 -13 -36.5t-36 -13.5h-356q-9 20 -9 35z" />
    <glyph glyph-name="uni2215" unicode="&#x2215;" horiz-adv-x="107" 
d="M189 682q0 -12 -6 -36l-178 -735q-12 -2 -25 -2q-50 0 -50 38q0 12 6 36l178 735q12 2 25 2q50 0 50 -38z" />
    <glyph glyph-name="Ldot" horiz-adv-x="400" 
d="M60 660h117v-586h218l-7 -74h-328v660zM348 390.5q17 -15.5 17 -41.5q0 -27 -18 -43t-43 -16q-24 0 -41 15.5t-17 41.5q0 27 18 43t43 16q24 0 41 -15.5z" />
    <glyph glyph-name="uni1E9E" horiz-adv-x="646" 
d="M48 332q-1 114 23 190t84 117t164 41q70 0 128 -32.5t88 -92.5q-62 -19 -95 -40.5t-33 -63.5q0 -26 21 -46t68 -53q45 -30 73 -54t48.5 -59t20.5 -80q0 -89 -54 -135t-147 -46q-84 0 -138.5 36.5t-54.5 109.5q0 36 21 58.5t56 22.5t52 -16q-8 -22 -8 -50q0 -95 81 -95
q43 0 66 23.5t23 67.5q0 31 -14 54.5t-35 39.5t-57 40q-40 26 -65 46.5t-42 51t-17 71.5q0 46 31 74.5t83 42.5q-43 55 -109 55q-63 0 -95 -38.5t-41.5 -97.5t-8.5 -142l2 -332h-117z" />
    <glyph glyph-name="Y.loclGUA" horiz-adv-x="551" 
d="M491 126q0 -104 -19 -174.5t-69 -110.5t-142 -40q-76 0 -129.5 30t-53.5 93q0 37 22.5 56t61.5 19q27 0 44 -11q-8 -27 -8 -49q0 -36 18.5 -55t54.5 -19q49 0 72 34t28.5 82t5.5 125q-17 -29 -53 -42t-77 -13q-80 0 -121 30t-54.5 85.5t-13.5 147.5v346h117v-335v-41
q0 -53 6 -87t27 -55t64 -21q49 0 72 29.5t28 72t5 113.5v324h114v-534z" />
    <glyph glyph-name="Yacute.loclGUA" horiz-adv-x="551" 
d="M58 0zM491 126q0 -104 -19 -174.5t-69 -110.5t-142 -40q-76 0 -129.5 30t-53.5 93q0 37 22.5 56t61.5 19q27 0 44 -11q-8 -27 -8 -49q0 -36 18.5 -55t54.5 -19q49 0 72 34t28.5 82t5.5 125q-17 -29 -53 -42t-77 -13q-80 0 -121 30t-54.5 85.5t-13.5 147.5v346h117v-335
v-41q0 -53 6 -87t27 -55t64 -21q49 0 72 29.5t28 72t5 113.5v324h114v-534zM409 837q13 -9 21 -22.5t8 -28.5q0 -36 -30 -49t-81 -17l-119 -9l-11 42z" />
    <glyph glyph-name="uni1EF8.loclGUA" horiz-adv-x="551" 
d="M58 0zM491 126q0 -104 -19 -174.5t-69 -110.5t-142 -40q-76 0 -129.5 30t-53.5 93q0 37 22.5 56t61.5 19q27 0 44 -11q-8 -27 -8 -49q0 -36 18.5 -55t54.5 -19q49 0 72 34t28.5 82t5.5 125q-17 -29 -53 -42t-77 -13q-80 0 -121 30t-54.5 85.5t-13.5 147.5v346h117v-335
v-41q0 -53 6 -87t27 -55t64 -21q49 0 72 29.5t28 72t5 113.5v324h114v-534zM419 798q7 -14 7 -29q0 -24 -17 -36.5t-44 -12.5q-23 0 -85 12q-58 12 -77 12q-37 0 -53 -15q-13 8 -20 22t-7 29q0 24 17 36.5t44 12.5q28 0 86 -13q7 -1 33.5 -6t42.5 -5q37 0 53 15
q13 -8 20 -22z" />
    <glyph glyph-name="Oacute.loclPLK" horiz-adv-x="581" 
d="M34 0zM547 339q0 -361 -256 -361q-140 0 -198.5 93t-58.5 256q0 160 60.5 256.5t196.5 96.5q256 0 256 -341zM396 127.5q25 79.5 25 204.5q0 119 -26 198.5t-104 79.5q-79 0 -105 -79.5t-26 -198.5q0 -125 25 -204.5t106 -79.5q80 0 105 79.5zM315 857q39 0 59 -13
t20 -36q0 -19 -16 -47.5t-52 -75.5l-63 15z" />
    <glyph glyph-name="i.loclTRK" horiz-adv-x="244" 
d="M43 0zM174 82q0 -49 31 -66q-8 -15 -26 -23t-39 -8q-38 0 -57 22t-19 62v441h110v-428zM172.5 704q20.5 -16 20.5 -46q0 -31 -21.5 -47.5t-55.5 -16.5q-33 0 -53 16t-20 46q0 31 21.5 47.5t54.5 16.5t53.5 -16z" />
    <glyph glyph-name="ldot" horiz-adv-x="269" 
d="M178 712v-630q0 -49 31 -66q-8 -15 -26.5 -23t-38.5 -8q-38 0 -57 22t-19 62v631zM298 372.5q17 -15.5 17 -41.5q0 -27 -18 -43t-43 -16q-24 0 -41 15.5t-17 41.5q0 27 18 43t43 16q24 0 41 -15.5z" />
    <glyph glyph-name="y.loclGUA" horiz-adv-x="524" 
d="M458 101q0 -97 -17.5 -162t-64 -102t-131.5 -37q-70 0 -120 28t-50 86q0 34 21 52t57 18q26 0 40 -11q-8 -24 -8 -45q0 -34 17.5 -51.5t51.5 -17.5q45 0 66.5 31.5t26.5 75t5 111.5v27q-19 -27 -52 -41.5t-69 -14.5q-72 0 -108.5 31.5t-47.5 85.5t-11 141v204h110v-199
q0 -65 3.5 -102.5t22.5 -65.5t60 -28q44 0 66 33.5t22 83.5v278h110v-409z" />
    <glyph glyph-name="yacute.loclGUA" horiz-adv-x="524" 
d="M64 0zM458 101q0 -97 -17.5 -162t-64 -102t-131.5 -37q-70 0 -120 28t-50 86q0 34 21 52t57 18q26 0 40 -11q-8 -24 -8 -45q0 -34 17.5 -51.5t51.5 -17.5q45 0 66.5 31.5t26.5 75t5 111.5v27q-19 -27 -52 -41.5t-69 -14.5q-72 0 -108.5 31.5t-47.5 85.5t-11 141v204h110
v-199q0 -65 3.5 -102.5t22.5 -65.5t60 -28q44 0 66 33.5t22 83.5v278h110v-409zM353 759q20 -5 33.5 -21t13.5 -36q0 -27 -24 -46t-61 -35l-109 -49l-25 35z" />
    <glyph glyph-name="ydieresis.loclGUA" horiz-adv-x="524" 
d="M64 0zM458 101q0 -97 -17.5 -162t-64 -102t-131.5 -37q-70 0 -120 28t-50 86q0 34 21 52t57 18q26 0 40 -11q-8 -24 -8 -45q0 -34 17.5 -51.5t51.5 -17.5q45 0 66.5 31.5t26.5 75t5 111.5v27q-19 -27 -52 -41.5t-69 -14.5q-72 0 -108.5 31.5t-47.5 85.5t-11 141v204h110
v-199q0 -65 3.5 -102.5t22.5 -65.5t60 -28q44 0 66 33.5t22 83.5v278h110v-409zM417.5 704q20.5 -16 20.5 -46q0 -31 -21.5 -47.5t-55.5 -16.5q-33 0 -53 16t-20 46q0 31 21.5 47.5t54.5 16.5t53.5 -16zM218.5 704q20.5 -16 20.5 -46q0 -31 -21.5 -47.5t-55.5 -16.5
q-33 0 -53 16t-20 46q0 31 21.5 47.5t54.5 16.5t53.5 -16z" />
    <glyph glyph-name="uni1EF9.loclGUA" horiz-adv-x="524" 
d="M64 0zM458 101q0 -97 -17.5 -162t-64 -102t-131.5 -37q-70 0 -120 28t-50 86q0 34 21 52t57 18q26 0 40 -11q-8 -24 -8 -45q0 -34 17.5 -51.5t51.5 -17.5q45 0 66.5 31.5t26.5 75t5 111.5v27q-19 -27 -52 -41.5t-69 -14.5q-72 0 -108.5 31.5t-47.5 85.5t-11 141v204h110
v-199q0 -65 3.5 -102.5t22.5 -65.5t60 -28q44 0 66 33.5t22 83.5v278h110v-409zM407 675q7 -14 7 -29q0 -24 -17 -36.5t-44 -12.5q-22 0 -84 12q-58 12 -78 12q-37 0 -53 -15q-13 8 -20 22t-7 29q0 24 17.5 36.5t44.5 12.5q24 0 84 -12q58 -12 77 -12q37 0 54 15
q12 -8 19 -22z" />
    <glyph glyph-name="oacute.loclPLK" horiz-adv-x="503" 
d="M32 0zM417 457.5q54 -72.5 54 -195.5q0 -131 -52 -207.5t-168 -76.5q-114 0 -166.5 73t-52.5 201q0 124 54 201t165 77q112 0 166 -72.5zM332 99q19 61 19 158q0 89 -20.5 151t-79.5 62q-99 0 -99 -213q0 -97 18.5 -158t80.5 -61t81 61zM280 795q40 0 60 -13t20 -36
q0 -29 -44 -89l-51 -72l-43 18z" />
    <glyph glyph-name="uni03BC" horiz-adv-x="538" 
d="M499 16q-8 -15 -23.5 -23t-35.5 -8q-29 0 -48 16.5t-23 44.5q-16 -33 -51.5 -50.5t-76.5 -17.5q-34 0 -61 8v-166l-110 -12v702l110 12v-281q0 -61 4.5 -100.5t24.5 -67.5t61 -28q44 0 66 33.5t22 83.5v348h110v-428q0 -49 31 -66z" />
    <glyph glyph-name="uni2153" horiz-adv-x="795" 
d="M529 682q0 -12 -6 -36l-178 -735q-12 -2 -25 -2q-50 0 -50 38q0 12 6 36l178 735q12 2 25 2q50 0 50 -38zM219 671v-332h73v-54h-239v54h78v248q-10 -10 -25.5 -16t-27.5 -6q-41 0 -41 48q35 10 79.5 29.5t73.5 37.5zM706 369.5q33 -21.5 33 -69.5q0 -32 -17 -57t-47 -38
q39 -8 61.5 -31t22.5 -60q0 -60 -44.5 -90.5t-112.5 -30.5q-45 0 -75.5 18.5t-30.5 56.5q0 31 16 38q25 -51 90 -51q29 0 47.5 15.5t18.5 43.5q0 30 -19 44.5t-52 14.5q-19 0 -30 -2v47q38 0 61.5 17t23.5 51q0 21 -13.5 32t-36.5 11q-27 0 -45.5 -14.5t-27.5 -41.5
q-22 8 -22 43q0 37 32.5 56t77.5 19q56 0 89 -21.5z" />
    <glyph glyph-name="uni2154" horiz-adv-x="795" 
d="M520 682q0 -12 -6 -36l-178 -735q-12 -2 -25 -2q-50 0 -50 38q0 12 6 36l178 735q12 2 26 2q49 0 49 -38zM261 645.5q33 -27.5 33 -84.5q0 -31 -12 -55t-36.5 -51t-84.5 -86l-23 -19h163l-4 -65h-252l-4 52l33 34l67 72q28 30 44 57t16 57q0 53 -50 53q-30 0 -51.5 -17
t-30.5 -47q-23 7 -23 40q0 43 35.5 65t85.5 22q61 0 94 -27.5zM697 369.5q33 -21.5 33 -69.5q0 -32 -17 -57t-47 -38q39 -8 61.5 -31t22.5 -60q0 -60 -44 -90.5t-112 -30.5q-46 0 -76.5 18.5t-30.5 56.5q0 31 16 38q25 -51 90 -51q29 0 47.5 15.5t18.5 43.5q0 30 -19 44.5
t-52 14.5q-19 0 -30 -2v47q38 0 61.5 17t23.5 51q0 21 -13.5 32t-36.5 11q-27 0 -45.5 -14.5t-27.5 -41.5q-22 8 -22 43q0 37 32.5 56t77.5 19q56 0 89 -21.5z" />
    <glyph glyph-name="oneeighth" horiz-adv-x="795" 
d="M519 682q0 -12 -6 -36l-178 -735q-12 -2 -25 -2q-50 0 -50 38q0 12 6 36l178 735q12 2 25 2q50 0 50 -38zM210 671v-332h73v-54h-240v54h78v248q-10 -10 -25.5 -16t-27.5 -6q-41 0 -41 48q35 10 79.5 29.5t73.5 37.5zM722 368q33 -23 33 -67q0 -28 -18.5 -51t-48.5 -39
q41 -27 64 -52t23 -61q0 -49 -38.5 -77t-98.5 -28q-57 0 -94 28.5t-37 79.5q0 28 20.5 52.5t53.5 41.5q-31 22 -49 45.5t-18 55.5q0 44 36 69.5t88 25.5q51 0 84 -23zM613.5 330q-11.5 -11 -11.5 -29q0 -19 13 -35t38 -33q14 13 22 30.5t8 37.5q0 17 -11.5 28.5t-28.5 11.5
q-18 0 -29.5 -11zM583 95q0 -26 14 -40t37 -14q25 0 39 13t14 38q0 23 -18.5 41.5t-53.5 40.5q-32 -32 -32 -79z" />
    <glyph glyph-name="quotesingle.loclGUA" horiz-adv-x="120" 
d="M6 704q22 6 43 6q37 0 53 -23t16 -69q0 -45 -13 -99.5t-27 -81.5h-58q0 189 -14 267z" />
    <glyph glyph-name="uni20B2" 
d="M387 283l108 14v-278q-30 -16 -75 -26.5t-90 -13.5v-39q0 -57 -46 -57q-25 0 -39 9v90q-111 18 -159.5 105.5t-48.5 229.5q0 144 54 235t173 105v40q0 28 10.5 43t35.5 15q23 0 39 -9v-88q72 -7 115 -42t43 -102q0 -36 -21 -58.5t-56 -22.5t-52 16q8 22 8 50
q0 43 -22.5 67t-64.5 24q-80 0 -108 -77t-28 -191q0 -117 28.5 -191.5t112.5 -74.5q47 0 87 13z" />
    <glyph glyph-name="dotaccent" horiz-adv-x="169" 
d="M139.5 704q20.5 -16 20.5 -46q0 -31 -21.5 -47.5t-55.5 -16.5q-33 0 -53 16t-20 46q0 31 21.5 47.5t54.5 16.5t53.5 -16z" />
    <glyph glyph-name="acute.case" horiz-adv-x="261" 
d="M222 837q13 -9 21 -22.5t8 -28.5q0 -36 -30 -49t-81 -17l-119 -9l-11 42z" />
    <glyph glyph-name="circumflex.case" horiz-adv-x="317" 
d="M41 669l-29 35l145 132h4l149 -132l-30 -35l-120 73z" />
    <glyph glyph-name="grave.case" horiz-adv-x="261" 
d="M120 720q-51 4 -80.5 17t-29.5 49q0 15 7.5 28.5t20.5 22.5l213 -84l-11 -42z" />
    <glyph glyph-name="acute.loclPLK.case" horiz-adv-x="261" 
d="M104 857q39 0 59 -13t20 -36q0 -19 -16 -47.5t-52 -75.5l-63 15z" />
    <glyph glyph-name="ring.case" horiz-adv-x="222" 
d="M39 725q-29 23 -29 61t28 59.5t72 21.5t72.5 -21.5t28.5 -59.5t-29 -61t-72 -23q-42 0 -71 23zM142 750q11 14 11 36q0 21 -11 34t-32 13q-20 0 -31 -13t-11 -34q0 -22 10.5 -36t31.5 -14t32 14z" />
    <glyph glyph-name="tilde.case" horiz-adv-x="323" 
d="M306 798q7 -14 7 -29q0 -24 -17 -36.5t-44 -12.5q-23 0 -85 12q-58 12 -77 12q-37 0 -53 -15q-13 8 -20 22t-7 29q0 24 17 36.5t44 12.5q28 0 86 -13q7 -1 33.5 -6t42.5 -5q37 0 53 15q13 -8 20 -22z" />
    <glyph glyph-name="acute.loclPLK" horiz-adv-x="239" 
d="M95 775q40 0 60 -13t20 -36q0 -29 -44 -89l-51 -72l-43 18z" />
    <glyph glyph-name=".ttfautohint" horiz-adv-x="155" 
d="M0 0z" />
    </font>
</defs>
</svg>
